  0
SECTION
  2
HEADER
  9
$ACADVER
  1
AC1027
  9
$ACADMAINTVER
 70
   125
  9
$DWGCODEPAGE
  3
ANSI_1252
  9
$LASTSAVEDBY
  1
Josburn
  9
$REQUIREDVERSIONS
160
                 0
  9
$INSBASE
 10
0.0
 20
0.0
 30
0.0
  9
$EXTMIN
 10
172.5545030513887
 20
50.2492134667019
 30
0.0
  9
$EXTMAX
 10
301.6076526576878
 20
140.5864181911112
 30
825.7674439999997
  9
$LIMMIN
 10
0.0
 20
0.0
  9
$LIMMAX
 10
12.0
 20
9.0
  9
$ORTHOMODE
 70
     0
  9
$REGENMODE
 70
     1
  9
$FILLMODE
 70
     1
  9
$QTEXTMODE
 70
     0
  9
$MIRRTEXT
 70
     0
  9
$LTSCALE
 40
1.0
  9
$ATTMODE
 70
     1
  9
$TEXTSIZE
 40
0.2
  9
$TRACEWID
 40
0.05
  9
$TEXTSTYLE
  7
Standard
  9
$CLAYER
  8
0
  9
$CELTYPE
  6
ByLayer
  9
$CECOLOR
 62
   256
  9
$CELTSCALE
 40
1.0
  9
$DISPSILH
 70
     0
  9
$DIMSCALE
 40
1.0
  9
$DIMASZ
 40
0.18
  9
$DIMEXO
 40
0.0625
  9
$DIMDLI
 40
0.38
  9
$DIMRND
 40
0.0
  9
$DIMDLE
 40
0.0
  9
$DIMEXE
 40
0.18
  9
$DIMTP
 40
0.0
  9
$DIMTM
 40
0.0
  9
$DIMTXT
 40
0.18
  9
$DIMCEN
 40
0.09
  9
$DIMTSZ
 40
0.0
  9
$DIMTOL
 70
     0
  9
$DIMLIM
 70
     0
  9
$DIMTIH
 70
     1
  9
$DIMTOH
 70
     1
  9
$DIMSE1
 70
     0
  9
$DIMSE2
 70
     0
  9
$DIMTAD
 70
     0
  9
$DIMZIN
 70
     0
  9
$DIMBLK
  1

  9
$DIMASO
 70
     1
  9
$DIMSHO
 70
     1
  9
$DIMPOST
  1

  9
$DIMAPOST
  1

  9
$DIMALT
 70
     0
  9
$DIMALTD
 70
     2
  9
$DIMALTF
 40
25.4
  9
$DIMLFAC
 40
1.0
  9
$DIMTOFL
 70
     0
  9
$DIMTVP
 40
0.0
  9
$DIMTIX
 70
     0
  9
$DIMSOXD
 70
     0
  9
$DIMSAH
 70
     0
  9
$DIMBLK1
  1

  9
$DIMBLK2
  1

  9
$DIMSTYLE
  2
Standard
  9
$DIMCLRD
 70
     0
  9
$DIMCLRE
 70
     0
  9
$DIMCLRT
 70
     0
  9
$DIMTFAC
 40
1.0
  9
$DIMGAP
 40
0.09
  9
$DIMJUST
 70
     0
  9
$DIMSD1
 70
     0
  9
$DIMSD2
 70
     0
  9
$DIMTOLJ
 70
     1
  9
$DIMTZIN
 70
     0
  9
$DIMALTZ
 70
     0
  9
$DIMALTTZ
 70
     0
  9
$DIMUPT
 70
     0
  9
$DIMDEC
 70
     4
  9
$DIMTDEC
 70
     4
  9
$DIMALTU
 70
     2
  9
$DIMALTTD
 70
     2
  9
$DIMTXSTY
  7
Standard
  9
$DIMAUNIT
 70
     0
  9
$DIMADEC
 70
     0
  9
$DIMALTRND
 40
0.0
  9
$DIMAZIN
 70
     0
  9
$DIMDSEP
 70
    46
  9
$DIMATFIT
 70
     3
  9
$DIMFRAC
 70
     0
  9
$DIMLDRBLK
  1

  9
$DIMLUNIT
 70
     2
  9
$DIMLWD
 70
    -2
  9
$DIMLWE
 70
    -2
  9
$DIMTMOVE
 70
     0
  9
$DIMFXL
 40
1.0
  9
$DIMFXLON
 70
     0
  9
$DIMJOGANG
 40
0.7853981633974483
  9
$DIMTFILL
 70
     0
  9
$DIMTFILLCLR
 70
     0
  9
$DIMARCSYM
 70
     0
  9
$DIMLTYPE
  6

  9
$DIMLTEX1
  6

  9
$DIMLTEX2
  6

  9
$DIMTXTDIRECTION
 70
     0
  9
$LUNITS
 70
     2
  9
$LUPREC
 70
     4
  9
$SKETCHINC
 40
0.1
  9
$FILLETRAD
 40
0.0
  9
$AUNITS
 70
     0
  9
$AUPREC
 70
     0
  9
$MENU
  1
.
  9
$ELEVATION
 40
0.0
  9
$PELEVATION
 40
0.0
  9
$THICKNESS
 40
0.0
  9
$LIMCHECK
 70
     0
  9
$CHAMFERA
 40
0.0
  9
$CHAMFERB
 40
0.0
  9
$CHAMFERC
 40
0.0
  9
$CHAMFERD
 40
0.0
  9
$SKPOLY
 70
     0
  9
$TDCREATE
 40
2458611.654548611
  9
$TDUCREATE
 40
2458611.821215278
  9
$TDUPDATE
 40
2458612.369340278
  9
$TDUUPDATE
 40
2458612.536006944
  9
$TDINDWG
 40
0.0039236111
  9
$TDUSRTIMER
 40
0.0039236111
  9
$USRTIMER
 70
     1
  9
$ANGBASE
 50
0.0
  9
$ANGDIR
 70
     0
  9
$PDMODE
 70
     0
  9
$PDSIZE
 40
0.0
  9
$PLINEWID
 40
0.0
  9
$SPLFRAME
 70
     0
  9
$SPLINETYPE
 70
     6
  9
$SPLINESEGS
 70
     8
  9
$HANDSEED
  5
686
  9
$SURFTAB1
 70
     6
  9
$SURFTAB2
 70
     6
  9
$SURFTYPE
 70
     6
  9
$SURFU
 70
     6
  9
$SURFV
 70
     6
  9
$UCSBASE
  2

  9
$UCSNAME
  2

  9
$UCSORG
 10
0.0
 20
0.0
 30
0.0
  9
$UCSXDIR
 10
1.0
 20
0.0
 30
0.0
  9
$UCSYDIR
 10
0.0
 20
1.0
 30
0.0
  9
$UCSORTHOREF
  2

  9
$UCSORTHOVIEW
 70
     0
  9
$UCSORGTOP
 10
0.0
 20
0.0
 30
0.0
  9
$UCSORGBOTTOM
 10
0.0
 20
0.0
 30
0.0
  9
$UCSORGLEFT
 10
0.0
 20
0.0
 30
0.0
  9
$UCSORGRIGHT
 10
0.0
 20
0.0
 30
0.0
  9
$UCSORGFRONT
 10
0.0
 20
0.0
 30
0.0
  9
$UCSORGBACK
 10
0.0
 20
0.0
 30
0.0
  9
$PUCSBASE
  2

  9
$PUCSNAME
  2

  9
$PUCSORG
 10
0.0
 20
0.0
 30
0.0
  9
$PUCSXDIR
 10
1.0
 20
0.0
 30
0.0
  9
$PUCSYDIR
 10
0.0
 20
1.0
 30
0.0
  9
$PUCSORTHOREF
  2

  9
$PUCSORTHOVIEW
 70
     0
  9
$PUCSORGTOP
 10
0.0
 20
0.0
 30
0.0
  9
$PUCSORGBOTTOM
 10
0.0
 20
0.0
 30
0.0
  9
$PUCSORGLEFT
 10
0.0
 20
0.0
 30
0.0
  9
$PUCSORGRIGHT
 10
0.0
 20
0.0
 30
0.0
  9
$PUCSORGFRONT
 10
0.0
 20
0.0
 30
0.0
  9
$PUCSORGBACK
 10
0.0
 20
0.0
 30
0.0
  9
$USERI1
 70
     0
  9
$USERI2
 70
     0
  9
$USERI3
 70
     0
  9
$USERI4
 70
     0
  9
$USERI5
 70
     0
  9
$USERR1
 40
0.0
  9
$USERR2
 40
0.0
  9
$USERR3
 40
0.0
  9
$USERR4
 40
0.0
  9
$USERR5
 40
0.0
  9
$WORLDVIEW
 70
     1
  9
$SHADEDGE
 70
     3
  9
$SHADEDIF
 70
    70
  9
$TILEMODE
 70
     1
  9
$MAXACTVP
 70
    64
  9
$PINSBASE
 10
0.0
 20
0.0
 30
0.0
  9
$PLIMCHECK
 70
     0
  9
$PEXTMIN
 10
1.049999952316284
 20
0.7999999523162842
 30
0.0
  9
$PEXTMAX
 10
9.449999570846559
 20
7.199999570846558
 30
0.0
  9
$PLIMMIN
 10
-0.2500002402958907
 20
-0.2499999962453767
  9
$PLIMMAX
 10
10.74999951940822
 20
8.249999763458733
  9
$UNITMODE
 70
     0
  9
$VISRETAIN
 70
     1
  9
$PLINEGEN
 70
     0
  9
$PSLTSCALE
 70
     1
  9
$TREEDEPTH
 70
  3020
  9
$CMLSTYLE
  2
Standard
  9
$CMLJUST
 70
     0
  9
$CMLSCALE
 40
1.0
  9
$PROXYGRAPHICS
 70
     1
  9
$MEASUREMENT
 70
     0
  9
$CELWEIGHT
370
    -1
  9
$ENDCAPS
280
     0
  9
$JOINSTYLE
280
     0
  9
$LWDISPLAY
290
     0
  9
$INSUNITS
 70
     1
  9
$HYPERLINKBASE
  1

  9
$STYLESHEET
  1

  9
$XEDIT
290
     1
  9
$CEPSNTYPE
380
     0
  9
$PSTYLEMODE
290
     1
  9
$FINGERPRINTGUID
  2
{B68923AB-2BB3-D845-A2D4-7A00756973BF}
  9
$VERSIONGUID
  2
{278773CA-1D97-4D42-BFEC-71F84AF6D0C2}
  9
$EXTNAMES
290
     1
  9
$PSVPSCALE
 40
0.0
  9
$OLESTARTUP
290
     0
  9
$SORTENTS
280
   127
  9
$INDEXCTL
280
     0
  9
$HIDETEXT
280
     1
  9
$XCLIPFRAME
280
     2
  9
$HALOGAP
280
     0
  9
$OBSCOLOR
 70
   257
  9
$OBSLTYPE
280
     0
  9
$INTERSECTIONDISPLAY
280
     0
  9
$INTERSECTIONCOLOR
 70
   257
  9
$DIMASSOC
280
     2
  9
$PROJECTNAME
  1

  9
$CAMERADISPLAY
290
     0
  9
$LENSLENGTH
 40
50.0
  9
$CAMERAHEIGHT
 40
0.0
  9
$STEPSPERSEC
 40
2.0
  9
$STEPSIZE
 40
6.0
  9
$3DDWFPREC
 40
2.0
  9
$PSOLWIDTH
 40
0.25
  9
$PSOLHEIGHT
 40
4.0
  9
$LOFTANG1
 40
1.570796326794896
  9
$LOFTANG2
 40
1.570796326794896
  9
$LOFTMAG1
 40
0.0
  9
$LOFTMAG2
 40
0.0
  9
$LOFTPARAM
 70
     7
  9
$LOFTNORMALS
280
     1
  9
$LATITUDE
 40
37.795
  9
$LONGITUDE
 40
-122.394
  9
$NORTHDIRECTION
 40
0.0
  9
$TIMEZONE
 70
 -8000
  9
$LIGHTGLYPHDISPLAY
280
     1
  9
$TILEMODELIGHTSYNCH
280
     1
  9
$CMATERIAL
347
96
  9
$SOLIDHIST
280
     0
  9
$SHOWHIST
280
     1
  9
$DWFFRAME
280
     2
  9
$DGNFRAME
280
     0
  9
$REALWORLDSCALE
290
     1
  9
$INTERFERECOLOR
 62
     1
  9
$INTERFEREOBJVS
345
A3
  9
$INTERFEREVPVS
346
A0
  9
$CSHADOW
280
     0
  9
$SHADOWPLANELOCATION
 40
0.0
  0
ENDSEC
  0
SECTION
  2
CLASSES
  0
CLASS
  1
ACDBDICTIONARYWDFLT
  2
AcDbDictionaryWithDefault
  3
ObjectDBX Classes
 90
        0
 91
        1
280
     0
281
     0
  0
CLASS
  1
DICTIONARYVAR
  2
AcDbDictionaryVar
  3
ObjectDBX Classes
 90
        0
 91
        9
280
     0
281
     0
  0
CLASS
  1
TABLESTYLE
  2
AcDbTableStyle
  3
ObjectDBX Classes
 90
     4095
 91
        1
280
     0
281
     0
  0
CLASS
  1
MATERIAL
  2
AcDbMaterial
  3
ObjectDBX Classes
 90
     1153
 91
        3
280
     0
281
     0
  0
CLASS
  1
VISUALSTYLE
  2
AcDbVisualStyle
  3
ObjectDBX Classes
 90
     4095
 91
       24
280
     0
281
     0
  0
CLASS
  1
SCALE
  2
AcDbScale
  3
ObjectDBX Classes
 90
     1153
 91
       33
280
     0
281
     0
  0
CLASS
  1
MLEADERSTYLE
  2
AcDbMLeaderStyle
  3
ACDB_MLEADERSTYLE_CLASS
 90
     4095
 91
        2
280
     0
281
     0
  0
CLASS
  1
CELLSTYLEMAP
  2
AcDbCellStyleMap
  3
ObjectDBX Classes
 90
     1152
 91
        1
280
     0
281
     0
  0
CLASS
  1
EXACXREFPANELOBJECT
  2
ExAcXREFPanelObject
  3
EXAC_ESW
 90
     1025
 91
        0
280
     0
281
     0
  0
CLASS
  1
NPOCOLLECTION
  2
AcDbImpNonPersistentObjectsCollection
  3
ObjectDBX Classes
 90
     1153
 91
        0
280
     0
281
     0
  0
CLASS
  1
LAYER_INDEX
  2
AcDbLayerIndex
  3
ObjectDBX Classes
 90
        0
 91
        0
280
     0
281
     0
  0
CLASS
  1
SPATIAL_INDEX
  2
AcDbSpatialIndex
  3
ObjectDBX Classes
 90
        0
 91
        0
280
     0
281
     0
  0
CLASS
  1
IDBUFFER
  2
AcDbIdBuffer
  3
ObjectDBX Classes
 90
        0
 91
        0
280
     0
281
     0
  0
CLASS
  1
ACDBSECTIONVIEWSTYLE
  2
AcDbSectionViewStyle
  3
ObjectDBX Classes
 90
     1025
 91
        1
280
     0
281
     0
  0
CLASS
  1
ACDBDETAILVIEWSTYLE
  2
AcDbDetailViewStyle
  3
ObjectDBX Classes
 90
     1025
 91
        1
280
     0
281
     0
  0
CLASS
  1
SORTENTSTABLE
  2
AcDbSortentsTable
  3
ObjectDBX Classes
 90
        0
 91
        0
280
     0
281
     0
  0
CLASS
  1
PLOTSETTINGS
  2
AcDbPlotSettings
  3
ObjectDBX Classes
 90
        0
 91
        1
280
     0
281
     0
  0
ENDSEC
  0
SECTION
  2
TABLES
  0
TABLE
  2
VPORT
  5
8
330
0
100
AcDbSymbolTable
 70
     1
1001
ACAD
1000
DbSaveVer
1071
       51
  0
VPORT
  5
94
330
8
100
AcDbSymbolTableRecord
100
AcDbViewportTableRecord
  2
*Active
 70
     0
 10
0.0
 20
0.0
 11
1.0
 21
1.0
 12
248.2530610257303
 22
92.88512585543804
 13
0.0
 23
0.0
 14
0.5
 24
0.5
 15
0.5
 25
0.5
 16
0.0
 26
0.0
 36
1.0
 17
0.0
 27
0.0
 37
0.0
 40
104.861474706726
 41
2.463414634146341
 42
50.0
 43
0.0
 44
0.0
 50
0.0
 51
0.0
 71
     0
 72
  1000
 73
     1
 74
     3
 75
     0
 76
     0
 77
     0
 78
     0
281
     0
 65
     1
110
0.0
120
0.0
130
0.0
111
1.0
121
0.0
131
0.0
112
0.0
122
1.0
132
0.0
 79
     0
146
0.0
348
9F
 60
     3
 61
     5
292
     1
282
     1
141
0.0
142
0.0
 63
   250
421
  3355443
1001
ACAD_NAV_VCDISPLAY
1070
     3
  0
ENDTAB
  0
TABLE
  2
LTYPE
  5
5
330
0
100
AcDbSymbolTable
 70
     2
  0
LTYPE
  5
14
330
5
100
AcDbSymbolTableRecord
100
AcDbLinetypeTableRecord
  2
ByBlock
 70
     0
  3

 72
    65
 73
     0
 40
0.0
  0
LTYPE
  5
15
330
5
100
AcDbSymbolTableRecord
100
AcDbLinetypeTableRecord
  2
ByLayer
 70
     0
  3

 72
    65
 73
     0
 40
0.0
  0
LTYPE
  5
16
330
5
100
AcDbSymbolTableRecord
100
AcDbLinetypeTableRecord
  2
Continuous
 70
     0
  3
Solid line
 72
    65
 73
     0
 40
0.0
  0
LTYPE
  5
299
330
5
100
AcDbSymbolTableRecord
100
AcDbLinetypeTableRecord
  2
CENTERX2
 70
     0
  3
Center (2x) ________  __  ________  __  _____
 72
    65
 73
     4
 40
0.8
 49
0.5
 74
     0
 49
-0.1
 74
     0
 49
0.1
 74
     0
 49
-0.1
 74
     0
  0
ENDTAB
  0
TABLE
  2
LAYER
  5
2
102
{ACAD_XDICTIONARY
360
18E
102
}
330
0
100
AcDbSymbolTable
 70
     3
  0
LAYER
  5
10
102
{ACAD_XDICTIONARY
360
E6
102
}
330
2
100
AcDbSymbolTableRecord
100
AcDbLayerTableRecord
  2
0
 70
     0
 62
     7
  6
Continuous
370
    -3
390
F
347
98
348
0
  0
LAYER
  5
29A
330
2
100
AcDbSymbolTableRecord
100
AcDbLayerTableRecord
  2
Defpoints
 70
     0
 62
     7
  6
Continuous
290
     0
370
    -3
390
F
347
98
348
0
  0
LAYER
  5
29B
102
{ACAD_XDICTIONARY
360
29C
102
}
330
2
100
AcDbSymbolTableRecord
100
AcDbLayerTableRecord
  2
10-Title Block
 70
     0
 62
     7
  6
Continuous
370
    25
390
F
347
98
348
0
  0
ENDTAB
  0
TABLE
  2
STYLE
  5
3
330
0
100
AcDbSymbolTable
 70
     4
  0
STYLE
  5
11
330
3
100
AcDbSymbolTableRecord
100
AcDbTextStyleTableRecord
  2
Standard
 70
     0
 40
0.0
 41
1.0
 50
0.0
 71
     0
 42
0.2
  3
arial.ttf
  4

1001
ACAD
1000
Arial
1071
       34
  0
STYLE
  5
DC
330
3
100
AcDbSymbolTableRecord
100
AcDbTextStyleTableRecord
  2
Annotative
 70
     0
 40
0.0
 41
1.0
 50
0.0
 71
     0
 42
0.2
  3
arial.ttf
  4

1001
AcadAnnotative
1000
AnnotativeData
1002
{
1070
     1
1070
     1
1002
}
1001
ACAD
1000
Arial
1071
       34
  0
STYLE
  5
29D
330
3
100
AcDbSymbolTableRecord
100
AcDbTextStyleTableRecord
  2
SLDTEXTSTYLE0
 70
     0
 40
0.0
 41
0.75
 50
0.0
 71
     0
 42
1.653543307086614
  3
TXT
  4

  0
STYLE
  5
29E
330
3
100
AcDbSymbolTableRecord
100
AcDbTextStyleTableRecord
  2
Dim
 70
     0
 40
0.0
 41
1.0
 50
0.0
 71
     0
 42
3.0
  3
arial.ttf
  4

1001
ACAD
1000
Arial
1071
       34
  0
ENDTAB
  0
TABLE
  2
VIEW
  5
6
330
0
100
AcDbSymbolTable
 70
     4
  0
ENDTAB
  0
TABLE
  2
UCS
  5
7
330
0
100
AcDbSymbolTable
 70
     0
  0
ENDTAB
  0
TABLE
  2
APPID
  5
9
330
0
100
AcDbSymbolTable
 70
     9
  0
APPID
  5
12
330
9
100
AcDbSymbolTableRecord
100
AcDbRegAppTableRecord
  2
ACAD
 70
     0
  0
APPID
  5
DD
330
9
100
AcDbSymbolTableRecord
100
AcDbRegAppTableRecord
  2
AcadAnnoPO
 70
     0
  0
APPID
  5
DE
330
9
100
AcDbSymbolTableRecord
100
AcDbRegAppTableRecord
  2
AcadAnnotative
 70
     0
  0
APPID
  5
DF
330
9
100
AcDbSymbolTableRecord
100
AcDbRegAppTableRecord
  2
ACAD_DSTYLE_DIMJAG
 70
     0
  0
APPID
  5
E0
330
9
100
AcDbSymbolTableRecord
100
AcDbRegAppTableRecord
  2
ACAD_DSTYLE_DIMTALN
 70
     0
  0
APPID
  5
107
330
9
100
AcDbSymbolTableRecord
100
AcDbRegAppTableRecord
  2
ACAD_MLEADERVER
 70
     0
  0
APPID
  5
1A6
330
9
100
AcDbSymbolTableRecord
100
AcDbRegAppTableRecord
  2
ACAD_NAV_VCDISPLAY
 70
     0
  0
APPID
  5
2A2
330
9
100
AcDbSymbolTableRecord
100
AcDbRegAppTableRecord
  2
ACAD_PSEXT
 70
     0
  0
APPID
  5
60D
330
9
100
AcDbSymbolTableRecord
100
AcDbRegAppTableRecord
  2
ACAD_EXEMPT_FROM_CAD_STANDARDS
 70
     0
  0
ENDTAB
  0
TABLE
  2
DIMSTYLE
  5
A
330
0
100
AcDbSymbolTable
 70
     5
100
AcDbDimStyleTable
 71
     2
340
27
340
E1
  0
DIMSTYLE
105
27
330
A
100
AcDbSymbolTableRecord
100
AcDbDimStyleTableRecord
  2
Standard
 70
     0
340
11
  0
DIMSTYLE
105
E1
330
A
100
AcDbSymbolTableRecord
100
AcDbDimStyleTableRecord
  2
Annotative
 70
     0
 40
0.0
340
11
1001
AcadAnnotative
1000
AnnotativeData
1002
{
1070
     1
1070
     1
1002
}
1001
ACAD_DSTYLE_DIMJAG
1070
   388
1040
1.5
1001
ACAD_DSTYLE_DIMTALN
1070
   392
1070
     0
  0
DIMSTYLE
105
29F
330
A
100
AcDbSymbolTableRecord
100
AcDbDimStyleTableRecord
  2
VLMDIM3
 70
     0
 41
0.125
140
2.399999999999999
271
     2
289
     0
340
11
  0
DIMSTYLE
105
2A0
102
{ACAD_REACTORS
330
45A
330
4E2
330
504
330
505
330
528
330
529
330
534
330
4A4
102
}
330
A
100
AcDbSymbolTableRecord
100
AcDbDimStyleTableRecord
  2
3_4 Scale
 70
     0
 40
16.0
 41
0.09
 42
0.08
 44
0.0625
 73
     0
 74
     0
 77
     1
140
0.1
141
0.0
146
0.75
179
     4
276
     1
277
     5
340
29E
  0
DIMSTYLE
105
2A1
102
{ACAD_REACTORS
330
506
330
52A
102
}
330
A
100
AcDbSymbolTableRecord
100
AcDbDimStyleTableRecord
  2
SLDDIMSTYLE7
 70
     0
 41
0.156
 44
0.0
 45
0.000000001
 78
     4
 79
     1
140
0.1377952755905512
144
2.0
147
0.0344488188976378
172
     1
173
     1
271
     2
272
     2
276
     2
284
    12
289
     0
340
29D
  0
ENDTAB
  0
TABLE
  2
BLOCK_RECORD
  5
1
330
0
100
AcDbSymbolTable
 70
    22
  0
BLOCK_RECORD
  5
1F
102
{ACAD_XDICTIONARY
360
15D
102
}
330
1
100
AcDbSymbolTableRecord
100
AcDbBlockTableRecord
  2
*Model_Space
340
22
 70
     0
280
     1
281
     0
  0
BLOCK_RECORD
  5
58
330
1
100
AcDbSymbolTableRecord
100
AcDbBlockTableRecord
  2
*Paper_Space
340
59
 70
     0
280
     1
281
     0
  0
BLOCK_RECORD
  5
5D
330
1
100
AcDbSymbolTableRecord
100
AcDbBlockTableRecord
  2
*Paper_Space0
340
5E
 70
     0
280
     1
281
     0
  0
BLOCK_RECORD
  5
203
330
1
100
AcDbSymbolTableRecord
100
AcDbBlockTableRecord
  2
SW_HATCH_0
340
0
102
{BLKREFS
331
502
331
526
102
}
 70
     0
280
     1
281
     0
  0
BLOCK_RECORD
  5
537
330
1
100
AcDbSymbolTableRecord
100
AcDbBlockTableRecord
  2
*D12
340
0
 70
     0
280
     1
281
     0
  0
BLOCK_RECORD
  5
543
330
1
100
AcDbSymbolTableRecord
100
AcDbBlockTableRecord
  2
*D13
340
0
 70
     0
280
     1
281
     0
  0
BLOCK_RECORD
  5
54F
330
1
100
AcDbSymbolTableRecord
100
AcDbBlockTableRecord
  2
*D14
340
0
 70
     0
280
     1
281
     0
  0
BLOCK_RECORD
  5
55B
330
1
100
AcDbSymbolTableRecord
100
AcDbBlockTableRecord
  2
*D15
340
0
 70
     0
280
     1
281
     0
  0
BLOCK_RECORD
  5
567
330
1
100
AcDbSymbolTableRecord
100
AcDbBlockTableRecord
  2
*D16
340
0
 70
     0
280
     1
281
     0
  0
BLOCK_RECORD
  5
574
330
1
100
AcDbSymbolTableRecord
100
AcDbBlockTableRecord
  2
*D17
340
0
 70
     0
280
     1
281
     0
  0
BLOCK_RECORD
  5
580
330
1
100
AcDbSymbolTableRecord
100
AcDbBlockTableRecord
  2
*D18
340
0
 70
     0
280
     1
281
     0
  0
BLOCK_RECORD
  5
58C
330
1
100
AcDbSymbolTableRecord
100
AcDbBlockTableRecord
  2
*D19
340
0
 70
     0
280
     1
281
     0
  0
BLOCK_RECORD
  5
599
330
1
100
AcDbSymbolTableRecord
100
AcDbBlockTableRecord
  2
*D20
340
0
 70
     0
280
     1
281
     0
  0
BLOCK_RECORD
  5
5A5
330
1
100
AcDbSymbolTableRecord
100
AcDbBlockTableRecord
  2
*D21
340
0
 70
     0
280
     1
281
     0
  0
ENDTAB
  0
ENDSEC
  0
SECTION
  2
BLOCKS
  0
BLOCK
  5
20
330
1F
100
AcDbEntity
  8
0
100
AcDbBlockBegin
  2
*Model_Space
 70
     0
 10
0.0
 20
0.0
 30
0.0
  3
*Model_Space
  1

  0
ENDBLK
  5
21
330
1F
100
AcDbEntity
  8
0
100
AcDbBlockEnd
  0
BLOCK
  5
5A
330
58
100
AcDbEntity
 67
     1
  8
0
100
AcDbBlockBegin
  2
*Paper_Space
 70
     0
 10
0.0
 20
0.0
 30
0.0
  3
*Paper_Space
  1

  0
ENDBLK
  5
5B
330
58
100
AcDbEntity
 67
     1
  8
0
100
AcDbBlockEnd
  0
BLOCK
  5
5F
330
5D
100
AcDbEntity
 67
     1
  8
0
100
AcDbBlockBegin
  2
*Paper_Space0
 70
     0
 10
0.0
 20
0.0
 30
0.0
  3
*Paper_Space0
  1

  0
VIEWPORT
  5
649
102
{ACAD_XDICTIONARY
360
64A
102
}
330
5D
100
AcDbEntity
 67
     1
  8
0
100
AcDbViewport
 10
5.249999639556165
 20
3.999999883606678
 30
0.0
 40
22.15348717859663
 41
8.992999745766949
 68
     1
 69
     1
 12
5.249999639556165
 22
3.999999883606678
 13
0.0
 23
0.0
 14
0.5
 24
0.5
 15
0.5
 25
0.5
 16
0.0
 26
0.0
 36
1.0
 17
0.0
 27
0.0
 37
0.0
 42
50.0
 43
0.0
 44
0.0
 45
8.992999745766949
 50
0.0
 51
0.0
 72
  1000
 90
   557088
  1

281
     0
 71
     1
 74
     0
110
0.0
120
0.0
130
0.0
111
1.0
121
0.0
131
0.0
112
0.0
122
1.0
132
0.0
 79
     0
146
0.0
170
     0
 61
     5
348
9F
292
     1
282
     1
141
0.0
142
0.0
 63
   250
421
  3355443
  0
VIEWPORT
  5
64D
102
{ACAD_XDICTIONARY
360
64E
102
}
330
5D
100
AcDbEntity
 67
     1
  8
0
100
AcDbViewport
 10
5.249999761581421
 20
3.999999761581421
 30
0.0
 40
8.399999618530275
 41
6.399999618530274
 68
     2
 69
     2
 12
237.0810778545382
 22
95.41781582890658
 13
0.0
 23
0.0
 14
0.5
 24
0.5
 15
0.5
 25
0.5
 16
0.0
 26
0.0
 36
1.0
 17
0.0
 27
0.0
 37
0.0
 42
50.0
 43
0.0
 44
0.0
 45
99.1388211162808
 50
0.0
 51
0.0
 72
  1000
 90
   819808
  1

281
     0
 71
     1
 74
     0
110
0.0
120
0.0
130
0.0
111
1.0
121
0.0
131
0.0
112
0.0
122
1.0
132
0.0
 79
     0
146
0.0
170
     0
 61
     5
348
9F
292
     1
282
     1
141
0.0
142
0.0
 63
   250
421
  3355443
  0
ENDBLK
  5
60
330
5D
100
AcDbEntity
 67
     1
  8
0
100
AcDbBlockEnd
  0
BLOCK
  5
204
330
203
100
AcDbEntity
  8
0
100
AcDbBlockBegin
  2
SW_HATCH_0
 70
     0
 10
0.0
 20
0.0
 30
0.0
  3
SW_HATCH_0
  1

  0
LINE
  5
205
330
203
100
AcDbEntity
  8
0
  6
Continuous
 62
     0
370
    18
100
AcDbLine
 10
0.0
 20
0.0
 30
0.0
 11
-0.042541641888656
 21
-0.0425414952236836
 31
0.0
  0
LINE
  5
206
330
203
100
AcDbEntity
  8
0
  6
Continuous
 62
     0
370
    18
100
AcDbLine
 10
1.358002658904068
 20
1.358002365574123
 30
0.0
 11
1.167745336772888
 21
1.167745850100291
 31
0.0
  0
LINE
  5
207
330
203
100
AcDbEntity
  8
0
  6
Continuous
 62
     0
370
    18
100
AcDbLine
 10
0.1826589032420962
 20
0.005882182048531
 30
0.0
 11
-0.0151147053936335
 21
-0.1918914999196848
 31
0.0
  0
LINE
  5
208
330
203
100
AcDbEntity
  8
0
  6
Continuous
 62
     0
370
    18
100
AcDbLine
 10
1.540337725887148
 20
1.363561334689771
 30
0.0
 11
1.15079673256461
 21
0.9740203780334766
 31
0.0
  0
LINE
  5
209
330
203
100
AcDbEntity
  8
0
  6
Continuous
 62
     0
370
    18
100
AcDbLine
 10
0.3646695473062711
 20
0.0111159949204115
 30
0.0
 11
0.0213262603038878
 21
-0.3322269620857839
 31
0.0
  0
LINE
  5
20A
330
203
100
AcDbEntity
  8
0
  6
Continuous
 62
     0
370
    18
100
AcDbLine
 10
1.408863724686029
 20
1.055310648961329
 30
0.0
 11
1.133848128356332
 21
0.7802949059666612
 31
0.0
  0
LINE
  5
20B
330
203
100
AcDbEntity
  8
0
  6
Continuous
 62
     0
370
    18
100
AcDbLine
 10
1.722673966190007
 20
1.369120377137905
 30
0.0
 11
1.464692626412459
 21
1.111138890695384
 31
0.0
  0
LINE
  5
20C
330
203
100
AcDbEntity
  8
0
  6
Continuous
 62
     0
370
    18
100
AcDbLine
 10
0.5475953807980996
 20
0.0172647405562438
 30
0.0
 11
0.0657164675044263
 21
-0.4646140994049433
 31
0.0
  0
LINE
  5
20D
330
203
100
AcDbEntity
  8
0
  6
Continuous
 62
     0
370
    18
100
AcDbLine
 10
1.391915120477751
 20
0.8615851402282714
 30
0.0
 11
1.116899524148055
 21
0.5865694338998458
 31
0.0
  0
LINE
  5
20E
330
203
100
AcDbEntity
  8
0
  6
Continuous
 62
     0
370
    18
100
AcDbLine
 10
1.905009033173088
 20
1.374679419586039
 30
0.0
 11
1.647027693395539
 21
1.116697933143518
 31
0.0
  0
LINE
  5
20F
330
203
100
AcDbEntity
  8
0
  6
Continuous
 62
     0
370
    18
100
AcDbLine
 10
0.7457479717224603
 20
0.0386416736080891
 30
0.0
 11
0.1209405228847594
 21
-0.5861661418920427
 31
0.0
  0
LINE
  5
210
330
203
100
AcDbEntity
  8
0
  6
Continuous
 62
     0
370
    18
100
AcDbLine
 10
1.374966516269473
 20
0.667859668161456
 30
0.0
 11
1.090105593673826
 21
0.3829990434790338
 31
0.0
  0
LINE
  5
211
330
203
100
AcDbEntity
  8
0
  6
Continuous
 62
     0
370
    18
100
AcDbLine
 10
2.087345273475947
 20
1.380238388701686
 30
0.0
 11
1.829363933698398
 21
1.122256975591652
 31
0.0
  0
LINE
  5
212
330
203
100
AcDbEntity
  8
0
  6
Continuous
 62
     0
370
    18
100
AcDbLine
 10
1.358017912061195
 20
0.4741341915113602
 30
0.0
 11
1.159702228528486
 21
0.2758185088358948
 31
0.0
  0
LINE
  5
213
330
203
100
AcDbEntity
  8
0
  6
Continuous
 62
     0
370
    18
100
AcDbLine
 10
2.269680340459027
 20
1.38579743114982
 30
0.0
 11
2.011699000681478
 21
1.127815944707299
 31
0.0
  0
LINE
  5
214
330
203
100
AcDbEntity
  8
0
  6
Continuous
 62
     0
370
    18
100
AcDbLine
 10
0.6384185449344906
 20
-0.4222412688994971
 30
0.0
 11
0.4744940386043759
 21
-0.5861661418920427
 31
0.0
  0
LINE
  5
215
330
203
100
AcDbEntity
  8
0
  6
Continuous
 62
     0
370
    18
100
AcDbLine
 10
1.307940623891635
 20
0.2472803700627304
 30
0.0
 11
1.246800008992473
 21
0.1861397761899281
 31
0.0
  0
LINE
  5
216
330
203
100
AcDbEntity
  8
0
  6
Continuous
 62
     0
370
    18
100
AcDbLine
 10
2.452016580761886
 20
1.391356400265468
 30
0.0
 11
2.194035240984338
 21
1.133374987155433
 31
0.0
  0
LINE
  5
217
330
203
100
AcDbEntity
  8
0
  6
Continuous
 62
     0
370
    18
100
AcDbLine
 10
2.634352821064746
 20
1.396915442713602
 30
0.0
 11
2.376370307967418
 21
1.138934029603567
 31
0.0
  0
LINE
  5
218
330
203
100
AcDbEntity
  8
0
  6
Continuous
 62
     0
370
    18
100
AcDbLine
 10
2.816687888047826
 20
1.402474485161736
 30
0.0
 11
2.558706548270277
 21
1.144492998719215
 31
0.0
  0
LINE
  5
219
330
203
100
AcDbEntity
  8
0
  6
Continuous
 62
     0
370
    18
100
AcDbLine
 10
2.999024128350685
 20
1.408033454277384
 30
0.0
 11
2.741042788573137
 21
1.150052041167349
 31
0.0
  0
LINE
  5
21A
330
203
100
AcDbEntity
  8
0
  6
Continuous
 62
     0
370
    18
100
AcDbLine
 10
3.181359195333766
 20
1.413592496725518
 30
0.0
 11
2.923377855556217
 21
1.155611010282997
 31
0.0
  0
LINE
  5
21B
330
203
100
AcDbEntity
  8
0
  6
Continuous
 62
     0
370
    18
100
AcDbLine
 10
3.18927558388297
 20
1.244732127414913
 30
0.0
 11
3.105714095859076
 21
1.161170052731131
 31
0.0
  0
LINE
  5
21C
330
203
100
AcDbEntity
  8
0
  6
Continuous
 62
     0
370
    18
100
AcDbLine
 10
1.078081031534128
 20
0.1941973121943557
 30
0.0
 11
0.2977175740745124
 21
-0.5861661418920427
 31
0.0
  0
LINE
  5
21D
330
203
100
AcDbEntity
  8
0
  6
Continuous
 62
     0
370
    18
100
AcDbLine
 10
1.217864524455905
 20
0.1572043016043212
 30
0.0
 11
0.8814670438841572
 21
-0.1791930632797752
 31
0.0
  0
ENDBLK
  5
21E
330
203
100
AcDbEntity
  8
0
100
AcDbBlockEnd
  0
BLOCK
  5
538
330
537
100
AcDbEntity
  8
0
100
AcDbBlockBegin
  2
*D12
 70
     1
 10
0.0
 20
0.0
 30
0.0
  3
*D12
  1

  0
LINE
  5
5B1
330
537
100
AcDbEntity
  8
0
  6
Continuous
 62
     0
440
 16777216
370
    -2
100
AcDbLine
 10
181.9547689283504
 20
116.1572800384946
 30
0.0
 11
181.9547689283504
 21
117.7390988794494
 31
0.0
  0
LINE
  5
5B2
330
537
100
AcDbEntity
  8
0
  6
Continuous
 62
     0
440
 16777216
370
    -2
100
AcDbLine
 10
207.0797689283504
 20
98.28228003849465
 30
0.0
 11
207.0797689283504
 21
117.7390988794494
 31
0.0
  0
LINE
  5
5B3
330
537
100
AcDbEntity
  8
0
  6
Continuous
 62
     0
440
 16777216
370
    -2
100
AcDbLine
 10
183.3947689283504
 20
116.7390988794494
 30
0.0
 11
205.6397689283504
 21
116.7390988794494
 31
0.0
  0
SOLID
  5
5B4
330
537
100
AcDbEntity
  8
0
  6
Continuous
 62
     0
440
 16777216
100
AcDbTrace
 10
183.3947689283504
 20
116.9790988794494
 30
0.0
 11
183.3947689283504
 21
116.4990988794494
 31
0.0
 12
181.9547689283504
 22
116.7390988794494
 32
0.0
 13
181.9547689283504
 23
116.7390988794494
 33
0.0
  0
SOLID
  5
5B5
330
537
100
AcDbEntity
  8
0
  6
Continuous
 62
     0
440
 16777216
100
AcDbTrace
 10
205.6397689283504
 20
116.9790988794494
 30
0.0
 11
205.6397689283504
 21
116.4990988794494
 31
0.0
 12
207.0797689283504
 22
116.7390988794494
 32
0.0
 13
207.0797689283504
 23
116.7390988794494
 33
0.0
  0
MTEXT
  5
5B6
330
537
100
AcDbEntity
  8
0
  6
Continuous
 62
     0
440
 16777216
370
    18
100
AcDbMText
 10
194.0047010094317
 20
119.8129324401588
 30
0.0
 40
1.6
 41
0.0
 46
0.0
 71
     2
 72
     1
  1
\A1;25
  7
Dim
 73
     1
 44
1.0
  0
POINT
  5
5B7
330
537
100
AcDbEntity
  8
Defpoints
  6
Continuous
 62
     0
440
 16777216
100
AcDbPoint
 10
181.9547689283504
 20
114.8772800384946
 30
0.0
  0
POINT
  5
5B8
330
537
100
AcDbEntity
  8
Defpoints
  6
Continuous
 62
     0
440
 16777216
100
AcDbPoint
 10
207.0797689283504
 20
97.00228003849465
 30
0.0
  0
POINT
  5
5B9
330
537
100
AcDbEntity
  8
Defpoints
  6
Continuous
 62
     0
440
 16777216
100
AcDbPoint
 10
207.0797689283504
 20
116.7390988794494
 30
0.0
  0
ENDBLK
  5
539
330
537
100
AcDbEntity
  8
0
100
AcDbBlockEnd
  0
BLOCK
  5
544
330
543
100
AcDbEntity
  8
0
100
AcDbBlockBegin
  2
*D13
 70
     1
 10
0.0
 20
0.0
 30
0.0
  3
*D13
  1

  0
LINE
  5
65E
330
543
100
AcDbEntity
  8
0
  6
Continuous
 62
     0
440
 16777216
370
    -2
100
AcDbLine
 10
180.6747689283504
 20
114.8772800384945
 30
0.0
 11
178.5680310606737
 21
114.8772800384945
 31
0.0
  0
LINE
  5
65F
330
543
100
AcDbEntity
  8
0
  6
Continuous
 62
     0
440
 16777216
370
    -2
100
AcDbLine
 10
180.6747689283504
 20
79.12728003849467
 30
0.0
 11
178.5680310606737
 21
79.12728003849467
 31
0.0
  0
LINE
  5
660
330
543
100
AcDbEntity
  8
0
  6
Continuous
 62
     0
440
 16777216
370
    -2
100
AcDbLine
 10
179.5680310606738
 20
113.4372800384944
 30
0.0
 11
179.5680310606738
 21
80.56728003849467
 31
0.0
  0
SOLID
  5
661
330
543
100
AcDbEntity
  8
0
  6
Continuous
 62
     0
440
 16777216
100
AcDbTrace
 10
179.3280310606737
 20
113.4372800384944
 30
0.0
 11
179.8080310606738
 21
113.4372800384944
 31
0.0
 12
179.5680310606738
 22
114.8772800384945
 32
0.0
 13
179.5680310606738
 23
114.8772800384945
 33
0.0
  0
SOLID
  5
662
330
543
100
AcDbEntity
  8
0
  6
Continuous
 62
     0
440
 16777216
100
AcDbTrace
 10
179.3280310606737
 20
80.56728003849467
 30
0.0
 11
179.8080310606738
 21
80.56728003849467
 31
0.0
 12
179.5680310606738
 22
79.12728003849467
 32
0.0
 13
179.5680310606738
 23
79.12728003849467
 33
0.0
  0
MTEXT
  5
663
330
543
100
AcDbEntity
  8
0
  6
Continuous
 62
     0
440
 16777216
370
    18
100
AcDbMText
 10
176.4931060947802
 20
96.87848534125279
 30
0.0
 40
1.6
 41
0.0
 46
0.0
 71
     2
 72
     1
  1
\A1;36
  7
Dim
 11
0.0000000000000001
 21
1.0
 31
0.0
 73
     1
 44
1.0
  0
POINT
  5
664
330
543
100
AcDbEntity
  8
Defpoints
  6
Continuous
 62
     0
440
 16777216
100
AcDbPoint
 10
181.9547689283504
 20
114.8772800384945
 30
0.0
  0
POINT
  5
665
330
543
100
AcDbEntity
  8
Defpoints
  6
Continuous
 62
     0
440
 16777216
100
AcDbPoint
 10
181.9547689283504
 20
79.12728003849467
 30
0.0
  0
POINT
  5
666
330
543
100
AcDbEntity
  8
Defpoints
  6
Continuous
 62
     0
440
 16777216
100
AcDbPoint
 10
179.5680310606738
 20
79.12728003849467
 30
0.0
  0
ENDBLK
  5
545
330
543
100
AcDbEntity
  8
0
100
AcDbBlockEnd
  0
BLOCK
  5
550
330
54F
100
AcDbEntity
  8
0
100
AcDbBlockBegin
  2
*D14
 70
     1
 10
0.0
 20
0.0
 30
0.0
  3
*D14
  1

  0
LINE
  5
5C3
330
54F
100
AcDbEntity
  8
0
  6
Continuous
 62
     0
440
 16777216
370
    -2
100
AcDbLine
 10
283.376029396274
 20
127.0938181524037
 30
0.0
 11
283.376029396274
 21
130.6176438571911
 31
0.0
  0
LINE
  5
5C4
330
54F
100
AcDbEntity
  8
0
  6
Continuous
 62
     0
440
 16777216
370
    -2
100
AcDbLine
 10
295.4531760089738
 20
127.0938181524038
 30
0.0
 11
295.4531760089738
 21
130.6176438571911
 31
0.0
  0
LINE
  5
5C5
330
54F
100
AcDbEntity
  8
0
  6
Continuous
 62
     0
440
 16777216
370
    -2
100
AcDbLine
 10
284.816029396274
 20
129.6176438571911
 30
0.0
 11
294.0131760089737
 21
129.6176438571911
 31
0.0
  0
SOLID
  5
5C6
330
54F
100
AcDbEntity
  8
0
  6
Continuous
 62
     0
440
 16777216
100
AcDbTrace
 10
284.816029396274
 20
129.857643857191
 30
0.0
 11
284.816029396274
 21
129.377643857191
 31
0.0
 12
283.376029396274
 22
129.6176438571911
 32
0.0
 13
283.376029396274
 23
129.6176438571911
 33
0.0
  0
SOLID
  5
5C7
330
54F
100
AcDbEntity
  8
0
  6
Continuous
 62
     0
440
 16777216
100
AcDbTrace
 10
294.0131760089737
 20
129.857643857191
 30
0.0
 11
294.0131760089737
 21
129.377643857191
 31
0.0
 12
295.4531760089738
 22
129.6176438571911
 32
0.0
 13
295.4531760089738
 23
129.6176438571911
 33
0.0
  0
MTEXT
  5
5C8
330
54F
100
AcDbEntity
  8
0
  6
Continuous
 62
     0
440
 16777216
370
    18
100
AcDbMText
 10
289.6282147602391
 20
132.6576438571911
 30
0.0
 40
1.6
 41
0.0
 46
0.0
 71
     2
 72
     1
  1
\A1;4
  7
Dim
 73
     1
 44
1.0
  0
POINT
  5
5C9
330
54F
100
AcDbEntity
  8
Defpoints
  6
Continuous
 62
     0
440
 16777216
100
AcDbPoint
 10
283.376029396274
 20
125.8138181524036
 30
0.0
  0
POINT
  5
5CA
330
54F
100
AcDbEntity
  8
Defpoints
  6
Continuous
 62
     0
440
 16777216
100
AcDbPoint
 10
295.4531760089738
 20
125.8138181524038
 30
0.0
  0
POINT
  5
5CB
330
54F
100
AcDbEntity
  8
Defpoints
  6
Continuous
 62
     0
440
 16777216
100
AcDbPoint
 10
295.4531760089738
 20
129.6176438571911
 30
0.0
  0
ENDBLK
  5
551
330
54F
100
AcDbEntity
  8
0
100
AcDbBlockEnd
  0
BLOCK
  5
55C
330
55B
100
AcDbEntity
  8
0
100
AcDbBlockBegin
  2
*D15
 70
     1
 10
0.0
 20
0.0
 30
0.0
  3
*D15
  1

  0
LINE
  5
5CC
330
55B
100
AcDbEntity
  8
0
  6
Continuous
 62
     0
440
 16777216
370
    -2
100
AcDbLine
 10
296.7331760089738
 20
125.8138181524038
 30
0.0
 11
299.0536405876627
 21
125.8138181524038
 31
0.0
  0
LINE
  5
5CD
330
55B
100
AcDbEntity
  8
0
  6
Continuous
 62
     0
440
 16777216
370
    -2
100
AcDbLine
 10
281.2255989052626
 20
113.7366715397041
 30
0.0
 11
299.0536405876627
 21
113.7366715397042
 31
0.0
  0
LINE
  5
5CE
330
55B
100
AcDbEntity
  8
0
  6
Continuous
 62
     0
440
 16777216
370
    -2
100
AcDbLine
 10
298.0536405876626
 20
124.3738181524038
 30
0.0
 11
298.0536405876626
 21
115.1766715397042
 31
0.0
  0
SOLID
  5
5CF
330
55B
100
AcDbEntity
  8
0
  6
Continuous
 62
     0
440
 16777216
100
AcDbTrace
 10
297.8136405876626
 20
124.3738181524038
 30
0.0
 11
298.2936405876627
 21
124.3738181524038
 31
0.0
 12
298.0536405876626
 22
125.8138181524038
 32
0.0
 13
298.0536405876626
 23
125.8138181524038
 33
0.0
  0
SOLID
  5
5D0
330
55B
100
AcDbEntity
  8
0
  6
Continuous
 62
     0
440
 16777216
100
AcDbTrace
 10
297.8136405876626
 20
115.1766715397042
 30
0.0
 11
298.2936405876627
 21
115.1766715397042
 31
0.0
 12
298.0536405876626
 22
113.7366715397042
 32
0.0
 13
298.0536405876626
 23
113.7366715397042
 33
0.0
  0
MTEXT
  5
5D1
330
55B
100
AcDbEntity
  8
0
  6
Continuous
 62
     0
440
 16777216
370
    18
100
AcDbMText
 10
294.3644727841156
 20
120.096047842258
 30
0.0
 40
1.6
 41
0.0
 46
0.0
 71
     2
 72
     1
  1
\A1;4 {\H0.7x;\S1#2;} 
  7
Dim
 11
0.0000000000000001
 21
1.0
 31
0.0
 73
     1
 44
1.0
  0
POINT
  5
5D2
330
55B
100
AcDbEntity
  8
Defpoints
  6
Continuous
 62
     0
440
 16777216
100
AcDbPoint
 10
295.4531760089738
 20
125.8138181524038
 30
0.0
  0
POINT
  5
5D3
330
55B
100
AcDbEntity
  8
Defpoints
  6
Continuous
 62
     0
440
 16777216
100
AcDbPoint
 10
279.9455989052626
 20
113.7366715397041
 30
0.0
  0
POINT
  5
5D4
330
55B
100
AcDbEntity
  8
Defpoints
  6
Continuous
 62
     0
440
 16777216
100
AcDbPoint
 10
298.0536405876626
 20
113.7366715397042
 30
0.0
  0
ENDBLK
  5
55D
330
55B
100
AcDbEntity
  8
0
100
AcDbBlockEnd
  0
BLOCK
  5
568
330
567
100
AcDbEntity
  8
0
100
AcDbBlockBegin
  2
*D16
 70
     1
 10
0.0
 20
0.0
 30
0.0
  3
*D16
  1

  0
LINE
  5
5D5
330
567
100
AcDbEntity
  8
0
  6
Continuous
 62
     0
440
 16777216
370
    -2
100
AcDbLine
 10
295.5156760089739
 20
124.3034733773278
 30
0.0
 11
297.1587040461177
 21
124.3034733773278
 31
0.0
  0
LINE
  5
5D6
330
567
100
AcDbEntity
  8
0
  6
Continuous
 62
     0
440
 16777216
370
    -2
100
AcDbLine
 10
295.5156760089739
 20
125.8138181524038
 30
0.0
 11
297.1587040461177
 21
125.8138181524038
 31
0.0
  0
LINE
  5
5D7
330
567
100
AcDbEntity
  8
0
  6
Continuous
 62
     0
440
 16777216
370
    -2
100
AcDbLine
 10
297.1587040461177
 20
124.4594733773278
 30
0.0
 11
297.1587040461177
 21
124.9552993081728
 31
0.0
  0
LINE
  5
5D8
330
567
100
AcDbEntity
  8
0
  6
Continuous
 62
     0
440
 16777216
370
    -2
100
AcDbLine
 10
297.1587040461177
 20
125.6578181524038
 30
0.0
 11
297.1587040461177
 21
125.1619922215586
 31
0.0
  0
SOLID
  5
5D9
330
567
100
AcDbEntity
  8
0
  6
Continuous
 62
     0
440
 16777216
100
AcDbTrace
 10
297.1327040461178
 20
124.4594733773278
 30
0.0
 11
297.1847040461177
 21
124.4594733773278
 31
0.0
 12
297.1587040461177
 22
124.3034733773278
 32
0.0
 13
297.1587040461177
 23
124.3034733773278
 33
0.0
  0
SOLID
  5
5DA
330
567
100
AcDbEntity
  8
0
  6
Continuous
 62
     0
440
 16777216
100
AcDbTrace
 10
297.1327040461178
 20
125.6578181524038
 30
0.0
 11
297.1847040461177
 21
125.6578181524038
 31
0.0
 12
297.1587040461177
 22
125.8138181524038
 32
0.0
 13
297.1587040461177
 23
125.8138181524038
 33
0.0
  0
MTEXT
  5
5DB
330
567
100
AcDbEntity
  8
0
  6
Continuous
 62
     0
440
 16777216
370
    18
100
AcDbMText
 10
297.1587040461177
 20
125.1275434026609
 30
0.0
 40
0.1377952755905512
 41
0.0
 46
0.0
 71
     2
 72
     1
  1
\A1;3.02
  7
SLDTEXTSTYLE0
 73
     1
 44
1.0
  0
POINT
  5
5DC
330
567
100
AcDbEntity
  8
Defpoints
  6
Continuous
 62
     0
440
 16777216
100
AcDbPoint
 10
295.4531760089738
 20
124.3034733773278
 30
0.0
  0
POINT
  5
5DD
330
567
100
AcDbEntity
  8
Defpoints
  6
Continuous
 62
     0
440
 16777216
100
AcDbPoint
 10
295.4531760089738
 20
125.8138181524038
 30
0.0
  0
POINT
  5
5DE
330
567
100
AcDbEntity
  8
Defpoints
  6
Continuous
 62
     0
440
 16777216
100
AcDbPoint
 10
297.1587040461177
 20
125.8138181524038
 30
0.0
  0
ENDBLK
  5
569
330
567
100
AcDbEntity
  8
0
100
AcDbBlockEnd
  0
BLOCK
  5
575
330
574
100
AcDbEntity
  8
0
100
AcDbBlockBegin
  2
*D17
 70
     1
 10
0.0
 20
0.0
 30
0.0
  3
*D17
  1

  0
LINE
  5
5DF
330
574
100
AcDbEntity
  8
0
  6
Continuous
 62
     0
440
 16777216
370
    -2
100
AcDbLine
 10
261.4749481465564
 20
127.7912594762674
 30
0.0
 11
261.4749481465564
 21
131.3150851810548
 31
0.0
  0
LINE
  5
5E0
330
574
100
AcDbEntity
  8
0
  6
Continuous
 62
     0
440
 16777216
370
    -2
100
AcDbLine
 10
249.3978015338566
 20
127.7912594762674
 30
0.0
 11
249.3978015338566
 21
131.3150851810548
 31
0.0
  0
LINE
  5
5E1
330
574
100
AcDbEntity
  8
0
  6
Continuous
 62
     0
440
 16777216
370
    -2
100
AcDbLine
 10
260.0349481465563
 20
130.3150851810548
 30
0.0
 11
250.8378015338566
 21
130.3150851810548
 31
0.0
  0
SOLID
  5
5E2
330
574
100
AcDbEntity
  8
0
  6
Continuous
 62
     0
440
 16777216
100
AcDbTrace
 10
260.0349481465563
 20
130.5550851810548
 30
0.0
 11
260.0349481465563
 21
130.0750851810548
 31
0.0
 12
261.4749481465564
 22
130.3150851810548
 32
0.0
 13
261.4749481465564
 23
130.3150851810548
 33
0.0
  0
SOLID
  5
5E3
330
574
100
AcDbEntity
  8
0
  6
Continuous
 62
     0
440
 16777216
100
AcDbTrace
 10
250.8378015338566
 20
130.5550851810548
 30
0.0
 11
250.8378015338566
 21
130.0750851810548
 31
0.0
 12
249.3978015338566
 22
130.3150851810548
 32
0.0
 13
249.3978015338566
 23
130.3150851810548
 33
0.0
  0
MTEXT
  5
5E4
330
574
100
AcDbEntity
  8
0
  6
Continuous
 62
     0
440
 16777216
370
    18
100
AcDbMText
 10
255.2227627825912
 20
133.3550851810548
 30
0.0
 40
1.6
 41
0.0
 46
0.0
 71
     2
 72
     1
  1
\A1;4
  7
Dim
 73
     1
 44
1.0
  0
POINT
  5
5E5
330
574
100
AcDbEntity
  8
Defpoints
  6
Continuous
 62
     0
440
 16777216
100
AcDbPoint
 10
261.4749481465564
 20
126.5112594762674
 30
0.0
  0
POINT
  5
5E6
330
574
100
AcDbEntity
  8
Defpoints
  6
Continuous
 62
     0
440
 16777216
100
AcDbPoint
 10
249.3978015338566
 20
126.5112594762674
 30
0.0
  0
POINT
  5
5E7
330
574
100
AcDbEntity
  8
Defpoints
  6
Continuous
 62
     0
440
 16777216
100
AcDbPoint
 10
249.3978015338566
 20
130.3150851810548
 30
0.0
  0
ENDBLK
  5
576
330
574
100
AcDbEntity
  8
0
100
AcDbBlockEnd
  0
BLOCK
  5
581
330
580
100
AcDbEntity
  8
0
100
AcDbBlockBegin
  2
*D18
 70
     1
 10
0.0
 20
0.0
 30
0.0
  3
*D18
  1

  0
LINE
  5
5E8
330
580
100
AcDbEntity
  8
0
  6
Continuous
 62
     0
440
 16777216
370
    -2
100
AcDbLine
 10
248.1178015338567
 20
126.5112594762675
 30
0.0
 11
245.286615147997
 21
126.5112594762675
 31
0.0
  0
LINE
  5
5E9
330
580
100
AcDbEntity
  8
0
  6
Continuous
 62
     0
440
 16777216
370
    -2
100
AcDbLine
 10
263.6253786375681
 20
114.434112863568
 30
0.0
 11
245.286615147997
 21
114.434112863568
 31
0.0
  0
LINE
  5
5EA
330
580
100
AcDbEntity
  8
0
  6
Continuous
 62
     0
440
 16777216
370
    -2
100
AcDbLine
 10
246.286615147997
 20
125.0712594762675
 30
0.0
 11
246.286615147997
 21
115.874112863568
 31
0.0
  0
SOLID
  5
5EB
330
580
100
AcDbEntity
  8
0
  6
Continuous
 62
     0
440
 16777216
100
AcDbTrace
 10
246.046615147997
 20
125.0712594762675
 30
0.0
 11
246.526615147997
 21
125.0712594762675
 31
0.0
 12
246.286615147997
 22
126.5112594762675
 32
0.0
 13
246.286615147997
 23
126.5112594762675
 33
0.0
  0
SOLID
  5
5EC
330
580
100
AcDbEntity
  8
0
  6
Continuous
 62
     0
440
 16777216
100
AcDbTrace
 10
246.046615147997
 20
115.874112863568
 30
0.0
 11
246.526615147997
 21
115.874112863568
 31
0.0
 12
246.286615147997
 22
114.434112863568
 32
0.0
 13
246.286615147997
 23
114.434112863568
 33
0.0
  0
MTEXT
  5
5ED
330
580
100
AcDbEntity
  8
0
  6
Continuous
 62
     0
440
 16777216
370
    18
100
AcDbMText
 10
242.5974473444499
 20
119.9173808240169
 30
0.0
 40
1.6
 41
0.0
 46
0.0
 71
     2
 72
     1
  1
\A1;4 {\H0.7x;\S1#2;} 
  7
Dim
 11
0.0000000000000001
 21
1.0
 31
0.0
 73
     1
 44
1.0
  0
POINT
  5
5EE
330
580
100
AcDbEntity
  8
Defpoints
  6
Continuous
 62
     0
440
 16777216
100
AcDbPoint
 10
249.3978015338567
 20
126.5112594762675
 30
0.0
  0
POINT
  5
5EF
330
580
100
AcDbEntity
  8
Defpoints
  6
Continuous
 62
     0
440
 16777216
100
AcDbPoint
 10
264.905378637568
 20
114.434112863568
 30
0.0
  0
POINT
  5
5F0
330
580
100
AcDbEntity
  8
Defpoints
  6
Continuous
 62
     0
440
 16777216
100
AcDbPoint
 10
246.286615147997
 20
114.434112863568
 30
0.0
  0
ENDBLK
  5
582
330
580
100
AcDbEntity
  8
0
100
AcDbBlockEnd
  0
BLOCK
  5
58D
330
58C
100
AcDbEntity
  8
0
100
AcDbBlockBegin
  2
*D19
 70
     1
 10
0.0
 20
0.0
 30
0.0
  3
*D19
  1

  0
LINE
  5
5F1
330
58C
100
AcDbEntity
  8
0
  6
Continuous
 62
     0
440
 16777216
370
    -2
100
AcDbLine
 10
249.3353015338568
 20
125.0009147011914
 30
0.0
 11
247.6922734967127
 21
125.0009147011914
 31
0.0
  0
LINE
  5
5F2
330
58C
100
AcDbEntity
  8
0
  6
Continuous
 62
     0
440
 16777216
370
    -2
100
AcDbLine
 10
249.3353015338567
 20
126.5112594762675
 30
0.0
 11
247.6922734967127
 21
126.5112594762675
 31
0.0
  0
LINE
  5
5F3
330
58C
100
AcDbEntity
  8
0
  6
Continuous
 62
     0
440
 16777216
370
    -2
100
AcDbLine
 10
247.6922734967127
 20
125.1569147011914
 30
0.0
 11
247.6922734967127
 21
125.6527406320364
 31
0.0
  0
LINE
  5
5F4
330
58C
100
AcDbEntity
  8
0
  6
Continuous
 62
     0
440
 16777216
370
    -2
100
AcDbLine
 10
247.6922734967127
 20
126.3552594762675
 30
0.0
 11
247.6922734967127
 21
125.8594335454223
 31
0.0
  0
SOLID
  5
5F5
330
58C
100
AcDbEntity
  8
0
  6
Continuous
 62
     0
440
 16777216
100
AcDbTrace
 10
247.6662734967127
 20
125.1569147011914
 30
0.0
 11
247.7182734967127
 21
125.1569147011914
 31
0.0
 12
247.6922734967127
 22
125.0009147011914
 32
0.0
 13
247.6922734967127
 23
125.0009147011914
 33
0.0
  0
SOLID
  5
5F6
330
58C
100
AcDbEntity
  8
0
  6
Continuous
 62
     0
440
 16777216
100
AcDbTrace
 10
247.6662734967127
 20
126.3552594762675
 30
0.0
 11
247.7182734967127
 21
126.3552594762675
 31
0.0
 12
247.6922734967127
 22
126.5112594762675
 32
0.0
 13
247.6922734967127
 23
126.5112594762675
 33
0.0
  0
MTEXT
  5
5F7
330
58C
100
AcDbEntity
  8
0
  6
Continuous
 62
     0
440
 16777216
370
    18
100
AcDbMText
 10
247.6922734967127
 20
125.8249847265245
 30
0.0
 40
0.1377952755905512
 41
0.0
 46
0.0
 71
     2
 72
     1
  1
\A1;3.02
  7
SLDTEXTSTYLE0
 73
     1
 44
1.0
  0
POINT
  5
5F8
330
58C
100
AcDbEntity
  8
Defpoints
  6
Continuous
 62
     0
440
 16777216
100
AcDbPoint
 10
249.3978015338567
 20
125.0009147011914
 30
0.0
  0
POINT
  5
5F9
330
58C
100
AcDbEntity
  8
Defpoints
  6
Continuous
 62
     0
440
 16777216
100
AcDbPoint
 10
249.3978015338567
 20
126.5112594762675
 30
0.0
  0
POINT
  5
5FA
330
58C
100
AcDbEntity
  8
Defpoints
  6
Continuous
 62
     0
440
 16777216
100
AcDbPoint
 10
247.6922734967127
 20
126.5112594762675
 30
0.0
  0
ENDBLK
  5
58E
330
58C
100
AcDbEntity
  8
0
100
AcDbBlockEnd
  0
BLOCK
  5
59A
330
599
100
AcDbEntity
  8
0
100
AcDbBlockBegin
  2
*D20
 70
     1
 10
0.0
 20
0.0
 30
0.0
  3
*D20
  1

  0
LINE
  5
5FB
330
599
100
AcDbEntity
  8
0
  6
Continuous
 62
     0
440
 16777216
370
    -2
100
AcDbLine
 10
233.2347689283505
 20
114.8772800384947
 30
0.0
 11
241.6162445094228
 21
114.8772800384947
 31
0.0
  0
LINE
  5
5FC
330
599
100
AcDbEntity
  8
0
  6
Continuous
 62
     0
440
 16777216
370
    -2
100
AcDbLine
 10
208.3597689283505
 20
97.00228003849471
 30
0.0
 11
241.6162445094228
 21
97.00228003849472
 31
0.0
  0
LINE
  5
5FD
330
599
100
AcDbEntity
  8
0
  6
Continuous
 62
     0
440
 16777216
370
    -2
100
AcDbLine
 10
240.6162445094228
 20
113.4372800384947
 30
0.0
 11
240.6162445094228
 21
98.44228003849472
 31
0.0
  0
SOLID
  5
5FE
330
599
100
AcDbEntity
  8
0
  6
Continuous
 62
     0
440
 16777216
100
AcDbTrace
 10
240.3762445094228
 20
113.4372800384947
 30
0.0
 11
240.8562445094228
 21
113.4372800384947
 31
0.0
 12
240.6162445094228
 22
114.8772800384947
 32
0.0
 13
240.6162445094228
 23
114.8772800384947
 33
0.0
  0
SOLID
  5
5FF
330
599
100
AcDbEntity
  8
0
  6
Continuous
 62
     0
440
 16777216
100
AcDbTrace
 10
240.3762445094228
 20
98.44228003849472
 30
0.0
 11
240.8562445094228
 21
98.44228003849472
 31
0.0
 12
240.6162445094228
 22
97.00228003849472
 32
0.0
 13
240.6162445094228
 23
97.00228003849472
 33
0.0
  0
MTEXT
  5
600
330
599
100
AcDbEntity
  8
0
  6
Continuous
 62
     0
440
 16777216
370
    18
100
AcDbMText
 10
238.3593277290681
 20
108.112874060535
 30
0.0
 40
1.6
 41
0.0
 46
0.0
 71
     5
 72
     1
  1
\A1;18
  7
Dim
 11
0.0000000000000001
 21
1.0
 31
0.0
 73
     1
 44
1.0
  0
POINT
  5
601
330
599
100
AcDbEntity
  8
Defpoints
  6
Continuous
 62
     0
440
 16777216
100
AcDbPoint
 10
231.9547689283505
 20
114.8772800384947
 30
0.0
  0
POINT
  5
602
330
599
100
AcDbEntity
  8
Defpoints
  6
Continuous
 62
     0
440
 16777216
100
AcDbPoint
 10
207.0797689283505
 20
97.00228003849471
 30
0.0
  0
POINT
  5
603
330
599
100
AcDbEntity
  8
Defpoints
  6
Continuous
 62
     0
440
 16777216
100
AcDbPoint
 10
240.6162445094228
 20
97.00228003849472
 30
0.0
  0
ENDBLK
  5
59B
330
599
100
AcDbEntity
  8
0
100
AcDbBlockEnd
  0
BLOCK
  5
5A6
330
5A5
100
AcDbEntity
  8
0
100
AcDbBlockBegin
  2
*D21
 70
     1
 10
0.0
 20
0.0
 30
0.0
  3
*D21
  1

  0
LINE
  5
667
330
5A5
100
AcDbEntity
  8
0
  6
Continuous
 62
     0
440
 16777216
370
    -2
100
AcDbLine
 10
231.9547689283504
 20
116.1572800384946
 30
0.0
 11
231.9547689283504
 21
124.7792428520982
 31
0.0
  0
LINE
  5
668
330
5A5
100
AcDbEntity
  8
0
  6
Continuous
 62
     0
440
 16777216
370
    -2
100
AcDbLine
 10
181.9547689283504
 20
116.1572800384946
 30
0.0
 11
181.9547689283504
 21
124.7792428520982
 31
0.0
  0
LINE
  5
669
330
5A5
100
AcDbEntity
  8
0
  6
Continuous
 62
     0
440
 16777216
370
    -2
100
AcDbLine
 10
230.5147689283504
 20
123.7792428520982
 30
0.0
 11
183.3947689283504
 21
123.7792428520982
 31
0.0
  0
SOLID
  5
66A
330
5A5
100
AcDbEntity
  8
0
  6
Continuous
 62
     0
440
 16777216
100
AcDbTrace
 10
230.5147689283504
 20
124.0192428520982
 30
0.0
 11
230.5147689283504
 21
123.5392428520982
 31
0.0
 12
231.9547689283504
 22
123.7792428520982
 32
0.0
 13
231.9547689283504
 23
123.7792428520982
 33
0.0
  0
SOLID
  5
66B
330
5A5
100
AcDbEntity
  8
0
  6
Continuous
 62
     0
440
 16777216
100
AcDbTrace
 10
183.3947689283504
 20
124.0192428520982
 30
0.0
 11
183.3947689283504
 21
123.5392428520982
 31
0.0
 12
181.9547689283504
 22
123.7792428520982
 32
0.0
 13
181.9547689283504
 23
123.7792428520982
 33
0.0
  0
MTEXT
  5
66C
330
5A5
100
AcDbEntity
  8
0
  6
Continuous
 62
     0
440
 16777216
370
    18
100
AcDbMText
 10
203.4244711845575
 20
126.8530764128076
 30
0.0
 40
1.6
 41
0.0
 46
0.0
 71
     2
 72
     1
  1
\A1;50
  7
Dim
 73
     1
 44
1.0
  0
POINT
  5
66D
330
5A5
100
AcDbEntity
  8
Defpoints
  6
Continuous
 62
     0
440
 16777216
100
AcDbPoint
 10
231.9547689283504
 20
114.8772800384946
 30
0.0
  0
POINT
  5
66E
330
5A5
100
AcDbEntity
  8
Defpoints
  6
Continuous
 62
     0
440
 16777216
100
AcDbPoint
 10
181.9547689283504
 20
114.8772800384946
 30
0.0
  0
POINT
  5
66F
330
5A5
100
AcDbEntity
  8
Defpoints
  6
Continuous
 62
     0
440
 16777216
100
AcDbPoint
 10
181.9547689283504
 20
123.7792428520982
 30
0.0
  0
ENDBLK
  5
5A7
330
5A5
100
AcDbEntity
  8
0
100
AcDbBlockEnd
  0
ENDSEC
  0
SECTION
  2
ENTITIES
  0
LINE
  5
3F1
330
1F
100
AcDbEntity
  8
0
  6
Continuous
 62
     7
370
    18
100
AcDbLine
 10
301.6076526576878
 20
140.5864181911112
 30
825.7674439999997
 11
172.5545030513887
 21
140.5864181911112
 31
825.7674439999997
  0
LINE
  5
3F2
330
1F
100
AcDbEntity
  8
0
  6
Continuous
 62
     7
370
    18
100
AcDbLine
 10
172.5545030513887
 20
140.5864181911112
 30
825.7674439999997
 11
172.5545030513887
 21
50.2492134667019
 31
825.7674439999997
  0
LINE
  5
3F3
330
1F
100
AcDbEntity
  8
0
  6
Continuous
 62
     7
370
    18
100
AcDbLine
 10
172.5545030513887
 20
50.2492134667019
 30
825.7674439999997
 11
301.6076526576878
 21
50.2492134667019
 31
825.7674439999997
  0
LINE
  5
3F4
330
1F
100
AcDbEntity
  8
0
  6
Continuous
 62
     7
370
    18
100
AcDbLine
 10
301.6076526576878
 20
50.2492134667019
 30
825.7674439999997
 11
301.6076526576878
 21
140.5864181911112
 31
825.7674439999997
  0
MTEXT
  5
3F5
330
1F
100
AcDbEntity
  8
10-Title Block
100
AcDbMText
 10
205.2539266407054
 20
59.62807559113601
 30
825.7674439999997
 40
2.5
 41
69.87074302402563
 46
0.0
 71
     5
 72
     5
  1
Tower Industries\PMeridian Solid Surface Shower Base\PModel #: MSB5036SU
  7
Dim
 73
     1
 44
1.0
  0
LINE
  5
3F6
330
1F
100
AcDbEntity
  8
0
  6
Continuous
 62
     7
370
    25
100
AcDbLine
 10
231.9547689283504
 20
79.12728003849465
 30
0.0
 11
231.9547689283504
 21
114.8772800384946
 31
0.0
  0
LINE
  5
3F7
330
1F
100
AcDbEntity
  8
0
  6
Continuous
 62
     7
370
    25
100
AcDbLine
 10
231.9547689283504
 20
79.12728003849465
 30
0.0
 11
227.804823562356
 21
83.27722540448908
 31
0.0
  0
ELLIPSE
  5
3F8
330
1F
100
AcDbEntity
  8
0
  6
Continuous
 62
     7
370
    25
100
AcDbEllipse
 10
226.9080072559745
 20
84.16642329950914
 30
0.0
 11
0.9984107046510631
 21
-0.7737142206748883
 31
0.0
210
0.0
220
0.0
230
1.0
 40
0.9894497113605201
 41
6.160042641139315
 42
6.937333068654589
  0
LINE
  5
3F9
330
1F
100
AcDbEntity
  8
0
  6
Continuous
 62
     7
370
    25
100
AcDbLine
 10
228.1661379117332
 20
109.8510240606243
 30
0.0
 11
228.1661379117333
 21
84.15353601636493
 31
0.0
  0
ELLIPSE
  5
3FA
330
1F
100
AcDbEntity
  8
0
  6
Continuous
 62
     7
370
    25
100
AcDbEllipse
 10
226.9080072559745
 20
109.8381367774801
 30
0.0
 11
0.9984107046510628
 21
0.7737142206748793
 31
0.0
210
0.0
220
0.0
230
1.0
 40
0.9894497113605199
 41
5.629037545704608
 42
6.406327973219876
  0
LINE
  5
3FB
330
1F
100
AcDbEntity
  8
0
  6
Continuous
 62
     7
370
    25
100
AcDbLine
 10
231.9547689283504
 20
114.8772800384946
 30
0.0
 11
227.804823562356
 21
110.7273346725002
 31
0.0
  0
LINE
  5
3FC
330
1F
100
AcDbEntity
  8
0
  6
Continuous
 62
     7
370
    18
100
AcDbLine
 10
181.9547689283504
 20
79.12728003849465
 30
0.0
 11
186.1047142943448
 21
83.27722540448908
 31
0.0
  0
ELLIPSE
  5
3FD
330
1F
100
AcDbEntity
  8
0
  6
Continuous
 62
     7
370
    18
100
AcDbEllipse
 10
186.9939121893649
 20
84.17404171087049
 30
0.0
 11
0.7737142206748882
 21
0.9984107046510537
 31
0.0
210
0.0
220
0.0
230
1.0
 40
0.9894497113605284
 41
3.018449987549519
 42
3.79574041506481
  0
LINE
  5
3FE
330
1F
100
AcDbEntity
  8
0
  6
Continuous
 62
     7
370
    18
100
AcDbLine
 10
226.92851295048
 20
82.91591105511193
 30
0.0
 11
186.9810249062207
 21
82.91591105511193
 31
0.0
  0
ELLIPSE
  5
3FF
330
1F
100
AcDbEntity
  8
0
  6
Continuous
 62
     7
370
    25
100
AcDbEllipse
 10
226.9156256673359
 20
84.17404171087049
 30
0.0
 11
-0.7737142206748705
 21
0.9984107046510624
 31
0.0
210
0.0
220
0.0
230
0.9999999999999998
 40
0.9894497113605343
 41
2.487444892114814
 42
3.264735319630105
  0
LINE
  5
400
330
1F
100
AcDbEntity
  8
0
  6
Continuous
 62
     7
370
    18
100
AcDbLine
 10
181.9547689283504
 20
79.12728003849465
 30
0.0
 11
231.9547689283504
 21
79.12728003849465
 31
0.0
  0
ELLIPSE
  5
401
330
1F
100
AcDbEntity
  8
0
  6
Continuous
 62
     7
370
    25
100
AcDbEllipse
 10
226.9156256673359
 20
109.8305183661185
 30
0.0
 11
0.7737142206748792
 21
0.9984107046510713
 31
0.0
210
0.0
220
0.0
230
1.0
 40
0.9894497113605213
 41
6.160042641139301
 42
6.937333068654571
  0
LINE
  5
402
330
1F
100
AcDbEntity
  8
0
  6
Continuous
 62
     7
370
    18
100
AcDbLine
 10
186.9810249062207
 20
111.0886490218776
 30
0.0
 11
226.92851295048
 21
111.0886490218776
 31
0.0
  0
ELLIPSE
  5
403
330
1F
100
AcDbEntity
  8
0
  6
Continuous
 62
     7
370
    18
100
AcDbEllipse
 10
186.9939121893649
 20
109.8305183661185
 30
0.0
 11
-0.7737142206748793
 21
0.9984107046510628
 31
0.0
210
0.0
220
0.0
230
1.0
 40
0.9894497113605225
 41
5.629037545704607
 42
6.40632797321988
  0
LINE
  5
404
330
1F
100
AcDbEntity
  8
0
  6
Continuous
 62
     7
370
    18
100
AcDbLine
 10
181.9547689283504
 20
114.8772800384946
 30
0.0
 11
186.1047142943448
 21
110.7273346725002
 31
0.0
  0
LINE
  5
405
330
1F
100
AcDbEntity
  8
0
  6
Continuous
 62
     7
370
    18
100
AcDbLine
 10
231.9547689283504
 20
114.8772800384946
 30
0.0
 11
181.9547689283504
 21
114.8772800384946
 31
0.0
  0
ELLIPSE
  5
406
330
1F
100
AcDbEntity
  8
0
  6
Continuous
 62
     7
370
    18
100
AcDbEllipse
 10
187.0015306007264
 20
84.16642329950914
 30
0.0
 11
0.9984107046510628
 21
0.7737142206748793
 31
0.0
210
0.0
220
0.0
230
1.0
 40
0.9894497113605233
 41
2.487444892114803
 42
3.264735319630099
  0
ELLIPSE
  5
407
330
1F
100
AcDbEntity
  8
0
  6
Continuous
 62
     7
370
    18
100
AcDbEllipse
 10
187.0015306007264
 20
109.8381367774801
 30
0.0
 11
0.9984107046510628
 21
-0.7737142206748793
 31
0.0
210
0.0
220
0.0
230
1.0
 40
0.9894497113605144
 41
3.018449987549505
 42
3.7957404150648
  0
LINE
  5
408
330
1F
100
AcDbEntity
  8
0
  6
Continuous
 62
     7
370
    18
100
AcDbLine
 10
185.7433999449675
 20
84.15353601636493
 30
0.0
 11
185.7433999449675
 21
109.8510240606243
 31
0.0
  0
LINE
  5
409
330
1F
100
AcDbEntity
  8
0
  6
Continuous
 62
     7
370
    18
100
AcDbLine
 10
181.9547689283504
 20
114.8772800384946
 30
0.0
 11
181.9547689283504
 21
79.12728003849465
 31
0.0
  0
LINE
  5
40A
330
1F
100
AcDbEntity
  8
0
  6
Continuous
 62
     7
370
    18
100
AcDbLine
 10
186.9810249062207
 20
110.8472187587159
 30
0.0
 11
186.9810249062207
 21
111.0886490218776
 31
0.0
  0
ELLIPSE
  5
40B
330
1F
100
AcDbEntity
  8
0
  6
Continuous
 62
     7
370
    18
100
AcDbEllipse
 10
186.9939121893649
 20
109.8381367774801
 30
0.0
 11
-0.6343305177476966
 21
0.7923439489246943
 31
0.0
210
0.0
220
0.0
230
1.0
 40
0.9850587945349158
 41
5.613551406678181
 42
6.395151471802315
  0
SPLINE
  5
40C
330
1F
100
AcDbEntity
  8
0
  6
Continuous
 62
     7
370
    18
100
AcDbSpline
210
0.0
220
0.0
230
1.0
 70
    24
 71
     3
 72
    28
 73
    24
 74
     0
 42
0.000000001
 43
0.0000000001
 40
0.0
 40
0.0
 40
0.0
 40
0.0
 40
0.1250000000000013
 40
0.1250000000000013
 40
0.2500000000000026
 40
0.2500000000000026
 40
0.3750000000000038
 40
0.3750000000000038
 40
0.4375000000000101
 40
0.4375000000000101
 40
0.5000000000000162
 40
0.5000000000000162
 40
0.625000000000019
 40
0.625000000000019
 40
0.6875000000000144
 40
0.6875000000000144
 40
0.75000000000001
 40
0.75000000000001
 40
0.875000000000001
 40
0.875000000000001
 40
0.9375000000000005
 40
0.9375000000000005
 40
1.0
 40
1.0
 40
1.0
 40
1.0
 10
186.1047142943448
 20
110.7273346725002
 30
0.0
 10
186.1153143913417
 20
110.7167345755034
 30
0.0
 10
186.125732966114
 20
110.7063160007309
 30
0.0
 10
186.146222270357
 20
110.6858266964879
 30
0.0
 10
186.1563472164797
 20
110.6757017503652
 30
0.0
 10
186.1759926846456
 20
110.6560562821995
 30
0.0
 10
186.1853365672599
 20
110.646712399585
 30
0.0
 10
186.1986570690087
 20
110.6333918978365
 30
0.0
 10
186.2029806471187
 20
110.6290683197261
 30
0.0
 10
186.2113900392539
 20
110.6206589275911
 30
0.0
 10
186.215493470568
 20
110.6165554962769
 30
0.0
 10
186.2272254578911
 20
110.6048235089539
 30
0.0
 10
186.2343289251201
 20
110.597720041725
 30
0.0
 10
186.2439310204294
 20
110.5881179464155
 30
0.0
 10
186.2469551614272
 20
110.5850938054179
 30
0.0
 10
186.2526415248358
 20
110.5794074420093
 30
0.0
 10
186.2553028866176
 20
110.5767460802273
 30
0.0
 10
186.2625820887024
 20
110.5694668781426
 30
0.0
 10
186.2665613296385
 20
110.5654876372065
 30
0.0
 10
186.2712354575325
 20
110.5608135093127
 30
0.0
 10
186.2725764558888
 20
110.5594725109567
 30
0.0
 10
186.2748112021766
 20
110.5572377646689
 30
0.0
 10
186.2757042021637
 20
110.5563447646788
 30
0.0
 10
186.2763459226753
 20
110.5557030441697
 30
0.0
  0
ELLIPSE
  5
40D
330
1F
100
AcDbEntity
  8
0
  6
Continuous
 62
     7
370
    18
100
AcDbEllipse
 10
186.9939121893649
 20
109.8381367774801
 30
0.0
 11
0.7923439489246949
 21
-0.6343305177477012
 31
0.0
210
0.0
220
0.0
230
1.0
 40
0.9850587945349214
 41
3.029626488967023
 42
3.811226554091222
  0
LINE
  5
40E
330
1F
100
AcDbEntity
  8
0
  6
Continuous
 62
     7
370
    18
100
AcDbLine
 10
185.7433999449675
 20
109.8510240606243
 30
0.0
 11
185.984830208129
 21
109.8510240606243
 31
0.0
  0
LINE
  5
40F
330
1F
100
AcDbEntity
  8
0
  6
Continuous
 62
     7
370
    25
100
AcDbLine
 10
226.92851295048
 20
82.91591105511193
 30
0.0
 11
226.92851295048
 21
83.15734131827333
 31
0.0
  0
ELLIPSE
  5
410
330
1F
100
AcDbEntity
  8
0
  6
Continuous
 62
     7
370
    25
100
AcDbEllipse
 10
226.9156256673359
 20
84.16642329950914
 30
0.0
 11
-0.6343305177476922
 21
0.7923439489246942
 31
0.0
210
0.0
220
0.0
230
1.0
 40
0.985058794534917
 41
2.471958753088382
 42
3.253558818212568
  0
SPLINE
  5
411
330
1F
100
AcDbEntity
  8
0
  6
Continuous
 62
     7
370
    25
100
AcDbSpline
210
0.0
220
0.0
230
1.0
 70
    24
 71
     3
 72
    28
 73
    24
 74
     0
 42
0.000000001
 43
0.0000000001
 40
0.0
 40
0.0
 40
0.0
 40
0.0
 40
0.1249999999999993
 40
0.1249999999999993
 40
0.2499999999999986
 40
0.2499999999999986
 40
0.3749999999999978
 40
0.3749999999999978
 40
0.4375000000000018
 40
0.4375000000000018
 40
0.5000000000000058
 40
0.5000000000000058
 40
0.6249999999999975
 40
0.6249999999999975
 40
0.6875000000000014
 40
0.6875000000000014
 40
0.7500000000000053
 40
0.7500000000000053
 40
0.8750000000000028
 40
0.8750000000000028
 40
0.9375000000000014
 40
0.9375000000000014
 40
1.0
 40
1.0
 40
1.0
 40
1.0
 10
227.804823562356
 20
83.27722540448908
 30
0.0
 10
227.794223465359
 20
83.28782550148584
 30
0.0
 10
227.7838048905868
 20
83.29824407625814
 30
0.0
 10
227.7633155863437
 20
83.31873338050117
 30
0.0
 10
227.753190640221
 20
83.32885832662386
 30
0.0
 10
227.7335451720551
 20
83.34850379478998
 30
0.0
 10
227.7242012894409
 20
83.35784767740427
 30
0.0
 10
227.7108807876922
 20
83.37116817915275
 30
0.0
 10
227.706557209582
 20
83.37549175726316
 30
0.0
 10
227.6981478174469
 20
83.38390114939819
 30
0.0
 10
227.6940443861327
 20
83.38800458071217
 30
0.0
 10
227.6823123988097
 20
83.39973656803534
 30
0.0
 10
227.6752089315806
 20
83.40684003526453
 30
0.0
 10
227.6656068362714
 20
83.41644213057374
 30
0.0
 10
227.6625826952734
 20
83.41946627157144
 30
0.0
 10
227.6568963318648
 20
83.42515263497979
 30
0.0
 10
227.6542349700832
 20
83.42781399676177
 30
0.0
 10
227.6469557679984
 20
83.43509319884686
 30
0.0
 10
227.6429765270624
 20
83.43907243978277
 30
0.0
 10
227.6383023991686
 20
83.44374656767662
 30
0.0
 10
227.6369614008121
 20
83.44508756603262
 30
0.0
 10
227.6347266545243
 20
83.44732231232036
 30
0.0
 10
227.6338336545342
 20
83.44821531230731
 30
0.0
 10
227.6331919340254
 20
83.44885703281956
 30
0.0
  0
ELLIPSE
  5
412
330
1F
100
AcDbEntity
  8
0
  6
Continuous
 62
     7
370
    25
100
AcDbEllipse
 10
226.9156256673359
 20
84.16642329950914
 30
0.0
 11
0.7923439489247029
 21
-0.6343305177477011
 31
0.0
210
0.0
220
0.0
230
1.0
 40
0.9850587945349172
 41
6.171219142556852
 42
6.952819207681007
  0
LINE
  5
413
330
1F
100
AcDbEntity
  8
0
  6
Continuous
 62
     7
370
    25
100
AcDbLine
 10
227.9247076485718
 20
84.15353601636493
 30
0.0
 11
228.1661379117333
 21
84.15353601636493
 31
0.0
  0
SPLINE
  5
414
330
1F
100
AcDbEntity
  8
0
  6
Continuous
 62
     7
370
    18
100
AcDbSpline
210
0.0
220
0.0
230
1.0
 70
    24
 71
     3
 72
    28
 73
    24
 74
     0
 42
0.000000001
 43
0.0000000001
 40
0.0
 40
0.0
 40
0.0
 40
0.0
 40
0.1250000000000015
 40
0.1250000000000015
 40
0.2500000000000031
 40
0.2500000000000031
 40
0.3750000000000047
 40
0.3750000000000047
 40
0.4375000000000055
 40
0.4375000000000055
 40
0.5000000000000063
 40
0.5000000000000063
 40
0.6250000000000205
 40
0.6250000000000205
 40
0.6875000000000218
 40
0.6875000000000218
 40
0.7500000000000231
 40
0.7500000000000231
 40
0.8750000000000076
 40
0.8750000000000076
 40
0.9375000000000039
 40
0.9375000000000039
 40
1.0
 40
1.0
 40
1.0
 40
1.0
 10
186.1047142943448
 20
83.27722540448908
 30
0.0
 10
186.1153143913417
 20
83.28782550148584
 30
0.0
 10
186.125732966114
 20
83.29824407625814
 30
0.0
 10
186.146222270357
 20
83.31873338050117
 30
0.0
 10
186.1563472164797
 20
83.32885832662386
 30
0.0
 10
186.1759926846456
 20
83.34850379478998
 30
0.0
 10
186.1853365672599
 20
83.35784767740404
 30
0.0
 10
186.1986570690086
 20
83.37116817915275
 30
0.0
 10
186.2029806471187
 20
83.37549175726293
 30
0.0
 10
186.2113900392539
 20
83.38390114939819
 30
0.0
 10
186.215493470568
 20
83.38800458071217
 30
0.0
 10
186.2272254578911
 20
83.39973656803534
 30
0.0
 10
186.2343289251201
 20
83.40684003526453
 30
0.0
 10
186.2439310204294
 20
83.41644213057351
 30
0.0
 10
186.2469551614272
 20
83.41946627157144
 30
0.0
 10
186.2526415248358
 20
83.42515263498002
 30
0.0
 10
186.2553028866176
 20
83.42781399676177
 30
0.0
 10
186.2625820887023
 20
83.43509319884686
 30
0.0
 10
186.2665613296385
 20
83.43907243978232
 30
0.0
 10
186.2712354575324
 20
83.44374656767639
 30
0.0
 10
186.2725764558887
 20
83.44508756603262
 30
0.0
 10
186.2748112021765
 20
83.44732231232036
 30
0.0
 10
186.2757042021683
 20
83.44821531230572
 30
0.0
 10
186.2763459226753
 20
83.44885703281956
 30
0.0
  0
ELLIPSE
  5
415
330
1F
100
AcDbEntity
  8
0
  6
Continuous
 62
     7
370
    18
100
AcDbEllipse
 10
186.9939121893649
 20
84.16642329950914
 30
0.0
 11
0.6343305177476968
 21
0.7923439489246853
 31
0.0
210
0.0
220
0.0
230
1.0
 40
0.9850587945349278
 41
3.029626488967057
 42
3.81122655409123
  0
LINE
  5
416
330
1F
100
AcDbEntity
  8
0
  6
Continuous
 62
     7
370
    18
100
AcDbLine
 10
186.9810249062207
 20
82.91591105511193
 30
0.0
 11
186.9810249062207
 21
83.15734131827333
 31
0.0
  0
LINE
  5
417
330
1F
100
AcDbEntity
  8
0
  6
Continuous
 62
     7
370
    18
100
AcDbLine
 10
185.7433999449675
 20
84.15353601636493
 30
0.0
 11
185.984830208129
 21
84.15353601636493
 31
0.0
  0
ELLIPSE
  5
418
330
1F
100
AcDbEntity
  8
0
  6
Continuous
 62
     7
370
    18
100
AcDbEllipse
 10
186.9939121893649
 20
84.16642329950914
 30
0.0
 11
0.7923439489246942
 21
0.6343305177476922
 31
0.0
210
0.0
220
0.0
230
1.0
 40
0.985058794534917
 41
2.471958753088382
 42
3.253558818212571
  0
ELLIPSE
  5
419
330
1F
100
AcDbEntity
  8
0
  6
Continuous
 62
     7
370
    25
100
AcDbEllipse
 10
226.9156256673359
 20
109.8381367774801
 30
0.0
 11
0.7923439489247029
 21
0.6343305177477011
 31
0.0
210
0.0
220
0.0
230
1.0
 40
0.9850587945349118
 41
5.613551406678185
 42
6.39515147180234
  0
SPLINE
  5
41A
330
1F
100
AcDbEntity
  8
0
  6
Continuous
 62
     7
370
    25
100
AcDbSpline
210
0.0
220
0.0
230
1.0
 70
    24
 71
     3
 72
    28
 73
    24
 74
     0
 42
0.000000001
 43
0.0000000001
 40
0.0
 40
0.0
 40
0.0
 40
0.0
 40
0.1249999999999843
 40
0.1249999999999843
 40
0.2499999999999685
 40
0.2499999999999685
 40
0.3749999999999528
 40
0.3749999999999528
 40
0.4374999999999505
 40
0.4374999999999505
 40
0.4999999999999482
 40
0.4999999999999482
 40
0.6249999999999562
 40
0.6249999999999562
 40
0.6874999999999642
 40
0.6874999999999642
 40
0.7499999999999722
 40
0.7499999999999722
 40
0.8749999999999822
 40
0.8749999999999822
 40
0.9374999999999911
 40
0.9374999999999911
 40
1.0
 40
1.0
 40
1.0
 40
1.0
 10
227.804823562356
 20
110.7273346725002
 30
0.0
 10
227.794223465359
 20
110.7167345755034
 30
0.0
 10
227.7838048905868
 20
110.7063160007309
 30
0.0
 10
227.7633155863437
 20
110.6858266964879
 30
0.0
 10
227.753190640221
 20
110.6757017503652
 30
0.0
 10
227.7335451720551
 20
110.6560562821995
 30
0.0
 10
227.7242012894409
 20
110.646712399585
 30
0.0
 10
227.7108807876922
 20
110.6333918978363
 30
0.0
 10
227.706557209582
 20
110.6290683197261
 30
0.0
 10
227.6981478174469
 20
110.6206589275911
 30
0.0
 10
227.6940443861328
 20
110.6165554962769
 30
0.0
 10
227.6823123988097
 20
110.6048235089539
 30
0.0
 10
227.6752089315807
 20
110.597720041725
 30
0.0
 10
227.6656068362714
 20
110.5881179464155
 30
0.0
 10
227.6625826952735
 20
110.5850938054179
 30
0.0
 10
227.6568963318649
 20
110.5794074420093
 30
0.0
 10
227.6542349700832
 20
110.5767460802273
 30
0.0
 10
227.6469557679984
 20
110.5694668781426
 30
0.0
 10
227.6429765270624
 20
110.5654876372065
 30
0.0
 10
227.6383023991686
 20
110.5608135093124
 30
0.0
 10
227.6369614008123
 20
110.5594725109564
 30
0.0
 10
227.6347266545246
 20
110.5572377646687
 30
0.0
 10
227.6338336545383
 20
110.5563447646777
 30
0.0
 10
227.6331919340254
 20
110.5557030441697
 30
0.0
  0
LINE
  5
41B
330
1F
100
AcDbEntity
  8
0
  6
Continuous
 62
     7
370
    25
100
AcDbLine
 10
227.9247076485718
 20
109.8510240606243
 30
0.0
 11
228.1661379117332
 21
109.8510240606243
 31
0.0
  0
ELLIPSE
  5
41C
330
1F
100
AcDbEntity
  8
0
  6
Continuous
 62
     7
370
    25
100
AcDbEllipse
 10
226.9156256673359
 20
109.8381367774801
 30
0.0
 11
0.6343305177477012
 21
0.7923439489246949
 31
0.0
210
0.0
220
0.0
230
1.0
 40
0.985058794534917
 41
6.171219142556852
 42
6.952819207681003
  0
LINE
  5
41D
330
1F
100
AcDbEntity
  8
0
  6
Continuous
 62
     7
370
    25
100
AcDbLine
 10
226.92851295048
 20
110.8472187587159
 30
0.0
 11
226.92851295048
 21
111.0886490218776
 31
0.0
  0
LINE
  5
41E
330
1F
100
AcDbEntity
  8
0
  6
Continuous
 62
     7
370
    25
100
AcDbLine
 10
227.9247076485718
 20
84.15353601636493
 30
0.0
 11
227.9247076485718
 21
109.8510240606243
 31
0.0
  0
LINE
  5
41F
330
1F
100
AcDbEntity
  8
0
  6
Continuous
 62
     7
370
    18
100
AcDbLine
 10
186.9810249062207
 20
83.15734131827333
 30
0.0
 11
226.92851295048
 21
83.15734131827333
 31
0.0
  0
LINE
  5
420
330
1F
100
AcDbEntity
  8
0
  6
Continuous
 62
     7
370
    18
100
AcDbLine
 10
185.984830208129
 20
109.8510240606243
 30
0.0
 11
185.984830208129
 21
84.15353601636493
 31
0.0
  0
LINE
  5
421
330
1F
100
AcDbEntity
  8
0
  6
Continuous
 62
     7
370
    18
100
AcDbLine
 10
226.92851295048
 20
110.8472187587159
 30
0.0
 11
186.9810249062207
 21
110.8472187587159
 31
0.0
  0
ARC
  5
422
330
1F
100
AcDbEntity
  8
0
  6
Continuous
 62
     7
370
    18
100
AcDbCircle
 10
187.1238700224752
 20
84.29638113261956
 30
0.0
 40
1.005102098979157
100
AcDbArc
 50
180.5055420864653
 51
269.4944579135347
  0
LINE
  5
423
330
1F
100
AcDbEntity
  8
0
  6
Continuous
 62
     7
370
    18
100
AcDbLine
 10
187.1150017459018
 20
83.2913181579544
 30
0.0
 11
186.9810249062207
 21
83.15734131827333
 31
0.0
  0
LINE
  5
424
330
1F
100
AcDbEntity
  8
0
  6
Continuous
 62
     7
370
    18
100
AcDbLine
 10
185.984830208129
 20
84.15353601636493
 30
0.0
 11
186.11880704781
 21
84.28751285604597
 31
0.0
  0
ARC
  5
425
330
1F
100
AcDbEntity
  8
0
  6
Continuous
 62
     7
370
    18
100
AcDbCircle
 10
187.1238700224752
 20
109.7081789443697
 30
0.0
 40
1.005102098979161
100
AcDbArc
 50
90.50554208646532
 51
179.4944579135347
  0
LINE
  5
426
330
1F
100
AcDbEntity
  8
0
  6
Continuous
 62
     7
370
    18
100
AcDbLine
 10
186.11880704781
 20
109.7170472209433
 30
0.0
 11
185.984830208129
 21
109.8510240606243
 31
0.0
  0
LINE
  5
427
330
1F
100
AcDbEntity
  8
0
  6
Continuous
 62
     7
370
    18
100
AcDbLine
 10
186.9810249062207
 20
110.8472187587159
 30
0.0
 11
187.1150017459018
 21
110.7132419190351
 31
0.0
  0
ARC
  5
428
330
1F
100
AcDbEntity
  8
0
  6
Continuous
 62
     7
370
    25
100
AcDbCircle
 10
226.7856128953316
 20
84.29643607151332
 30
0.0
 40
1.005102098979171
100
AcDbArc
 50
270.5055420864669
 51
359.4944579135346
  0
LINE
  5
429
330
1F
100
AcDbEntity
  8
0
  6
Continuous
 62
     7
370
    25
100
AcDbLine
 10
227.7906758699969
 20
84.28756779493973
 30
0.0
 11
227.9247076485718
 21
84.15353601636493
 31
0.0
  0
LINE
  5
42A
330
1F
100
AcDbEntity
  8
0
  6
Continuous
 62
     7
370
    25
100
AcDbLine
 10
226.92851295048
 20
83.15734131827333
 30
0.0
 11
226.7944811719051
 21
83.29137309684815
 31
0.0
  0
ARC
  5
42B
330
1F
100
AcDbEntity
  8
0
  6
Continuous
 62
     7
370
    25
100
AcDbCircle
 10
226.7856128953317
 20
109.7081240054757
 30
0.0
 40
1.005102098979135
100
AcDbArc
 50
0.505542086463692
 51
89.4944579135363
  0
LINE
  5
42C
330
1F
100
AcDbEntity
  8
0
  6
Continuous
 62
     7
370
    25
100
AcDbLine
 10
226.7944811719051
 20
110.7131869801411
 30
0.0
 11
226.92851295048
 21
110.8472187587159
 31
0.0
  0
LINE
  5
42D
330
1F
100
AcDbEntity
  8
0
  6
Continuous
 62
     7
370
    25
100
AcDbLine
 10
227.9247076485718
 20
109.8510240606243
 30
0.0
 11
227.7906758699969
 21
109.7169922820493
 31
0.0
  0
LINE
  5
42E
330
1F
100
AcDbEntity
  8
0
  6
Continuous
 62
     7
370
    18
100
AcDbLine
 10
187.5728744143806
 20
83.29264241143631
 30
0.0
 11
187.1150017459018
 21
83.2913181579544
 31
0.0
  0
LINE
  5
42F
330
1F
100
AcDbEntity
  8
0
  6
Continuous
 62
     7
370
    18
100
AcDbLine
 10
226.3628582910136
 20
83.29264241143631
 30
0.0
 11
187.5728744143806
 21
83.29264241143631
 31
0.0
  0
LINE
  5
430
330
1F
100
AcDbEntity
  8
0
  6
Continuous
 62
     7
370
    25
100
AcDbLine
 10
226.7944811719051
 20
83.29137309684815
 30
0.0
 11
226.3628582910136
 21
83.29264241143631
 31
0.0
  0
LINE
  5
431
330
1F
100
AcDbEntity
  8
0
  6
Continuous
 62
     7
370
    25
100
AcDbLine
 10
227.7906758699969
 20
109.7169922820493
 30
0.0
 11
227.7906758699969
 21
84.28756779493973
 31
0.0
  0
LINE
  5
432
330
1F
100
AcDbEntity
  8
0
  6
Continuous
 62
     7
370
    25
100
AcDbLine
 10
225.5403142412934
 20
110.7094987317847
 30
0.0
 11
226.7944811719051
 21
110.7131869801411
 31
0.0
  0
LINE
  5
433
330
1F
100
AcDbEntity
  8
0
  6
Continuous
 62
     7
370
    18
100
AcDbLine
 10
188.4092427338441
 20
110.7094987317847
 30
0.0
 11
225.5403142412934
 21
110.7094987317847
 31
0.0
  0
LINE
  5
434
330
1F
100
AcDbEntity
  8
0
  6
Continuous
 62
     7
370
    18
100
AcDbLine
 10
187.1150017459018
 20
110.7132419190351
 30
0.0
 11
188.4092427338441
 21
110.7094987317847
 31
0.0
  0
LINE
  5
435
330
1F
100
AcDbEntity
  8
0
  6
Continuous
 62
     7
370
    18
100
AcDbLine
 10
186.11880704781
 20
84.28751285604597
 30
0.0
 11
186.11880704781
 21
109.7170472209433
 31
0.0
  0
ARC
  5
436
330
1F
100
AcDbEntity
  8
0
  6
Continuous
 62
     7
370
    18
100
AcDbCircle
 10
196.2620444720705
 20
109.9112257644186
 30
0.0
 40
9.182135946860178
100
AcDbArc
 50
174.9890992475975
 51
181.2117486060577
  0
ELLIPSE
  5
437
330
1F
100
AcDbEntity
  8
0
  6
Continuous
 62
     7
370
    18
100
AcDbEllipse
 10
188.4092427338448
 20
109.7133040336931
 30
0.0
 11
0.0014460905875469
 21
0.999999999714501
 31
0.0
210
0.0
220
0.0
230
0.9999999999999998
 40
0.0165243432210908
 41
0.0872903583335915
 42
1.4995127577068
  0
ELLIPSE
  5
438
330
1F
100
AcDbEntity
  8
0
  6
Continuous
 62
     7
370
    18
100
AcDbEllipse
 10
218.9270243458054
 20
109.6250408956101
 30
0.0
 11
30.53416066204677
 21
-0.1595949281763343
 31
0.0
210
0.0
220
0.0
230
1.0
 40
0.0326665322761146
 41
3.141677610171702
 42
3.213032840458824
  0
LINE
  5
439
330
1F
100
AcDbEntity
  8
0
  6
Continuous
 62
     7
370
    18
100
AcDbLine
 10
188.4703770219649
 20
109.7130316645904
 30
0.0
 11
187.0819619430365
 21
109.7170472209433
 31
0.0
  0
LINE
  5
43A
330
1F
100
AcDbEntity
  8
0
  6
Continuous
 62
     7
370
    18
100
AcDbLine
 10
186.11880704781
 20
109.7170472209433
 30
0.0
 11
187.0819619430365
 21
109.7170472209433
 31
0.0
  0
LINE
  5
43B
330
1F
100
AcDbEntity
  8
0
  6
Continuous
 62
     7
370
    18
100
AcDbLine
 10
187.0819619430365
 20
109.7170472209433
 30
0.0
 11
187.0819619430365
 21
84.28751285604597
 31
0.0
  0
LINE
  5
43C
330
1F
100
AcDbEntity
  8
0
  6
Continuous
 62
     7
370
    18
100
AcDbLine
 10
187.0819619430365
 20
84.28751285604597
 30
0.0
 11
186.11880704781
 21
84.28751285604597
 31
0.0
  0
ARC
  5
43D
330
1F
100
AcDbEntity
  8
0
  6
Continuous
 62
     7
370
    18
100
AcDbCircle
 10
196.2620444720724
 20
84.09333431257087
 30
0.0
 40
9.182135946862144
100
AcDbArc
 50
178.7882513939439
 51
185.0109007524024
  0
LINE
  5
43E
330
1F
100
AcDbEntity
  8
0
  6
Continuous
 62
     7
370
    18
100
AcDbLine
 10
187.0819619430365
 20
84.28751285604597
 30
0.0
 11
187.5892538129385
 21
84.28898003911093
 31
0.0
  0
ELLIPSE
  5
43F
330
1F
100
AcDbEntity
  8
0
  6
Continuous
 62
     7
370
    18
100
AcDbEllipse
 10
217.9793082082714
 20
84.37677820887406
 30
0.0
 11
30.42287291770368
 21
0.1344748489341985
 31
0.0
210
0.0
220
0.0
230
1.0
 40
0.0328341886562678
 41
3.094994327931786
 42
3.141520224784614
  0
ELLIPSE
  5
440
330
1F
100
AcDbEntity
  8
0
  6
Continuous
 62
     7
370
    18
100
AcDbEllipse
 10
187.5728744143806
 20
84.2888371095279
 30
0.0
 11
-0.0014460905875513
 21
0.999999999714501
 31
0.0
210
0.0
220
0.0
230
0.9999999999999998
 40
0.0165243432210952
 41
1.617250562448703
 42
3.054302295293447
  0
ELLIPSE
  5
441
330
1F
100
AcDbEntity
  8
0
  6
Continuous
 62
     7
370
    25
100
AcDbEllipse
 10
196.4590101796665
 20
84.37677820887406
 30
0.0
 11
29.9205633588374
 21
-0.1344773005680456
 31
0.0
210
0.0
220
0.0
230
1.0
 40
0.0333854014317791
 41
0.0000748831137774
 42
0.0466023976477558
  0
LINE
  5
442
330
1F
100
AcDbEntity
  8
0
  6
Continuous
 62
     7
370
    25
100
AcDbLine
 10
226.3472980752717
 20
84.28898166340891
 30
0.0
 11
226.8280756440536
 21
84.28756779493973
 31
0.0
  0
ARC
  5
443
330
1F
100
AcDbEntity
  8
0
  6
Continuous
 62
     7
370
    25
100
AcDbCircle
 10
217.7987098483844
 20
84.09339947105481
 30
0.0
 40
9.031453261242122
100
AcDbArc
 50
354.9052120132209
 51
1.231903919647077
  0
ELLIPSE
  5
444
330
1F
100
AcDbEntity
  8
0
  6
Continuous
 62
     7
370
    25
100
AcDbEllipse
 10
226.3628582910136
 20
84.2888371095279
 30
0.0
 11
0.0014703945267769
 21
0.9999999996948272
 31
0.0
210
0.0
220
0.0
230
1.0
 40
0.0168019054299711
 41
3.228883821619916
 42
4.665935554463517
  0
LINE
  5
445
330
1F
100
AcDbEntity
  8
0
  6
Continuous
 62
     7
370
    25
100
AcDbLine
 10
226.8280756440536
 20
84.28756779493973
 30
0.0
 11
227.7906758699969
 21
84.28756779493973
 31
0.0
  0
LINE
  5
446
330
1F
100
AcDbEntity
  8
0
  6
Continuous
 62
     7
370
    25
100
AcDbLine
 10
226.8280756440536
 20
84.28756779493973
 30
0.0
 11
226.8280756440536
 21
109.7169922820493
 31
0.0
  0
LINE
  5
447
330
1F
100
AcDbEntity
  8
0
  6
Continuous
 62
     7
370
    25
100
AcDbLine
 10
227.7906758699969
 20
109.7169922820493
 30
0.0
 11
226.8280756440536
 21
109.7169922820493
 31
0.0
  0
ARC
  5
448
330
1F
100
AcDbEntity
  8
0
  6
Continuous
 62
     7
370
    25
100
AcDbCircle
 10
217.7987098483811
 20
109.9111606059342
 30
0.0
 40
9.031453261245413
100
AcDbArc
 50
358.7680960803561
 51
5.09478798677905
  0
ELLIPSE
  5
449
330
1F
100
AcDbEntity
  8
0
  6
Continuous
 62
     7
370
    25
100
AcDbEllipse
 10
225.5403142412934
 20
109.7133040336931
 30
0.0
 11
-0.0014703945267858
 21
0.9999999996948272
 31
0.0
210
0.0
220
0.0
230
1.0
 40
0.01680190542998
 41
4.783671739740317
 42
6.195894139151663
  0
LINE
  5
44A
330
1F
100
AcDbEntity
  8
0
  6
Continuous
 62
     7
370
    25
100
AcDbLine
 10
226.8280756440536
 20
109.7169922820493
 30
0.0
 11
225.4807376745995
 21
109.7130300367295
 31
0.0
  0
ELLIPSE
  5
44B
330
1F
100
AcDbEntity
  8
0
  6
Continuous
 62
     7
370
    25
100
AcDbEllipse
 10
195.5269587716786
 20
109.6250408956101
 30
0.0
 11
30.03000963110962
 21
0.1595977996178988
 31
0.0
210
0.0
220
0.0
230
1.0
 40
0.0332149305843698
 41
6.211740623833094
 42
6.283097471801393
  0
LINE
  5
44C
330
1F
100
AcDbEntity
  8
0
  6
Continuous
 62
     7
370
    18
100
AcDbLine
 10
187.5564350505657
 20
84.24237571017568
 30
0.0
 11
226.3795737908081
 21
84.24237571017568
 31
0.0
  0
LINE
  5
44D
330
1F
100
AcDbEntity
  8
0
  6
Continuous
 62
     7
370
    18
100
AcDbLine
 10
225.5569687525646
 20
109.7845510836811
 30
0.0
 11
188.3928633510368
 21
109.7845510836811
 31
0.0
  0
SPLINE
  5
44E
330
1F
100
AcDbEntity
  8
0
  6
Continuous
 62
     7
370
    18
100
AcDbSpline
210
0.0
220
0.0
230
1.0
 70
    24
 71
     3
 72
    22
 73
    18
 74
     0
 42
0.000000001
 43
0.0000000001
 40
0.0
 40
0.0
 40
0.0
 40
0.0
 40
0.015625
 40
0.015625
 40
0.03125
 40
0.0624999999999999
 40
0.125
 40
0.25
 40
0.5
 40
0.75
 40
0.8749999999999998
 40
0.9374999999999998
 40
0.9687499999999998
 40
0.9687499999999998
 40
0.9843749999999998
 40
0.9843749999999998
 40
1.0
 40
1.0
 40
1.0
 40
1.0
 10
187.8319619430365
 20
107.5345510836809
 30
0.0
 10
187.8319619430365
 20
107.4249564330736
 30
0.0
 10
187.8319619430365
 20
107.3153617684774
 30
0.0
 10
187.8319619430365
 20
107.0961724393443
 30
0.0
 10
187.8319619430365
 20
106.7673884456445
 30
0.0
 10
187.8319619430365
 20
106.0002257936786
 30
0.0
 10
187.8319619430365
 20
104.4659004897465
 30
0.0
 10
187.8319619430365
 20
101.3972498818827
 30
0.0
 10
187.8319619430365
 20
97.01346329921957
 30
0.0
 10
187.8319619430364
 20
92.62967671655692
 30
0.0
 10
187.8319619430365
 20
89.56102610869301
 30
0.0
 10
187.8319619430365
 20
88.02670080476096
 30
0.0
 10
187.8319619430365
 20
87.36913281736146
 30
0.0
 10
187.8319619430364
 20
87.04034882366171
 30
0.0
 10
187.8319619430365
 20
86.93075414432941
 30
0.0
 10
187.8319619430365
 20
86.71156486443955
 30
0.0
 10
187.8319619430365
 20
86.601970269326
 30
0.0
 10
187.8319619430365
 20
86.4923757101757
 30
0.0
  0
SPLINE
  5
44F
330
1F
100
AcDbEntity
  8
0
  6
Continuous
 62
     7
370
    18
100
AcDbSpline
210
0.0
220
0.0
230
1.0
 70
     8
 71
     3
 72
    36
 73
    32
 74
     0
 42
0.000000001
 43
0.0000000001
 40
0.0
 40
0.0
 40
0.0
 40
0.0
 40
0.1250000000000035
 40
0.1250000000000035
 40
0.1875000000000039
 40
0.1875000000000039
 40
0.2500000000000043
 40
0.2500000000000043
 40
0.3750000000000035
 40
0.3750000000000035
 40
0.4062500000000023
 40
0.4062500000000023
 40
0.4375000000000012
 40
0.4375000000000012
 40
0.499999999999999
 40
0.499999999999999
 40
0.6249999999999964
 40
0.6249999999999964
 40
0.6562499999999964
 40
0.6562499999999964
 40
0.6874999999999964
 40
0.6874999999999964
 40
0.7499999999999976
 40
0.7499999999999976
 40
0.8124999999999989
 40
0.8124999999999989
 40
0.8437499999999992
 40
0.8437499999999992
 40
0.8749999999999996
 40
0.8749999999999996
 40
1.0
 40
1.0
 40
1.0
 40
1.0
 10
189.3319619430364
 20
109.0345510836811
 30
0.0
 10
189.2329356450206
 20
109.0345510836811
 30
0.0
 10
189.1355582747545
 20
109.0248410249238
 30
0.0
 10
188.9918667568256
 20
108.9963034196759
 30
0.0
 10
188.9443682739763
 20
108.9844448603257
 30
0.0
 10
188.8501871568276
 20
108.955928539258
 30
0.0
 10
188.8033749033603
 20
108.9391897127394
 30
0.0
 10
188.6671973700641
 20
108.8827883808761
 30
0.0
 10
188.5810761266497
 20
108.8367676900365
 30
0.0
 10
188.4792021587449
 20
108.768812239288
 30
0.0
 10
188.4591188418529
 20
108.7546949805716
 30
0.0
 10
188.4195444658314
 20
108.7253913566373
 30
0.0
 10
188.4000037401098
 20
108.710163504685
 30
0.0
 10
188.3426759008659
 20
108.6631589661857
 30
0.0
 10
188.3062994371352
 20
108.6301823220632
 30
0.0
 10
188.2025233846826
 20
108.526485602198
 30
0.0
 10
188.1404265403817
 20
108.4510437993043
 30
0.0
 10
188.0718736926251
 20
108.3486670586955
 30
0.0
 10
188.058586332145
 20
108.3277245107257
 30
0.0
 10
188.0331732474948
 20
108.2853889197792
 30
0.0
 10
188.0210365143859
 20
108.2639868273037
 30
0.0
 10
187.9863040871719
 20
108.1990906755619
 30
0.0
 10
187.9653822064899
 20
108.154908369817
 30
0.0
 10
187.9279363330315
 20
108.0647354150714
 30
0.0
 10
187.9114123620171
 20
108.0187447570564
 30
0.0
 10
187.889969142879
 20
107.9483842875951
 30
0.0
 10
187.8833795118649
 20
107.9247013120645
 30
0.0
 10
187.8713363126244
 20
107.8768682295996
 30
0.0
 10
187.865875882718
 20
107.8526734503963
 30
0.0
 10
187.8416764505505
 20
107.7315586325695
 30
0.0
 10
187.8319619430365
 20
107.6335947279414
 30
0.0
 10
187.8319619430365
 20
107.5345510836809
 30
0.0
  0
SPLINE
  5
450
330
1F
100
AcDbEntity
  8
0
  6
Continuous
 62
     7
370
    25
100
AcDbSpline
210
0.0
220
0.0
230
1.0
 70
    24
 71
     3
 72
    22
 73
    18
 74
     0
 42
0.000000001
 43
0.0000000001
 40
0.0
 40
0.0
 40
0.0
 40
0.0
 40
0.0156249999999999
 40
0.0156249999999999
 40
0.0312499999999998
 40
0.0312499999999998
 40
0.0624999999999999
 40
0.1250000000000002
 40
0.2500000000000002
 40
0.5
 40
0.7499999999999999
 40
0.8749999999999998
 40
0.9374999999999998
 40
0.96875
 40
0.984375
 40
0.984375
 40
1.0
 40
1.0
 40
1.0
 40
1.0
 10
226.0780756440535
 20
86.4923757101757
 30
0.0
 10
226.0780756440535
 20
86.60197028382471
 30
0.0
 10
226.0780756440535
 20
86.7115648877931
 30
0.0
 10
226.0780756440535
 20
86.93075417135391
 30
0.0
 10
226.0780756440535
 20
87.04034884862165
 30
0.0
 10
226.0780756440535
 20
87.36913284201172
 30
0.0
 10
226.0780756440535
 20
88.02670082879139
 30
0.0
 10
226.0780756440535
 20
89.5610261312778
 30
0.0
 10
226.0780756440535
 20
92.6296767362502
 30
0.0
 10
226.0780756440535
 20
97.01346331478262
 30
0.0
 10
226.0780756440535
 20
101.397249893315
 30
0.0
 10
226.0780756440535
 20
104.4659004982876
 30
0.0
 10
226.0780756440535
 20
106.0002258007736
 30
0.0
 10
226.0780756440535
 20
106.7673884520169
 30
0.0
 10
226.0780756440535
 20
107.096172445407
 30
0.0
 10
226.0780756440535
 20
107.3153617743336
 30
0.0
 10
226.0780756440535
 20
107.4249564384773
 30
0.0
 10
226.0780756440535
 20
107.5345510836809
 30
0.0
  0
SPLINE
  5
451
330
1F
100
AcDbEntity
  8
0
  6
Continuous
 62
     7
370
    25
100
AcDbSpline
210
0.0
220
0.0
230
1.0
 70
     8
 71
     3
 72
    36
 73
    32
 74
     0
 42
0.000000001
 43
0.0000000001
 40
0.0
 40
0.0
 40
0.0
 40
0.0
 40
0.1249999999999932
 40
0.1249999999999932
 40
0.1874999999999898
 40
0.1874999999999898
 40
0.2499999999999864
 40
0.2499999999999864
 40
0.3749999999999812
 40
0.3749999999999812
 40
0.4062499999999797
 40
0.4062499999999797
 40
0.4374999999999782
 40
0.4374999999999782
 40
0.4999999999999791
 40
0.4999999999999791
 40
0.6249999999999809
 40
0.6249999999999809
 40
0.6562499999999801
 40
0.6562499999999801
 40
0.6874999999999794
 40
0.6874999999999794
 40
0.7499999999999818
 40
0.7499999999999818
 40
0.8124999999999841
 40
0.8124999999999841
 40
0.8437499999999854
 40
0.8437499999999854
 40
0.8749999999999864
 40
0.8749999999999864
 40
1.0
 40
1.0
 40
1.0
 40
1.0
 10
224.5780756440536
 20
84.99237571017546
 30
0.0
 10
224.677110818262
 20
84.99237571017546
 30
0.0
 10
224.7744940491687
 20
85.00208743881662
 30
0.0
 10
224.918191320821
 20
85.03062807230447
 30
0.0
 10
224.9656912088966
 20
85.0424877442489
 30
0.0
 10
225.0598742836834
 20
85.07100629630089
 30
0.0
 10
225.1066871539569
 20
85.08774626452931
 30
0.0
 10
225.2428656866799
 20
85.14415086574413
 30
0.0
 10
225.3289863604923
 20
85.19017348715228
 30
0.0
 10
225.4308586963289
 20
85.25813063256386
 30
0.0
 10
225.4509416396345
 20
85.27224819488687
 30
0.0
 10
225.4905151885457
 20
85.30155234902885
 30
0.0
 10
225.5100554357561
 20
85.31678040694545
 30
0.0
 10
225.5673820735653
 20
85.36378571154923
 30
0.0
 10
225.6037576182599
 20
85.39676272192027
 30
0.0
 10
225.7075306873866
 20
85.50046007159052
 30
0.0
 10
225.769625247377
 20
85.57590168215883
 30
0.0
 10
225.8381751840376
 20
85.67827722525011
 30
0.0
 10
225.8514619705809
 20
85.69921949845946
 30
0.0
 10
225.8768740975128
 20
85.74155476609998
 30
0.0
 10
225.889010351985
 20
85.76295665797683
 30
0.0
 10
225.9237413549507
 20
85.8278520889295
 30
0.0
 10
225.94466230161
 20
85.8720337560061
 30
0.0
 10
225.9821063962225
 20
85.96220509643138
 30
0.0
 10
225.9986295220565
 20
86.00819477895255
 30
0.0
 10
226.0200715892616
 20
86.07855350484932
 30
0.0
 10
226.0266608557054
 20
86.10223585235793
 30
0.0
 10
226.0387033745666
 20
86.15006757861728
 30
0.0
 10
226.0441635145063
 20
86.17426172979016
 30
0.0
 10
226.068361743477
 20
86.29537389203996
 30
0.0
 10
226.0780756440535
 20
86.39333521363495
 30
0.0
 10
226.0780756440535
 20
86.4923757101757
 30
0.0
  0
SPLINE
  5
452
330
1F
100
AcDbEntity
  8
0
  6
Continuous
 62
     7
370
    18
100
AcDbSpline
210
0.0
220
0.0
230
1.0
 70
    24
 71
     3
 72
    27
 73
    23
 74
     0
 42
0.000000001
 43
0.0000000001
 40
0.0
 40
0.0
 40
0.0
 40
0.0
 40
0.0156249999999998
 40
0.0156249999999998
 40
0.0234374999999997
 40
0.0234374999999997
 40
0.0312499999999995
 40
0.0312499999999995
 40
0.0624999999999996
 40
0.1249999999999998
 40
0.2499999999999998
 40
0.5000000000000001
 40
0.7500000000000002
 40
0.8750000000000003
 40
0.9375000000000003
 40
0.9687500000000003
 40
0.9687500000000003
 40
0.9765625000000003
 40
0.9765625000000003
 40
0.9843750000000001
 40
0.9843750000000001
 40
1.0
 40
1.0
 40
1.0
 40
1.0
 10
189.3319619430364
 20
84.99237571017546
 30
0.0
 10
189.5155346392671
 20
84.99237571017546
 30
0.0
 10
189.6991074821563
 20
84.99237571017546
 30
0.0
 10
189.9744671031361
 20
84.99237571017546
 30
0.0
 10
190.0662537033822
 20
84.99237571017546
 30
0.0
 10
190.2498270806187
 20
84.99237571017546
 30
0.0
 10
190.3416138815166
 20
84.99237571017546
 30
0.0
 10
190.8005477432885
 20
84.99237571017546
 30
0.0
 10
191.901989011541
 20
84.99237571017546
 30
0.0
 10
194.4720186374637
 20
84.99237571017546
 30
0.0
 10
199.6120778893091
 20
84.99237571017546
 30
0.0
 10
206.9550196776597
 20
84.99237571017546
 30
0.0
 10
214.2979614660102
 20
84.99237571017546
 30
0.0
 10
219.4380207178556
 20
84.99237571017546
 30
0.0
 10
222.0080503437782
 20
84.99237571017546
 30
0.0
 10
223.1094916120309
 20
84.99237571017546
 30
0.0
 10
223.5684254738028
 20
84.99237571017546
 30
0.0
 10
223.6602123021154
 20
84.99237571017546
 30
0.0
 10
223.8437855995568
 20
84.99237571017546
 30
0.0
 10
223.9355720892908
 20
84.99237571017546
 30
0.0
 10
224.2109312342107
 20
84.99237571017546
 30
0.0
 10
224.3945035709251
 20
84.99237571017546
 30
0.0
 10
224.5780756440536
 20
84.99237571017546
 30
0.0
  0
SPLINE
  5
453
330
1F
100
AcDbEntity
  8
0
  6
Continuous
 62
     7
370
    18
100
AcDbSpline
210
0.0
220
0.0
230
1.0
 70
    24
 71
     3
 72
    31
 73
    27
 74
     0
 42
0.000000001
 43
0.0000000001
 40
0.0
 40
0.0
 40
0.0
 40
0.0
 40
0.015625
 40
0.015625
 40
0.03125
 40
0.03125
 40
0.0390625000000001
 40
0.0390625000000001
 40
0.0468750000000003
 40
0.0468750000000003
 40
0.0625000000000003
 40
0.1250000000000003
 40
0.2500000000000005
 40
0.5000000000000006
 40
0.7500000000000007
 40
0.8750000000000008
 40
0.9375000000000008
 40
0.953125000000001
 40
0.953125000000001
 40
0.9609375000000008
 40
0.9609375000000008
 40
0.9687500000000007
 40
0.9687500000000007
 40
0.9843750000000003
 40
0.9843750000000003
 40
1.0
 40
1.0
 40
1.0
 40
1.0
 10
224.5780756440536
 20
109.0345510836811
 30
0.0
 10
224.3945173140728
 20
109.0345510836811
 30
0.0
 10
224.2109578308352
 20
109.0345510836811
 30
0.0
 10
223.8438352854374
 20
109.0345510836811
 30
0.0
 10
223.6602722972102
 20
109.0345510836811
 30
0.0
 10
223.3849226937599
 20
109.0345510836811
 30
0.0
 10
223.2931386379013
 20
109.0345510836811
 30
0.0
 10
223.1095675017233
 20
109.0345510836811
 30
0.0
 10
223.0177797397015
 20
109.0345510836811
 30
0.0
 10
222.7424177639857
 20
109.0345510836811
 30
0.0
 10
221.8245445115997
 20
109.0345510836811
 30
0.0
 10
219.4380740553963
 20
109.0345510836811
 30
0.0
 10
214.2979838420349
 20
109.0345510836811
 30
0.0
 10
206.9549978229472
 20
109.0345510836811
 30
0.0
 10
199.6120118038595
 20
109.0345510836811
 30
0.0
 10
194.4719215904982
 20
109.0345510836811
 30
0.0
 10
192.0854511342946
 20
109.0345510836811
 30
0.0
 10
191.1675778819087
 20
109.0345510836811
 30
0.0
 10
190.8922159061929
 20
109.0345510836811
 30
0.0
 10
190.8004284171385
 20
109.0345510836811
 30
0.0
 10
190.616859817383
 20
109.0345510836811
 30
0.0
 10
190.5250775310429
 20
109.0345510836811
 30
0.0
 10
190.2497341398117
 20
109.0345510836811
 30
0.0
 10
190.066176517854
 20
109.0345510836811
 30
0.0
 10
189.6990659815965
 20
109.0345510836811
 30
0.0
 10
189.5155131668992
 20
109.0345510836811
 30
0.0
 10
189.3319619430364
 20
109.0345510836811
 30
0.0
  0
SPLINE
  5
454
330
1F
100
AcDbEntity
  8
0
  6
Continuous
 62
     7
370
    25
100
AcDbSpline
210
0.0
220
0.0
230
1.0
 70
     8
 71
     3
 72
    36
 73
    32
 74
     0
 42
0.000000001
 43
0.0000000001
 40
0.0
 40
0.0
 40
0.0
 40
0.0
 40
0.125000000000003
 40
0.125000000000003
 40
0.1875000000000045
 40
0.1875000000000045
 40
0.250000000000006
 40
0.250000000000006
 40
0.3750000000000077
 40
0.3750000000000077
 40
0.4062500000000087
 40
0.4062500000000087
 40
0.4375000000000096
 40
0.4375000000000096
 40
0.5000000000000107
 40
0.5000000000000107
 40
0.6250000000000139
 40
0.6250000000000139
 40
0.656250000000013
 40
0.656250000000013
 40
0.687500000000012
 40
0.687500000000012
 40
0.7500000000000114
 40
0.7500000000000114
 40
0.8125000000000104
 40
0.8125000000000104
 40
0.8437500000000088
 40
0.8437500000000088
 40
0.8750000000000072
 40
0.8750000000000072
 40
1.0
 40
1.0
 40
1.0
 40
1.0
 10
226.0780756440535
 20
107.5345510836809
 30
0.0
 10
226.0780756440535
 20
107.6335947157132
 30
0.0
 10
226.06836231242
 20
107.7309843826735
 30
0.0
 10
226.0398181176394
 20
107.8746893491428
 30
0.0
 10
226.0279570526111
 20
107.9221914697724
 30
0.0
 10
225.9994354014349
 20
108.0163784468588
 30
0.0
 10
225.9826937515398
 20
108.0631928877168
 30
0.0
 10
225.9262839856544
 20
108.1993751258509
 30
0.0
 10
225.8802576502004
 20
108.2854971945468
 30
0.0
 10
225.8122957807915
 20
108.3873702506095
 30
0.0
 10
225.7981772688602
 20
108.4074532857927
 30
0.0
 10
225.7688712117112
 20
108.4470269164318
 30
0.0
 10
225.7536421681876
 20
108.4665671864508
 30
0.0
 10
225.706634332654
 20
108.5238932693438
 30
0.0
 10
225.673655709041
 20
108.5602682509365
 30
0.0
 10
225.569953823629
 20
108.6640391185366
 30
0.0
 10
225.4945095885634
 20
108.7261315182896
 30
0.0
 10
225.392131708784
 20
108.7946780287344
 30
0.0
 10
225.371189032867
 20
108.807964076064
 30
0.0
 10
225.3288534748782
 20
108.8333744532841
 30
0.0
 10
225.3074515105624
 20
108.8455098114865
 30
0.0
 10
225.2425561055143
 20
108.88023807513
 30
0.0
 10
225.1983747760607
 20
108.9011571280902
 30
0.0
 10
225.1082049266979
 20
108.9385973925567
 30
0.0
 10
225.0622164005431
 20
108.955118579244
 30
0.0
 10
224.9918602149495
 20
108.9765578101823
 30
0.0
 10
224.9681788489111
 20
108.9831461438724
 30
0.0
 10
224.9203493933324
 20
108.9951868491634
 30
0.0
 10
224.8961566529728
 20
109.0006460762466
 30
0.0
 10
224.7750532019066
 20
109.0248398909535
 30
0.0
 10
224.6771017996756
 20
109.0345510836811
 30
0.0
 10
224.5780756440535
 20
109.0345510836811
 30
0.0
  0
SPLINE
  5
455
330
1F
100
AcDbEntity
  8
0
  6
Continuous
 62
     7
370
    18
100
AcDbSpline
210
0.0
220
0.0
230
1.0
 70
     8
 71
     3
 72
    36
 73
    32
 74
     0
 42
0.000000001
 43
0.0000000001
 40
0.0
 40
0.0
 40
0.0
 40
0.0
 40
0.1249999999999949
 40
0.1249999999999949
 40
0.1874999999999938
 40
0.1874999999999938
 40
0.2499999999999927
 40
0.2499999999999927
 40
0.3749999999999893
 40
0.3749999999999893
 40
0.4062499999999898
 40
0.4062499999999898
 40
0.4374999999999904
 40
0.4374999999999904
 40
0.4999999999999935
 40
0.4999999999999935
 40
0.6249999999999978
 40
0.6249999999999978
 40
0.6562499999999984
 40
0.6562499999999984
 40
0.687499999999999
 40
0.687499999999999
 40
0.7499999999999986
 40
0.7499999999999986
 40
0.8124999999999982
 40
0.8124999999999982
 40
0.8437499999999994
 40
0.8437499999999994
 40
0.8750000000000005
 40
0.8750000000000005
 40
1.0
 40
1.0
 40
1.0
 40
1.0
 10
187.8319619430365
 20
86.4923757101757
 30
0.0
 10
187.8319619430365
 20
86.39333511449935
 30
0.0
 10
187.8416746898144
 20
86.29594812444169
 30
0.0
 10
187.8702173410298
 20
86.15224677595678
 30
0.0
 10
187.8820777780599
 20
86.10474579213532
 30
0.0
 10
187.9105979496428
 20
86.01056097037021
 30
0.0
 10
187.9273387774627
 20
85.96374744198477
 30
0.0
 10
187.9837459507191
 20
85.82756748907231
 30
0.0
 10
188.0297702796785
 20
85.74144659944126
 30
0.0
 10
188.0977293433476
 20
85.63957459417192
 30
0.0
 10
188.1118472790325
 20
85.61949174762471
 30
0.0
 10
188.1411521539788
 20
85.57991844998186
 30
0.0
 10
188.1563805579115
 20
85.56037836031796
 30
0.0
 10
188.2033868786991
 20
85.50305223580961
 30
0.0
 10
188.2363644963027
 20
85.46667713511295
 30
0.0
 10
188.3400634167898
 20
85.36290563871297
 30
0.0
 10
188.4155057468711
 20
85.30081244849874
 30
0.0
 10
188.517881570989
 20
85.23226447174206
 30
0.0
 10
188.5388238706048
 20
85.2189780892926
 30
0.0
 10
188.5811591508846
 20
85.19356676729456
 30
0.0
 10
188.602561014282
 20
85.18143092308958
 30
0.0
 10
188.6674562448854
 20
85.14670116714945
 30
0.0
 10
188.7116376252805
 20
85.12578107406978
 30
0.0
 10
188.8018080282523
 20
85.08833867887201
 30
0.0
 10
188.847797061082
 20
85.07181639918316
 30
0.0
 10
188.9181544700698
 20
85.05037554632021
 30
0.0
 10
188.9418363213941
 20
85.04378667527852
 30
0.0
 10
188.989666926612
 20
85.03174491684799
 30
0.0
 10
189.013860459247
 20
85.02628514051288
 30
0.0
 10
189.1349692466929
 20
85.00208859801581
 30
0.0
 10
189.2329268207436
 20
84.99237571017546
 30
0.0
 10
189.3319619430365
 20
84.99237571017546
 30
0.0
  0
LINE
  5
456
330
1F
100
AcDbEntity
  8
0
  6
Continuous
 62
     7
370
    18
100
AcDbLine
 10
187.5892538129385
 20
84.28898003911093
 30
0.0
 11
188.7463797714433
 21
85.1114001418497
 31
0.0
  0
LINE
  5
457
330
1F
100
AcDbEntity
  8
0
  6
Continuous
 62
     7
370
    18
100
AcDbLine
 10
188.4703770219649
 20
109.7130316645904
 30
0.0
 11
189.9363797057153
 21
109.0345510836811
 31
0.0
  0
LINE
  5
458
330
1F
100
AcDbEntity
  8
0
  6
Continuous
 62
     7
370
    25
100
AcDbLine
 10
225.4807376745995
 20
109.7130300367295
 30
0.0
 11
224.0389698993716
 21
109.0345510836811
 31
0.0
  0
LINE
  5
459
330
1F
100
AcDbEntity
  8
0
  6
Continuous
 62
     7
370
    25
100
AcDbLine
 10
226.3472980752717
 20
84.28898166340891
 30
0.0
 11
225.1921182852698
 21
85.12381747803182
 31
0.0
  0
DIMENSION
  5
45A
330
1F
100
AcDbEntity
  8
0
  6
Continuous
 62
     7
370
    18
100
AcDbDimension
280
     0
  2
*D12
 10
207.0797689283504
 20
116.7390988794494
 30
0.0
 11
194.0047010094317
 21
116.7390988794494
 31
0.0
 70
   160
  1
25
 71
     2
 42
25.125
 73
     0
 74
     0
 75
     0
  3
3_4 Scale
100
AcDbAlignedDimension
 13
181.9547689283504
 23
114.8772800384946
 33
0.0
 14
207.0797689283504
 24
97.00228003849465
 34
0.0
100
AcDbRotatedDimension
  0
LINE
  5
45B
330
1F
100
AcDbEntity
  8
0
  6
Continuous
 62
     7
370
    18
100
AcDbLine
 10
238.0797689283504
 20
97.00228003849465
 30
0.0
 11
176.0797689283504
 21
97.00228003849465
 31
0.0
  0
LINE
  5
45C
330
1F
100
AcDbEntity
  8
0
  6
Continuous
 62
     7
370
    35
100
AcDbLine
 10
237.9547689283504
 20
97.00228003849465
 30
0.0
 11
237.9547689283504
 21
101.7022800384947
 31
0.0
  0
SOLID
  5
45D
330
1F
100
AcDbEntity
  8
0
  6
Continuous
 62
     7
370
    35
100
AcDbTrace
 10
237.9547689283504
 20
101.7022800384947
 30
0.0
 11
237.3547689283504
 21
99.3022800384946
 31
0.0
 12
238.5547689283504
 22
99.3022800384946
 32
0.0
 13
238.5547689283504
 23
99.3022800384946
 33
0.0
  0
LINE
  5
45E
330
1F
100
AcDbEntity
  8
0
  6
Continuous
 62
     7
370
    18
100
AcDbLine
 10
176.0797689283504
 20
97.00228003849465
 30
0.0
 11
176.0797689283504
 21
101.7022800384947
 31
0.0
  0
SOLID
  5
45F
330
1F
100
AcDbEntity
  8
0
  6
Continuous
 62
     7
370
    18
100
AcDbTrace
 10
176.0797689283504
 20
101.7022800384947
 30
0.0
 11
175.4797689283503
 21
99.3022800384946
 31
0.0
 12
176.6797689283504
 22
99.3022800384946
 32
0.0
 13
176.6797689283504
 23
99.3022800384946
 33
0.0
  0
MTEXT
  5
460
330
1F
100
AcDbEntity
  8
0
  6
Continuous
 62
     7
100
AcDbMText
 10
236.722490036381
 20
105.6692052386701
 30
0.0
 40
2.5
 41
0.0
 46
0.0
 71
     1
 72
     1
  1
A
  7
SLDTEXTSTYLE0
 73
     1
 44
1.0
  0
MTEXT
  5
461
330
1F
100
AcDbEntity
  8
0
  6
Continuous
 62
     7
370
    18
100
AcDbMText
 10
174.847490036381
 20
105.6692052386701
 30
0.0
 40
2.5
 41
0.0
 46
0.0
 71
     1
 72
     1
  1
A
  7
SLDTEXTSTYLE0
 73
     1
 44
1.0
  0
LINE
  5
462
330
1F
100
AcDbEntity
  8
0
  6
Continuous
 62
     7
370
    18
100
AcDbLine
 10
207.0797689283504
 20
119.1672800384946
 30
0.0
 11
207.0797689283504
 21
74.83728003849468
 31
0.0
  0
LINE
  5
463
330
1F
100
AcDbEntity
  8
0
  6
Continuous
 62
     7
370
    35
100
AcDbLine
 10
207.0797689283505
 20
119.1672800384948
 30
0.0
 11
202.3797689283505
 21
119.1672800384948
 31
0.0
  0
SOLID
  5
464
330
1F
100
AcDbEntity
  8
0
  6
Continuous
 62
     7
370
    18
100
AcDbTrace
 10
202.3797689283505
 20
119.1672800384948
 30
0.0
 11
204.7797689283505
 21
118.5672800384947
 31
0.0
 12
204.7797689283505
 22
119.7672800384945
 32
0.0
 13
204.7797689283505
 23
119.7672800384945
 33
0.0
  0
LINE
  5
465
330
1F
100
AcDbEntity
  8
0
  6
Continuous
 62
     7
370
    18
100
AcDbLine
 10
207.0797689283505
 20
74.83728003849468
 30
0.0
 11
202.3797689283505
 21
74.83728003849468
 31
0.0
  0
SOLID
  5
466
330
1F
100
AcDbEntity
  8
0
  6
Continuous
 62
     7
370
    18
100
AcDbTrace
 10
202.3797689283505
 20
74.83728003849468
 30
0.0
 11
204.7797689283505
 21
74.23728003849454
 31
0.0
 12
204.7797689283505
 22
75.43728003849459
 32
0.0
 13
204.7797689283505
 23
75.43728003849459
 33
0.0
  0
MTEXT
  5
467
330
1F
100
AcDbEntity
  8
0
  6
Continuous
 62
     7
370
    18
100
AcDbMText
 10
199.4400241470289
 20
121.1507426385823
 30
0.0
 40
2.5
 41
0.0
 46
0.0
 71
     1
 72
     1
  1
B
  7
SLDTEXTSTYLE0
 73
     1
 44
1.0
  0
MTEXT
  5
468
330
1F
100
AcDbEntity
  8
0
  6
Continuous
 62
     7
370
    18
100
AcDbMText
 10
199.4400241470289
 20
76.82074263858239
 30
0.0
 40
2.5
 41
0.0
 46
0.0
 71
     1
 72
     1
  1
B
  7
SLDTEXTSTYLE0
 73
     1
 44
1.0
  0
LINE
  5
469
330
1F
100
AcDbEntity
  8
0
  6
Continuous
 62
     7
370
    25
100
AcDbLine
 10
282.3624452849119
 20
82.3250102329638
 30
0.0
 11
283.1124452849119
 21
82.35022031699772
 31
0.0
  0
ARC
  5
46A
330
1F
100
AcDbEntity
  8
0
  6
Continuous
 62
     7
370
    25
100
AcDbCircle
 10
283.0788508127635
 20
83.34965586341436
 30
0.0
 40
1.000000000000011
100
AcDbArc
 50
271.9251837083244
 51
355.0000000000003
  0
LINE
  5
46B
330
1F
100
AcDbEntity
  8
0
  6
Continuous
 62
     7
370
    25
100
AcDbLine
 10
284.0750455108553
 20
83.26250012066648
 30
0.0
 11
284.2090772894302
 21
84.79449036000973
 31
0.0
  0
ARC
  5
46C
330
1F
100
AcDbEntity
  8
0
  6
Continuous
 62
     7
370
    25
100
AcDbCircle
 10
284.4581259639531
 20
84.77270142432294
 30
0.0
 40
0.2500000000000003
100
AcDbArc
 50
91.74628162028563
 51
174.9999999999986
  0
LINE
  5
46D
330
1F
100
AcDbEntity
  8
0
  6
Continuous
 62
     7
370
    25
100
AcDbLine
 10
284.4505075525916
 20
85.02258531697783
 30
0.0
 11
288.2391385692088
 21
85.13809236016722
 31
0.0
  0
LINE
  5
46E
330
1F
100
AcDbEntity
  8
0
  6
Continuous
 62
     7
370
    25
100
AcDbLine
 10
288.2391385692088
 20
84.63786003757936
 30
0.0
 11
288.2391385692088
 21
85.13809236016722
 31
0.0
  0
LINE
  5
46F
330
1F
100
AcDbEntity
  8
0
  6
Continuous
 62
     7
370
    25
100
AcDbLine
 10
284.6878112427731
 20
84.52958786299326
 30
0.0
 11
288.2391385692088
 21
84.63786003757936
 31
0.0
  0
LINE
  5
470
330
1F
100
AcDbEntity
  8
0
  6
Continuous
 62
     7
370
    25
100
AcDbLine
 10
284.5731428599011
 20
83.21892224929287
 30
0.0
 11
284.6878112427731
 21
84.52958786299326
 31
0.0
  0
ARC
  5
471
330
1F
100
AcDbEntity
  8
0
  6
Continuous
 62
     7
370
    25
100
AcDbCircle
 10
283.0788508127635
 20
83.34965586341436
 30
0.0
 40
1.500000000000006
100
AcDbArc
 50
280.7777449279224
 51
355.0000000000003
  0
ARC
  5
472
330
1F
100
AcDbEntity
  8
0
  6
Continuous
 62
     7
370
    25
100
AcDbCircle
 10
283.4061003861814
 20
81.63052593327588
 30
0.0
 40
0.2499999999999977
100
AcDbArc
 50
100.7777449279225
 51
173.9999999999999
  0
LINE
  5
473
330
1F
100
AcDbEntity
  8
0
  6
Continuous
 62
     7
370
    25
100
AcDbLine
 10
283.1574699123393
 20
81.65665804909272
 30
0.0
 11
283.1029664621698
 21
81.13809236016722
 31
0.0
  0
LINE
  5
474
330
1F
100
AcDbEntity
  8
0
  6
Continuous
 62
     7
370
    25
100
AcDbLine
 10
243.3760877412786
 20
81.13809236016722
 30
0.0
 11
283.1029664621698
 21
81.13809236016722
 31
0.0
  0
LINE
  5
475
330
1F
100
AcDbEntity
  8
0
  6
Continuous
 62
     7
370
    25
100
AcDbLine
 10
243.3760877412786
 20
81.13809236016722
 30
0.0
 11
243.3215339093129
 21
81.65713739986303
 31
0.0
  0
ARC
  5
476
330
1F
100
AcDbEntity
  8
0
  6
Continuous
 62
     7
370
    25
100
AcDbCircle
 10
243.0729034354708
 20
81.63100528404619
 30
0.0
 40
0.2500000000000022
100
AcDbArc
 50
5.999999999996839
 51
79.24830412869235
  0
ARC
  5
477
330
1F
100
AcDbEntity
  8
0
  6
Continuous
 62
     7
370
    25
100
AcDbCircle
 10
243.3993713867601
 20
83.3502838178448
 30
0.0
 40
1.500000000000009
100
AcDbArc
 50
185.0000000000013
 51
259.2483041286959
  0
LINE
  5
478
330
1F
100
AcDbEntity
  8
0
  6
Continuous
 62
     7
370
    25
100
AcDbLine
 10
241.7904658956444
 20
84.52958786299326
 30
0.0
 11
241.9050793396225
 21
83.2195502037231
 31
0.0
  0
LINE
  5
479
330
1F
100
AcDbEntity
  8
0
  6
Continuous
 62
     7
370
    25
100
AcDbLine
 10
238.2391385692088
 20
84.63786003757936
 30
0.0
 11
241.7904658956444
 21
84.52958786299326
 31
0.0
  0
LINE
  5
47A
330
1F
100
AcDbEntity
  8
0
  6
Continuous
 62
     7
370
    25
100
AcDbLine
 10
238.2391385692088
 20
85.13809236016722
 30
0.0
 11
238.2391385692088
 21
84.63786003757936
 31
0.0
  0
LINE
  5
47B
330
1F
100
AcDbEntity
  8
0
  6
Continuous
 62
     7
370
    25
100
AcDbLine
 10
238.2391385692088
 20
85.13809236016722
 30
0.0
 11
242.0277695858258
 21
85.02258531697783
 31
0.0
  0
ARC
  5
47C
330
1F
100
AcDbEntity
  8
0
  6
Continuous
 62
     7
370
    25
100
AcDbCircle
 10
242.0201511744644
 20
84.77270142432294
 30
0.0
 40
0.2500000000000019
100
AcDbArc
 50
4.999999999999745
 51
88.25371837971438
  0
LINE
  5
47D
330
1F
100
AcDbEntity
  8
0
  6
Continuous
 62
     7
370
    25
100
AcDbLine
 10
242.2691998489873
 20
84.79449036000973
 30
0.0
 11
242.4031766886684
 21
83.26312807509715
 31
0.0
  0
ARC
  5
47E
330
1F
100
AcDbEntity
  8
0
  6
Continuous
 62
     7
370
    25
100
AcDbCircle
 10
243.3993713867601
 20
83.3502838178448
 30
0.0
 40
1.000000000000003
100
AcDbArc
 50
185.0000000000013
 51
268.1066141542543
  0
LINE
  5
47F
330
1F
100
AcDbEntity
  8
0
  6
Continuous
 62
     7
370
    25
100
AcDbLine
 10
244.1163315838948
 20
82.32603639274033
 30
0.0
 11
243.3663315838948
 21
82.35082978116942
 31
0.0
  0
LINE
  5
480
330
1F
100
AcDbEntity
  8
0
  6
Continuous
 62
     7
370
    25
100
AcDbLine
 10
244.1163315838948
 20
82.32603639274033
 30
0.0
 11
244.1163315838948
 21
82.32710798917027
 31
0.0
  0
LINE
  5
481
330
1F
100
AcDbEntity
  8
0
  6
Continuous
 62
     7
370
    25
100
AcDbLine
 10
257.3641385692087
 20
81.9080923601672
 30
0.0
 11
244.1163315838948
 21
82.32710798917027
 31
0.0
  0
LINE
  5
482
330
1F
100
AcDbEntity
  8
0
  6
Continuous
 62
     7
370
    25
100
AcDbLine
 10
257.3641385692087
 20
81.9080923601672
 30
0.0
 11
269.3641385692087
 21
81.9080923601672
 31
0.0
  0
LINE
  5
483
330
1F
100
AcDbEntity
  8
0
  6
Continuous
 62
     7
370
    25
100
AcDbLine
 10
282.3624452849119
 20
82.32667749299197
 30
0.0
 11
269.3641385692087
 21
81.9080923601672
 31
0.0
  0
LINE
  5
484
330
1F
100
AcDbEntity
  8
0
  6
Continuous
 62
     7
370
    25
100
AcDbLine
 10
282.3624452849119
 20
82.32667749299197
 30
0.0
 11
282.3624452849119
 21
82.3250102329638
 31
0.0
  0
SPLINE
  5
485
330
1F
100
AcDbEntity
  8
0
  6
Continuous
 62
     7
370
    25
100
AcDbSpline
210
0.0
220
0.0
230
1.0
 70
     8
 71
     3
 72
    36
 73
    32
 74
     0
 42
0.000000001
 43
0.0000000001
 40
0.0
 40
0.0
 40
0.0
 40
0.0
 40
0.1250000000000032
 40
0.1250000000000032
 40
0.1875000000000035
 40
0.1875000000000035
 40
0.2500000000000037
 40
0.2500000000000037
 40
0.3750000000000027
 40
0.3750000000000027
 40
0.4062500000000015
 40
0.4062500000000015
 40
0.4375000000000002
 40
0.4375000000000002
 40
0.4999999999999978
 40
0.4999999999999978
 40
0.6249999999999949
 40
0.6249999999999949
 40
0.6562499999999949
 40
0.6562499999999949
 40
0.6874999999999948
 40
0.6874999999999948
 40
0.749999999999996
 40
0.749999999999996
 40
0.8124999999999971
 40
0.8124999999999971
 40
0.8437499999999973
 40
0.8437499999999973
 40
0.8749999999999976
 40
0.8749999999999976
 40
1.0
 40
1.0
 40
1.0
 40
1.0
 10
245.6163315838948
 20
82.31400850523018
 30
0.0
 10
245.5173052858789
 20
82.31588541147006
 30
0.0
 10
245.4199279156128
 20
82.3174661808231
 30
0.0
 10
245.276236397684
 20
82.3195286446286
 30
0.0
 10
245.2287379148347
 20
82.32016419571699
 30
0.0
 10
245.134556797686
 20
82.32134619335797
 30
0.0
 10
245.0877445442186
 20
82.32189364050954
 30
0.0
 10
244.9515670109225
 20
82.32339092472889
 30
0.0
 10
244.8654457675081
 20
82.32421266538553
 30
0.0
 10
244.7635717996032
 20
82.3250810915696
 30
0.0
 10
244.7434884827113
 20
82.32524674018682
 30
0.0
 10
244.7039141066898
 20
82.32556324596783
 30
0.0
 10
244.6843733809681
 20
82.32571443159498
 30
0.0
 10
244.6270455417243
 20
82.32614380106806
 30
0.0
 10
244.5906690779935
 20
82.32639706383169
 30
0.0
 10
244.486893025541
 20
82.32707337696151
 30
0.0
 10
244.42479618124
 20
82.32741550739833
 30
0.0
 10
244.3562433334835
 20
82.32772794049164
 30
0.0
 10
244.3429559730034
 20
82.32778473373913
 30
0.0
 10
244.3175428883531
 20
82.3278860283648
 30
0.0
 10
244.3054061552443
 20
82.32793060416646
 30
0.0
 10
244.2706737280303
 20
82.32804703922774
 30
0.0
 10
244.2497518473483
 20
82.32810176919306
 30
0.0
 10
244.2123059738898
 20
82.32816763373048
 30
0.0
 10
244.1957820028754
 20
82.32817867340749
 30
0.0
 10
244.1743387837373
 20
82.32816108986721
 30
0.0
 10
244.1677491527233
 20
82.32814958904045
 30
0.0
 10
244.1557059534828
 20
82.32811530341077
 30
0.0
 10
244.1502455235763
 20
82.32809244962449
 30
0.0
 10
244.1260460914088
 20
82.32795052732367
 30
0.0
 10
244.1163315838948
 20
82.32774968354933
 30
0.0
 10
244.1163315838948
 20
82.32744472067761
 30
0.0
  0
SPLINE
  5
486
330
1F
100
AcDbEntity
  8
0
  6
Continuous
 62
     7
370
    25
100
AcDbSpline
210
0.0
220
0.0
230
1.0
 70
     8
 71
     3
 72
    31
 73
    27
 74
     0
 42
0.000000001
 43
0.0000000001
 40
0.0
 40
0.0
 40
0.0
 40
0.0
 40
0.0156249999999998
 40
0.0156249999999998
 40
0.0312499999999997
 40
0.0312499999999997
 40
0.0390624999999996
 40
0.0390624999999996
 40
0.0468749999999995
 40
0.0468749999999995
 40
0.0624999999999995
 40
0.1249999999999996
 40
0.2499999999999997
 40
0.5000000000000001
 40
0.7500000000000005
 40
0.8750000000000007
 40
0.9375000000000007
 40
0.9531250000000008
 40
0.9531250000000008
 40
0.9609375000000007
 40
0.9609375000000007
 40
0.9687500000000007
 40
0.9687500000000007
 40
0.9843750000000003
 40
0.9843750000000003
 40
1.0
 40
1.0
 40
1.0
 40
1.0
 10
280.8624452849119
 20
82.31361203831252
 30
0.0
 10
280.6788869549312
 20
82.31011439195221
 30
0.0
 10
280.4953274716936
 20
82.30686390011841
 30
0.0
 10
280.1282049262957
 20
82.30112991551107
 30
0.0
 10
279.9446419380686
 20
82.29863057815341
 30
0.0
 10
279.6692923346183
 20
82.29597907734172
 30
0.0
 10
279.5775082787596
 20
82.29527841635162
 30
0.0
 10
279.3939371425816
 20
82.29452526674016
 30
0.0
 10
279.3021493805599
 20
82.29461887376205
 30
0.0
 10
279.0267874048441
 20
82.29461887376205
 30
0.0
 10
278.1089141524581
 20
82.29461887376205
 30
0.0
 10
275.7224436962546
 20
82.29461887376205
 30
0.0
 10
270.5823534828932
 20
82.29461887376205
 30
0.0
 10
263.2393674638056
 20
82.29461887376205
 30
0.0
 10
255.8963814447178
 20
82.29461887376205
 30
0.0
 10
250.7562912313565
 20
82.29461887376205
 30
0.0
 10
248.369820775153
 20
82.29461887376205
 30
0.0
 10
247.451947522767
 20
82.29461887376205
 30
0.0
 10
247.1765855470513
 20
82.29461887376205
 30
0.0
 10
247.0847980579969
 20
82.29459454637721
 30
0.0
 10
246.9012294582413
 20
82.29549310612982
 30
0.0
 10
246.8094471719012
 20
82.29624140552745
 30
0.0
 10
246.5341037806699
 20
82.29900128622434
 30
0.0
 10
246.3505461587124
 20
82.30153009903245
 30
0.0
 10
245.9834356224549
 20
82.30728683328392
 30
0.0
 10
245.7998828077576
 20
82.31052954616247
 30
0.0
 10
245.6163315838948
 20
82.31400850523018
 30
0.0
  0
SPLINE
  5
487
330
1F
100
AcDbEntity
  8
0
  6
Continuous
 62
     7
370
    25
100
AcDbSpline
210
0.0
220
0.0
230
1.0
 70
     8
 71
     3
 72
    36
 73
    32
 74
     0
 42
0.000000001
 43
0.0000000001
 40
0.0
 40
0.0
 40
0.0
 40
0.0
 40
0.1250000000000035
 40
0.1250000000000035
 40
0.1875000000000052
 40
0.1875000000000052
 40
0.2500000000000069
 40
0.2500000000000069
 40
0.3750000000000091
 40
0.3750000000000091
 40
0.4062500000000102
 40
0.4062500000000102
 40
0.4375000000000112
 40
0.4375000000000112
 40
0.5000000000000126
 40
0.5000000000000126
 40
0.6250000000000152
 40
0.6250000000000152
 40
0.6562500000000142
 40
0.6562500000000142
 40
0.6875000000000133
 40
0.6875000000000133
 40
0.7500000000000123
 40
0.7500000000000123
 40
0.8125000000000113
 40
0.8125000000000113
 40
0.8437500000000095
 40
0.8437500000000095
 40
0.8750000000000078
 40
0.8750000000000078
 40
1.0
 40
1.0
 40
1.0
 40
1.0
 10
282.3624452849119
 20
82.32703288618917
 30
0.0
 10
282.3624452849119
 20
82.32734882100034
 30
0.0
 10
282.3527319532784
 20
82.32755677549166
 30
0.0
 10
282.3241877584977
 20
82.32773793055402
 30
0.0
 10
282.3123266934695
 20
82.32777630479098
 30
0.0
 10
282.2838050422932
 20
82.3278075469649
 30
0.0
 10
282.2670633923981
 20
82.32779971323989
 30
0.0
 10
282.2106536265128
 20
82.32770869765399
 30
0.0
 10
282.1646272910587
 20
82.32756090344595
 30
0.0
 10
282.0966654216499
 20
82.32725561794008
 30
0.0
 10
282.0825469097185
 20
82.32718841491386
 30
0.0
 10
282.0532408525695
 20
82.32704093758538
 30
0.0
 10
282.038011809046
 20
82.32696043022009
 30
0.0
 10
281.9910039735124
 20
82.32669978923185
 30
0.0
 10
281.9580253498994
 20
82.32650145339757
 30
0.0
 10
281.8543234644873
 20
82.32582714430931
 30
0.0
 10
281.7788792294217
 20
82.32527164329294
 30
0.0
 10
281.6765013496424
 20
82.32439913429528
 30
0.0
 10
281.6555586737253
 20
82.32421493679648
 30
0.0
 10
281.6132231157366
 20
82.32382983144647
 30
0.0
 10
281.5918211514207
 20
82.32362888722867
 30
0.0
 10
281.5269257463727
 20
82.32299920189793
 30
0.0
 10
281.4827444169191
 20
82.32254397351598
 30
0.0
 10
281.3925745675562
 20
82.32155035707991
 30
0.0
 10
281.3465860414015
 20
82.32101161688241
 30
0.0
 10
281.2762298558078
 20
82.32012728855819
 30
0.0
 10
281.2525484897694
 20
82.31981978846569
 30
0.0
 10
281.2047190341908
 20
82.31917675709555
 30
0.0
 10
281.1805262938311
 20
82.31884055934928
 30
0.0
 10
281.059422842765
 20
82.31709759598551
 30
0.0
 10
280.9614714405341
 20
82.31549895062393
 30
0.0
 10
280.8624452849119
 20
82.31361203831205
 30
0.0
  0
ELLIPSE
  5
488
330
1F
100
AcDbEntity
  8
0
  6
Continuous
 62
     7
370
    25
100
AcDbEllipse
 10
281.8246838821517
 20
83.30749899179695
 30
0.0
 11
-0.0168019780374706
 21
0.9999999996951736
 31
0.0
210
0.0
220
0.0
230
1.0
 40
0.00146956456136
 41
1.658038097803341
 42
2.986102345471875
  0
LINE
  5
489
330
1F
100
AcDbEntity
  8
0
  6
Continuous
 62
     7
370
    25
100
AcDbLine
 10
281.8246838821517
 20
83.2203432490493
 30
0.0
 11
283.0788508127635
 21
83.26250012066648
 31
0.0
  0
ARC
  5
48A
330
1F
100
AcDbEntity
  8
0
  6
Continuous
 62
     7
370
    25
100
AcDbCircle
 10
358.224364146304
 20
85.57295611445047
 30
0.0
 40
75.1810240756305
100
AcDbArc
 50
181.7610856635506
 51
182.4568135150368
  0
ARC
  5
48B
330
1F
100
AcDbEntity
  8
0
  6
Continuous
 62
     7
370
    25
100
AcDbCircle
 10
166.9914202029928
 20
85.57357166097757
 30
0.0
 40
76.44287510072148
100
AcDbArc
 50
357.5837610760121
 51
358.2680030098292
  0
LINE
  5
48C
330
1F
100
AcDbEntity
  8
0
  6
Continuous
 62
     7
370
    25
100
AcDbLine
 10
243.3993713867601
 20
83.26312807509715
 30
0.0
 11
244.6936123747025
 21
83.2203432490493
 31
0.0
  0
ELLIPSE
  5
48D
330
1F
100
AcDbEntity
  8
0
  6
Continuous
 62
     7
370
    25
100
AcDbEllipse
 10
244.6936123747032
 20
83.30749899179695
 30
0.0
 11
0.0165244122894759
 21
0.9999999997148025
 31
0.0
210
0.0
220
0.0
230
1.0
 40
0.0014453010788298
 41
3.297441633965493
 42
4.6251464005362
  0
LWPOLYLINE
  5
48E
330
1F
100
AcDbEntity
  8
0
  6
Continuous
 62
     7
370
    25
100
AcDbPolyline
 90
       14
 70
   128
 43
0.0
 10
283.0788508127635
 20
83.26250012066648
 10
283.1983543867588
 20
83.25275367142412
 10
283.3161321228713
 20
83.24440665709621
 10
283.4304831072966
 20
83.23757962297726
 10
283.5397559144392
 20
83.23237116322401
 10
283.642372456349
 20
83.22885649698573
 10
283.7368507730354
 20
83.22708638210942
 10
283.821826434527
 20
83.22708638210942
 10
283.8960722455962
 20
83.22885649698573
 10
283.958515968576
 20
83.23237116322401
 10
284.0082558083229
 20
83.23757962297726
 10
284.0445734356956
 20
83.24440665709621
 10
284.0669443614672
 20
83.25275367142412
 10
284.0750455108553
 20
83.26250012066648
  0
LINE
  5
48F
330
1F
100
AcDbEntity
  8
0
  6
Continuous
 62
     7
370
    25
100
AcDbLine
 10
283.0788508127635
 20
83.26250012066648
 30
0.0
 11
283.2128825913384
 21
84.79449036000973
 31
0.0
  0
ELLIPSE
  5
490
330
1F
100
AcDbEntity
  8
0
  6
Continuous
 62
     7
370
    25
100
AcDbEllipse
 10
283.1999953081942
 20
84.73434378237893
 30
0.0
 11
1.00576441528605
 21
0.0224725118290792
 31
0.0
210
0.0
220
0.0
230
1.0
 40
0.05949180751371
 41
0.7750532339645608
 42
1.556653299088526
  0
ELLIPSE
  5
491
330
1F
100
AcDbEntity
  8
0
  6
Continuous
 62
     7
370
    25
100
AcDbEllipse
 10
283.1999953081942
 20
84.73434378237893
 30
0.0
 11
1.009082944045829
 21
0.0602142316733278
 31
0.0
210
0.0
220
0.0
230
1.0
 40
0.0212419979928247
 41
6.280042920738764
 42
7.061642985862801
  0
LWPOLYLINE
  5
492
330
1F
100
AcDbEntity
  8
0
  6
Continuous
 62
     7
370
    25
100
AcDbPolyline
 90
       14
 70
   128
 43
0.0
 10
242.4031766886684
 20
83.26312807509715
 10
242.4112778380564
 20
83.25338162585479
 10
242.433648763828
 20
83.24503461152666
 10
242.4699663912006
 20
83.23820757740772
 10
242.5197062309476
 20
83.23299911765447
 10
242.5821499539274
 20
83.22948445141641
 10
242.6563957649966
 20
83.22771433654009
 10
242.7413714264882
 20
83.22771433654009
 10
242.8358497431745
 20
83.22948445141641
 10
242.9384662850844
 20
83.23299911765447
 10
243.0477390922269
 20
83.23820757740772
 10
243.1620900766523
 20
83.24503461152666
 10
243.2798678127649
 20
83.25338162585479
 10
243.3993713867601
 20
83.26312807509715
  0
ELLIPSE
  5
493
330
1F
100
AcDbEntity
  8
0
  6
Continuous
 62
     7
370
    25
100
AcDbEllipse
 10
243.2782818302233
 20
84.73434378237893
 30
0.0
 11
1.009082944045824
 21
-0.0602142316733279
 31
0.0
210
0.0
220
0.0
230
1.0
 40
0.0212419979928253
 41
2.36313497490652
 42
3.144735040031893
  0
ELLIPSE
  5
494
330
1F
100
AcDbEntity
  8
0
  6
Continuous
 62
     7
370
    25
100
AcDbEllipse
 10
243.2782818302233
 20
84.73434378237893
 30
0.0
 11
1.00576441528604
 21
-0.0224725118290792
 31
0.0
210
0.0
220
0.0
230
0.9999999999999998
 40
0.0594918075137108
 41
1.584939354501262
 42
2.366539419625218
  0
LINE
  5
495
330
1F
100
AcDbEntity
  8
0
  6
Continuous
 62
     7
370
    25
100
AcDbLine
 10
243.2653945470791
 20
84.79449036000973
 30
0.0
 11
243.3993713867601
 21
83.26312807509715
 31
0.0
  0
LINE
  5
496
330
1F
100
AcDbEntity
  8
0
  6
Continuous
 62
     7
370
    25
100
AcDbLine
 10
244.6936123747025
 20
83.2203432490493
 30
0.0
 11
281.8246838821517
 21
83.2203432490493
 31
0.0
  0
SPLINE
  5
497
330
1F
100
AcDbEntity
  8
0
  6
Continuous
 62
     7
370
    25
100
AcDbSpline
210
0.0
220
0.0
230
1.0
 70
     8
 71
     3
 72
    28
 73
    24
 74
     0
 42
0.000000001
 43
0.0000000001
 40
0.0
 40
0.0
 40
0.0
 40
0.0
 40
0.1249999999999902
 40
0.1249999999999902
 40
0.2499999999999805
 40
0.2499999999999805
 40
0.3749999999999708
 40
0.3749999999999708
 40
0.4374999999999715
 40
0.4374999999999715
 40
0.4999999999999722
 40
0.4999999999999722
 40
0.6249999999999862
 40
0.6249999999999862
 40
0.6874999999999892
 40
0.6874999999999892
 40
0.7499999999999921
 40
0.7499999999999921
 40
0.8749999999999921
 40
0.8749999999999921
 40
0.937499999999996
 40
0.937499999999996
 40
1.0
 40
1.0
 40
1.0
 40
1.0
 10
284.0891932032143
 20
85.01156963559436
 30
0.0
 10
284.0785931062174
 20
85.01124646190524
 30
0.0
 10
284.0681745314451
 20
85.00959024535031
 30
0.0
 10
284.0476852272021
 20
85.0037233443319
 30
0.0
 10
284.0375602810794
 20
84.99948139459128
 30
0.0
 10
284.0179148129135
 20
84.98844163364573
 30
0.0
 10
284.0085709302993
 20
84.98175959133313
 30
0.0
 10
283.9952504285506
 20
84.97004899645039
 30
0.0
 10
283.9909268504404
 20
84.96586250558097
 30
0.0
 10
283.9825174583052
 20
84.95691247570688
 30
0.0
 10
283.9784140269912
 20
84.95212396121692
 30
0.0
 10
283.9666820396681
 20
84.93713229831509
 30
0.0
 10
283.9595785724391
 20
84.92627249175452
 30
0.0
 10
283.9499764771297
 20
84.90871328193351
 30
0.0
 10
283.9469523361318
 20
84.90264737514293
 30
0.0
 10
283.9412659727233
 20
84.89007927514526
 30
0.0
 10
283.9386046109415
 20
84.88357032550574
 30
0.0
 10
283.9313254088566
 20
84.86377790088489
 30
0.0
 10
283.9273461679208
 20
84.85010574283128
 30
0.0
 10
283.9226720400269
 20
84.82889021917129
 30
0.0
 10
283.9213310416706
 20
84.82169981107849
 30
0.0
 10
283.919096295383
 20
84.80707467108404
 30
0.0
 10
283.9182032953967
 20
84.79960228650647
 30
0.0
 10
283.9175615748838
 20
84.79226738750789
 30
0.0
  0
LINE
  5
498
330
1F
100
AcDbEntity
  8
0
  6
Continuous
 62
     7
370
    25
100
AcDbLine
 10
284.0891932032143
 20
85.01156963559436
 30
0.0
 11
284.4505075525916
 21
85.02258531697783
 31
0.0
  0
SPLINE
  5
499
330
1F
100
AcDbEntity
  8
0
  6
Continuous
 62
     7
370
    25
100
AcDbSpline
210
0.0
220
0.0
230
1.0
 70
     8
 71
     3
 72
    28
 73
    24
 74
     0
 42
0.000000001
 43
0.0000000001
 40
0.0
 40
0.0
 40
0.0
 40
0.0
 40
0.1249999999999986
 40
0.1249999999999986
 40
0.2499999999999971
 40
0.2499999999999971
 40
0.3749999999999956
 40
0.3749999999999956
 40
0.4375000000000006
 40
0.4375000000000006
 40
0.5000000000000054
 40
0.5000000000000054
 40
0.6250000000000054
 40
0.6250000000000054
 40
0.6875000000000031
 40
0.6875000000000031
 40
0.750000000000001
 40
0.750000000000001
 40
0.8749999999999966
 40
0.8749999999999966
 40
0.9374999999999984
 40
0.9374999999999984
 40
1.0
 40
1.0
 40
1.0
 40
1.0
 10
242.3890839352031
 20
85.01156963559436
 30
0.0
 10
242.3996840322001
 20
85.01124646190524
 30
0.0
 10
242.4101026069723
 20
85.00959024535031
 30
0.0
 10
242.4305919112154
 20
85.0037233443319
 30
0.0
 10
242.4407168573381
 20
84.99948139459128
 30
0.0
 10
242.460362325504
 20
84.98844163364596
 30
0.0
 10
242.4697062081183
 20
84.98175959133313
 30
0.0
 10
242.483026709867
 20
84.97004899645039
 30
0.0
 10
242.4873502879771
 20
84.96586250558097
 30
0.0
 10
242.4957596801123
 20
84.95691247570688
 30
0.0
 10
242.4998631114263
 20
84.95212396121692
 30
0.0
 10
242.5115950987494
 20
84.93713229831509
 30
0.0
 10
242.5186985659784
 20
84.92627249175452
 30
0.0
 10
242.5283006612878
 20
84.90871328193351
 30
0.0
 10
242.5313248022856
 20
84.90264737514293
 30
0.0
 10
242.5370111656942
 20
84.89007927514526
 30
0.0
 10
242.5396725274759
 20
84.88357032550574
 30
0.0
 10
242.5469517295607
 20
84.86377790088489
 30
0.0
 10
242.5509309704967
 20
84.85010574283128
 30
0.0
 10
242.5556050983906
 20
84.82889021917129
 30
0.0
 10
242.5569460967471
 20
84.82169981107849
 30
0.0
 10
242.559180843035
 20
84.80707467108404
 30
0.0
 10
242.560073843022
 20
84.79960228650647
 30
0.0
 10
242.5607155635337
 20
84.79226738750789
 30
0.0
  0
LINE
  5
49A
330
1F
100
AcDbEntity
  8
0
  6
Continuous
 62
     7
370
    25
100
AcDbLine
 10
242.0277695858258
 20
85.02258531697783
 30
0.0
 11
242.3890839352031
 21
85.01156963559436
 31
0.0
  0
LINE
  5
49B
330
1F
100
AcDbEntity
  8
0
  6
Continuous
 62
     7
370
    25
100
AcDbLine
 10
283.2128825913384
 20
84.79449036000973
 30
0.0
 11
283.2128825913384
 21
85.02258531697783
 31
0.0
  0
ELLIPSE
  5
49C
330
1F
100
AcDbEntity
  8
0
  6
Continuous
 62
     7
370
    25
100
AcDbEllipse
 10
283.1999953081942
 20
84.98422767503406
 30
0.0
 11
1.254804775604875
 21
0.0003943147994612
 31
0.0
210
0.0
220
0.0
230
1.0
 40
0.0305669980438114
 41
0.7832257640878794
 42
1.560516191603017
  0
ELLIPSE
  5
49D
330
1F
100
AcDbEntity
  8
0
  6
Continuous
 62
     7
370
    25
100
AcDbEllipse
 10
243.2782818302233
 20
84.98422767503406
 30
0.0
 11
1.254804775604871
 21
-0.0003943147994612
 31
0.0
210
0.0
220
0.0
230
1.0
 40
0.0305669980438115
 41
1.581076461986771
 42
2.35836688950191
  0
LINE
  5
49E
330
1F
100
AcDbEntity
  8
0
  6
Continuous
 62
     7
370
    25
100
AcDbLine
 10
243.2653945470791
 20
84.79449036000973
 30
0.0
 11
243.2653945470791
 21
85.02258531697783
 31
0.0
  0
LINE
  5
49F
330
1F
100
AcDbEntity
  8
0
  6
Continuous
 62
     7
370
    25
100
AcDbLine
 10
283.2128825913384
 20
84.79449036000973
 30
0.0
 11
243.2653945470791
 21
84.79449036000973
 31
0.0
  0
LINE
  5
4A0
330
1F
100
AcDbEntity
  8
0
  6
Continuous
 62
     7
370
    25
100
AcDbLine
 10
288.2391385692088
 20
85.13809236016722
 30
0.0
 11
238.2391385692088
 21
85.13809236016722
 31
0.0
  0
LINE
  5
4A1
330
1F
100
AcDbEntity
  8
0
  6
Continuous
 62
     7
370
    25
100
AcDbLine
 10
243.2653945470791
 20
85.02258531697783
 30
0.0
 11
283.2128825913384
 21
85.02258531697783
 31
0.0
  0
LINE
  5
4A2
330
1F
100
AcDbEntity
  8
0
  6
Continuous
 62
     7
370
    25
100
AcDbLine
 10
280.4836579323902
 20
82.31004029196641
 30
0.0
 11
245.9622365610073
 21
82.31004029196641
 31
0.0
  0
HATCH
  5
4A3
330
1F
100
AcDbEntity
  8
0
  6
Continuous
 62
     7
370
    18
100
AcDbHatch
 10
0.0
 20
0.0
 30
0.0
210
0.0
220
0.0
230
1.0
  2
ANSI31
 70
     0
 71
     0
 91
        1
 92
        0
 93
       28
 72
     1
 10
282.3624452849119
 20
82.3250102329638
 11
282.3624452849119
 21
82.32667749299197
 72
     4
 94
        3
 73
     1
 74
     0
 95
       14
 96
       10
 40
0.0050164684862106
 40
0.0050164684862106
 40
0.0050164684862106
 40
0.0050164684862106
 40
0.1033792471018254
 40
0.1033792471018254
 40
0.1033792471018254
 40
0.2067584942036507
 40
0.2067584942036507
 40
0.2067584942036507
 40
0.3353446071277768
 40
0.3353446071277768
 40
0.3353446071277768
 40
0.3353446071277768
 10
282.3624452849115
 20
82.32667749299197
 42
1.0
 10
281.0722639810395
 20
82.28512971878844
 42
1.0
 10
279.7820826771675
 20
82.24358194458513
 42
1.0
 10
278.4919013732956
 20
82.20203417038204
 42
1.0
 10
277.1359212587
 20
82.15836747372749
 42
1.0
 10
275.7799411441046
 20
82.11470077707339
 42
1.0
 10
274.423961029509
 20
82.07103408041884
 42
1.0
 10
272.7373535427422
 20
82.01672017366822
 42
1.0
 10
271.0507460559755
 20
81.96240626691782
 42
1.0
 10
269.3641385692087
 20
81.9080923601672
 42
1.0
 97
        0
 72
     1
 10
269.3641385692087
 20
81.9080923601672
 11
257.3641385692087
 21
81.9080923601672
 72
     4
 94
        3
 73
     1
 74
     0
 95
       14
 96
       10
 40
0.0
 40
0.0
 40
0.0
 40
0.0
 40
0.1033792471018254
 40
0.1033792471018254
 40
0.1033792471018254
 40
0.2067584942036508
 40
0.2067584942036508
 40
0.2067584942036508
 40
0.3366625693265115
 40
0.3366625693265115
 40
0.3366625693265115
 40
0.3366625693265115
 10
257.3641385692087
 20
81.9080923601672
 42
1.0
 10
256.0081336385825
 20
81.95098151605284
 42
1.0
 10
254.6521287079563
 20
81.99387067193869
 42
1.0
 10
253.2961237773301
 20
82.03675982782455
 42
1.0
 10
251.9401188467039
 20
82.07964898371018
 42
1.0
 10
250.5841139160777
 20
82.12253813959582
 42
1.0
 10
249.2281089854515
 20
82.16542729548168
 42
1.0
 10
247.5241831849323
 20
82.21932086004439
 42
1.0
 10
245.8202573844133
 20
82.27321442460711
 42
1.0
 10
244.1163315838942
 20
82.32710798917027
 42
1.0
 97
        0
 72
     1
 10
244.1163315838948
 20
82.32710798917027
 11
244.1163315838948
 21
82.32603639274033
 72
     1
 10
244.1163315838948
 20
82.32603639274033
 11
243.3663315838948
 21
82.35082978116937
 72
     2
 10
243.3993713867601
 20
83.3502838178448
 40
1.0
 50
91.89338584574601
 51
174.9999999999994
 73
     0
 72
     1
 10
242.4031766886684
 20
83.26312807509715
 11
242.2691998489874
 21
84.79449036000978
 72
     2
 10
242.0201511744644
 20
84.77270142432294
 40
0.25
 50
5.00000000000066
 51
88.25371837971438
 73
     1
 72
     1
 10
242.0277695858258
 20
85.02258531697783
 11
238.2391385692087
 21
85.13809236016733
 72
     1
 10
238.2391385692088
 20
85.13809236016722
 11
238.2391385692088
 21
84.63786003757942
 72
     1
 10
238.2391385692088
 20
84.63786003757936
 11
241.7904658956444
 21
84.52958786299282
 72
     1
 10
241.7904658956444
 20
84.52958786299326
 11
241.9050793396225
 21
83.2195502037235
 72
     2
 10
243.3993713867601
 20
83.3502838178448
 40
1.5
 50
185.0000000000007
 51
259.2483041286956
 73
     1
 72
     2
 10
243.0729034354708
 20
81.63100528404619
 40
0.25
 50
280.751695871308
 51
354.0000000000016
 73
     0
 72
     1
 10
243.3215339093129
 20
81.65713739986303
 11
243.3760877412785
 21
81.1380923601675
 72
     1
 10
243.3760877412786
 20
81.13809236016722
 11
283.1029664621698
 21
81.13809236016722
 72
     1
 10
283.1029664621698
 20
81.13809236016722
 11
283.1574699123393
 21
81.65665804909254
 72
     2
 10
283.4061003861814
 20
81.63052593327588
 40
0.25
 50
186.0000000000001
 51
259.2222550720791
 73
     0
 72
     2
 10
283.0788508127635
 20
83.34965586341436
 40
1.5
 50
280.7777449279224
 51
355.0000000000009
 73
     1
 72
     1
 10
284.5731428599011
 20
83.21892224929287
 11
284.6878112427731
 21
84.52958786299321
 72
     1
 10
284.6878112427731
 20
84.52958786299326
 11
288.2391385692088
 21
84.63786003757981
 72
     1
 10
288.2391385692088
 20
84.63786003757936
 11
288.2391385692088
 21
85.13809236016717
 72
     1
 10
288.2391385692088
 20
85.13809236016722
 11
284.4505075525916
 21
85.02258531697773
 72
     2
 10
284.4581259639531
 20
84.77270142432294
 40
0.25
 50
91.74628162028563
 51
174.9999999999993
 73
     1
 72
     1
 10
284.2090772894302
 20
84.79449036000973
 11
284.0750455108553
 21
83.26250012066653
 72
     2
 10
283.0788508127635
 20
83.34965586341436
 40
1.0
 50
5.000000000000571
 51
88.07481629167664
 73
     0
 72
     1
 10
283.1124452849119
 20
82.35022031699772
 11
282.3624452849119
 21
82.3250102329638
 97
        0
 75
     0
 76
     1
 52
0.0
 41
10.0
 77
     0
 78
     1
 53
45.0
 43
217.6632246265806
 44
-7.575277912012424
 45
-0.8838834764831842
 46
0.8838834764831844
 79
     0
 98
        1
 10
217.6632246265806
 20
-7.575277912012424
  0
DIMENSION
  5
4A4
330
1F
100
AcDbEntity
  8
0
  6
Continuous
 62
     7
370
    18
100
AcDbDimension
280
     0
  2
*D21
 10
181.9547689283504
 20
123.7792428520982
 30
0.0
 11
203.4244711845575
 21
123.7792428520982
 31
0.0
 70
   160
  1
<>
 71
     2
 42
50.0
 73
     0
 74
     0
 75
     0
  3
3_4 Scale
100
AcDbAlignedDimension
 13
231.9547689283504
 23
114.8772800384946
 33
0.0
 14
181.9547689283504
 24
114.8772800384946
 34
0.0
100
AcDbRotatedDimension
  0
LINE
  5
4A5
330
1F
100
AcDbEntity
  8
0
  6
Continuous
 62
     7
370
    25
100
AcDbLine
 10
260.0896564017458
 20
71.27513473070784
 30
0.0
 11
251.2047520734268
 21
71.68340859561884
 31
0.0
  0
LINE
  5
4A6
330
1F
100
AcDbEntity
  8
0
  6
Continuous
 62
     7
370
    25
100
AcDbLine
 10
260.0896564017458
 20
71.27513473070784
 30
0.0
 11
270.0896564017458
 21
71.27513473070784
 31
0.0
  0
LINE
  5
4A7
330
1F
100
AcDbEntity
  8
0
  6
Continuous
 62
     7
370
    25
100
AcDbLine
 10
275.2469274469323
 20
71.66166124430252
 30
0.0
 11
270.0896564017458
 21
71.27513473070784
 31
0.0
  0
LINE
  5
4A8
330
1F
100
AcDbEntity
  8
0
  6
Continuous
 62
     7
370
    25
100
AcDbLine
 10
275.2469274469323
 20
71.66166124430252
 30
0.0
 11
275.2469274469323
 21
71.62351123393527
 31
0.0
  0
LINE
  5
4A9
330
1F
100
AcDbEntity
  8
0
  6
Continuous
 62
     7
370
    25
100
AcDbLine
 10
275.2469274469323
 20
71.62351123393527
 30
0.0
 11
275.9969274469325
 21
71.67708266250689
 31
0.0
  0
ARC
  5
4AA
330
1F
100
AcDbEntity
  8
0
  6
Continuous
 62
     7
370
    25
100
AcDbCircle
 10
275.9256803969445
 20
72.67454136233759
 30
0.0
 40
0.9999999999999959
100
AcDbArc
 50
274.0856167799762
 51
355.0000000000019
  0
LINE
  5
4AB
330
1F
100
AcDbEntity
  8
0
  6
Continuous
 62
     7
370
    25
100
AcDbLine
 10
276.9218750950364
 20
72.58738561958996
 30
0.0
 11
277.0595951219673
 21
74.16153273055037
 31
0.0
  0
ARC
  5
4AC
330
1F
100
AcDbEntity
  8
0
  6
Continuous
 62
     7
370
    25
100
AcDbCircle
 10
277.3086437964904
 20
74.13974379486344
 30
0.0
 40
0.2500000000000003
100
AcDbArc
 50
91.74628162028563
 51
175.0000000000002
  0
LINE
  5
4AD
330
1F
100
AcDbEntity
  8
0
  6
Continuous
 62
     7
370
    25
100
AcDbLine
 10
277.301025385129
 20
74.38962768751828
 30
0.0
 11
281.0896564017463
 21
74.50513473070784
 31
0.0
  0
LINE
  5
4AE
330
1F
100
AcDbEntity
  8
0
  6
Continuous
 62
     7
370
    25
100
AcDbLine
 10
281.0896564017463
 20
74.00490240812009
 30
0.0
 11
281.0896564017463
 21
74.50513473070784
 31
0.0
  0
LINE
  5
4AF
330
1F
100
AcDbEntity
  8
0
  6
Continuous
 62
     7
370
    25
100
AcDbLine
 10
277.5383290753105
 20
73.8966302335336
 30
0.0
 11
281.0896564017463
 21
74.00490240812009
 31
0.0
  0
LINE
  5
4B0
330
1F
100
AcDbEntity
  8
0
  6
Continuous
 62
     7
370
    25
100
AcDbLine
 10
277.4199724440821
 20
72.54380774821608
 30
0.0
 11
277.5383290753105
 21
73.8966302335336
 31
0.0
  0
ARC
  5
4B1
330
1F
100
AcDbEntity
  8
0
  6
Continuous
 62
     7
370
    25
100
AcDbCircle
 10
275.9256803969445
 20
72.67454136233759
 30
0.0
 40
1.500000000000001
100
AcDbArc
 50
282.5564432641552
 51
355.0000000000003
  0
ARC
  5
4B2
330
1F
100
AcDbEntity
  8
0
  6
Continuous
 62
     7
370
    25
100
AcDbCircle
 10
276.3061326339046
 20
70.96639731238396
 30
0.0
 40
0.2500000000000066
100
AcDbArc
 50
102.55644326416
 51
174.0000000000015
  0
LINE
  5
4B3
330
1F
100
AcDbEntity
  8
0
  6
Continuous
 62
     7
370
    25
100
AcDbLine
 10
276.0575021600626
 20
70.99252942820088
 30
0.0
 11
276.0062749131098
 21
70.50513473070783
 31
0.0
  0
LINE
  5
4B4
330
1F
100
AcDbEntity
  8
0
  6
Continuous
 62
     7
370
    25
100
AcDbLine
 10
250.4577974325671
 20
70.50513473070783
 30
0.0
 11
276.0062749131098
 21
70.50513473070783
 31
0.0
  0
LINE
  5
4B5
330
1F
100
AcDbEntity
  8
0
  6
Continuous
 62
     7
370
    25
100
AcDbLine
 10
250.4577974325671
 20
70.50513473070783
 30
0.0
 11
250.4044452985225
 21
71.0127463784191
 31
0.0
  0
ARC
  5
4B6
330
1F
100
AcDbEntity
  8
0
  6
Continuous
 62
     7
370
    25
100
AcDbCircle
 10
250.1558148246805
 20
70.9866142626022
 30
0.0
 40
0.2500000000000135
100
AcDbArc
 50
6.000000000003351
 51
78.61675589175327
  0
ARC
  5
4B7
330
1F
100
AcDbEntity
  8
0
  6
Continuous
 62
     7
370
    25
100
AcDbCircle
 10
250.5012134727793
 20
72.70218990182401
 30
0.0
 40
1.500000000000001
100
AcDbArc
 50
184.9999999999997
 51
258.6167558917533
  0
LINE
  5
4B8
330
1F
100
AcDbEntity
  8
0
  6
Continuous
 62
     7
370
    25
100
AcDbLine
 10
248.8909837281818
 20
73.8966302335336
 30
0.0
 11
249.0069214256419
 21
72.5714562877025
 31
0.0
  0
LINE
  5
4B9
330
1F
100
AcDbEntity
  8
0
  6
Continuous
 62
     7
370
    25
100
AcDbLine
 10
245.339656401746
 20
74.00490240812009
 30
0.0
 11
248.8909837281818
 21
73.8966302335336
 31
0.0
  0
LINE
  5
4BA
330
1F
100
AcDbEntity
  8
0
  6
Continuous
 62
     7
370
    25
100
AcDbLine
 10
245.339656401746
 20
74.50513473070784
 30
0.0
 11
245.339656401746
 21
74.00490240812009
 31
0.0
  0
LINE
  5
4BB
330
1F
100
AcDbEntity
  8
0
  6
Continuous
 62
     7
370
    25
100
AcDbLine
 10
245.339656401746
 20
74.50513473070784
 30
0.0
 11
249.1282874183631
 21
74.38962768751828
 31
0.0
  0
ARC
  5
4BC
330
1F
100
AcDbEntity
  8
0
  6
Continuous
 62
     7
370
    25
100
AcDbCircle
 10
249.1206690070017
 20
74.13974379486344
 30
0.0
 40
0.2500000000000003
100
AcDbArc
 50
4.999999999999745
 51
88.25371837971438
  0
LINE
  5
4BD
330
1F
100
AcDbEntity
  8
0
  6
Continuous
 62
     7
370
    25
100
AcDbLine
 10
249.3697176815247
 20
74.16153273055037
 30
0.0
 11
249.5050187746877
 21
72.61503415907636
 31
0.0
  0
ARC
  5
4BE
330
1F
100
AcDbEntity
  8
0
  6
Continuous
 62
     7
370
    25
100
AcDbCircle
 10
250.5012134727793
 20
72.70218990182401
 30
0.0
 40
0.9999999999999996
100
AcDbArc
 50
184.9999999999997
 51
267.3369992339329
  0
LINE
  5
4BF
330
1F
100
AcDbEntity
  8
0
  6
Continuous
 62
     7
370
    25
100
AcDbLine
 10
250.4547520734271
 20
71.70326981574594
 30
0.0
 11
251.2047520734268
 21
71.66838609481643
 31
0.0
  0
LINE
  5
4C0
330
1F
100
AcDbEntity
  8
0
  6
Continuous
 62
     7
370
    25
100
AcDbLine
 10
251.2047520734268
 20
71.66838609481643
 30
0.0
 11
251.2047520734268
 21
71.68340859561884
 31
0.0
  0
SPLINE
  5
4C1
330
1F
100
AcDbEntity
  8
0
  6
Continuous
 62
     7
370
    25
100
AcDbSpline
210
0.0
220
0.0
230
1.0
 70
     8
 71
     3
 72
    36
 73
    32
 74
     0
 42
0.000000001
 43
0.0000000001
 40
0.0
 40
0.0
 40
0.0
 40
0.0
 40
0.1249999999999949
 40
0.1249999999999949
 40
0.1874999999999938
 40
0.1874999999999938
 40
0.2499999999999927
 40
0.2499999999999927
 40
0.3749999999999893
 40
0.3749999999999893
 40
0.4062499999999898
 40
0.4062499999999898
 40
0.4374999999999904
 40
0.4374999999999904
 40
0.4999999999999935
 40
0.4999999999999935
 40
0.6249999999999978
 40
0.6249999999999978
 40
0.6562499999999984
 40
0.6562499999999984
 40
0.687499999999999
 40
0.687499999999999
 40
0.7499999999999986
 40
0.7499999999999986
 40
0.8124999999999982
 40
0.8124999999999982
 40
0.8437499999999994
 40
0.8437499999999994
 40
0.8750000000000005
 40
0.8750000000000005
 40
1.0
 40
1.0
 40
1.0
 40
1.0
 10
252.7047520734269
 20
71.69531246959327
 30
0.0
 10
252.6057114777507
 20
71.6958412943524
 30
0.0
 10
252.5083244876931
 20
71.69625177471094
 30
0.0
 10
252.3646231392082
 20
71.69673225324307
 30
0.0
 10
252.3171221553867
 20
71.69686908201033
 30
0.0
 10
252.2229373336214
 20
71.69710077595358
 30
0.0
 10
252.1761238052361
 20
71.69719567374939
 30
0.0
 10
252.0399438523237
 20
71.69741514293109
 30
0.0
 10
251.9538229626927
 20
71.69747818916672
 30
0.0
 10
251.8519509574235
 20
71.69745776260232
 30
0.0
 10
251.8318681108763
 20
71.6974486582301
 30
0.0
 10
251.7922948132333
 20
71.69742035261539
 30
0.0
 10
251.7727547235691
 20
71.69740111957183
 30
0.0
 10
251.715428599061
 20
71.69732798223724
 30
0.0
 10
251.6790534983643
 20
71.69725885955468
 30
0.0
 10
251.5752820019644
 20
71.69698938245701
 30
0.0
 10
251.5131888117501
 20
71.69672902428347
 30
0.0
 10
251.4446408349936
 20
71.69627866772568
 30
0.0
 10
251.431354452544
 20
71.69618211460927
 30
0.0
 10
251.4059431305459
 20
71.6959772550948
 30
0.0
 10
251.393807286341
 20
71.69586891065397
 30
0.0
 10
251.3590775304008
 20
71.69552491969769
 30
0.0
 10
251.3381574373212
 20
71.69527031335447
 30
0.0
 10
251.3007150421236
 20
71.69470447967713
 30
0.0
 10
251.2841927624346
 20
71.69439341345283
 30
0.0
 10
251.2627519095718
 20
71.69387609289755
 30
0.0
 10
251.2561630385299
 20
71.69369518290811
 30
0.0
 10
251.2441212800996
 20
71.69331475947508
 30
0.0
 10
251.2386615037643
 20
71.69311483580663
 30
0.0
 10
251.2144649612672
 20
71.69207333705227
 30
0.0
 10
251.2047520734268
 20
71.69110354256632
 30
0.0
 10
251.2047520734268
 20
71.68993534337166
 30
0.0
  0
SPLINE
  5
4C2
330
1F
100
AcDbEntity
  8
0
  6
Continuous
 62
     7
370
    25
100
AcDbSpline
210
0.0
220
0.0
230
1.0
 70
     8
 71
     3
 72
    22
 73
    18
 74
     0
 42
0.000000001
 43
0.0000000001
 40
0.0
 40
0.0
 40
0.0
 40
0.0
 40
0.015625
 40
0.015625
 40
0.03125
 40
0.0624999999999999
 40
0.125
 40
0.25
 40
0.5
 40
0.75
 40
0.8749999999999998
 40
0.9374999999999998
 40
0.9687499999999998
 40
0.9687499999999998
 40
0.9843749999999998
 40
0.9843749999999998
 40
1.0
 40
1.0
 40
1.0
 40
1.0
 10
273.7469274469323
 20
71.69448709121816
 30
0.0
 10
273.6373327963252
 20
71.69414964099992
 30
0.0
 10
273.5277381317288
 20
71.69415035971066
 30
0.0
 10
273.3085488025957
 20
71.69415035971066
 30
0.0
 10
272.9797648088959
 20
71.69415035971066
 30
0.0
 10
272.2126021569298
 20
71.69415035971066
 30
0.0
 10
270.678276852998
 20
71.69415035971066
 30
0.0
 10
267.6096262451338
 20
71.69415035971066
 30
0.0
 10
263.2258396624712
 20
71.69415035971066
 30
0.0
 10
258.8420530798081
 20
71.69415035971066
 30
0.0
 10
255.7734024719444
 20
71.69415035971066
 30
0.0
 10
254.2390771680121
 20
71.69415035971066
 30
0.0
 10
253.5815091806131
 20
71.69415035971066
 30
0.0
 10
253.2527251869131
 20
71.69415035971066
 30
0.0
 10
253.1431305075808
 20
71.69406839296319
 30
0.0
 10
252.9239412276909
 20
71.69434174897749
 30
0.0
 10
252.8143466325774
 20
71.69472729221322
 30
0.0
 10
252.7047520734269
 20
71.69531246959379
 30
0.0
  0
SPLINE
  5
4C3
330
1F
100
AcDbEntity
  8
0
  6
Continuous
 62
     7
370
    25
100
AcDbSpline
210
0.0
220
0.0
230
1.0
 70
     8
 71
     3
 72
    36
 73
    32
 74
     0
 42
0.000000001
 43
0.0000000001
 40
0.0
 40
0.0
 40
0.0
 40
0.0
 40
0.1250000000000035
 40
0.1250000000000035
 40
0.1875000000000039
 40
0.1875000000000039
 40
0.2500000000000043
 40
0.2500000000000043
 40
0.3750000000000035
 40
0.3750000000000035
 40
0.4062500000000023
 40
0.4062500000000023
 40
0.4375000000000012
 40
0.4375000000000012
 40
0.499999999999999
 40
0.499999999999999
 40
0.6249999999999964
 40
0.6249999999999964
 40
0.6562499999999964
 40
0.6562499999999964
 40
0.6874999999999964
 40
0.6874999999999964
 40
0.7499999999999976
 40
0.7499999999999976
 40
0.8124999999999989
 40
0.8124999999999989
 40
0.8437499999999992
 40
0.8437499999999992
 40
0.8749999999999996
 40
0.8749999999999996
 40
1.0
 40
1.0
 40
1.0
 40
1.0
 10
275.2469274469323
 20
71.68105087577065
 30
0.0
 10
275.2469274469323
 20
71.68292778201068
 30
0.0
 10
275.237217388175
 20
71.68450855136346
 30
0.0
 10
275.2086797829275
 20
71.68657101516926
 30
0.0
 10
275.196821223577
 20
71.6872065662575
 30
0.0
 10
275.1683049025094
 20
71.68838856389858
 30
0.0
 10
275.1515660759908
 20
71.6889360110501
 30
0.0
 10
275.0951647441275
 20
71.69043329526958
 30
0.0
 10
275.0491440532879
 20
71.691255035926
 30
0.0
 10
274.9811886025394
 20
71.69212346211002
 30
0.0
 10
274.967071343823
 20
71.69228911072754
 30
0.0
 10
274.9377677198887
 20
71.69260561650829
 30
0.0
 10
274.9225398679365
 20
71.69275680213527
 30
0.0
 10
274.8755353294371
 20
71.69318617160873
 30
0.0
 10
274.8425586853146
 20
71.69343943437237
 30
0.0
 10
274.7388619654494
 20
71.69411574750218
 30
0.0
 10
274.6634201625557
 20
71.69445787793889
 30
0.0
 10
274.5610434219466
 20
71.6947703110322
 30
0.0
 10
274.5401008739771
 20
71.69482710427953
 30
0.0
 10
274.4977652830304
 20
71.69492839890519
 30
0.0
 10
274.4763631905551
 20
71.69497297470688
 30
0.0
 10
274.4114670388133
 20
71.69508940976816
 30
0.0
 10
274.3672847330684
 20
71.69514413973378
 30
0.0
 10
274.2771117783227
 20
71.695210004271
 30
0.0
 10
274.2311211203078
 20
71.69522104394802
 30
0.0
 10
274.1607606508465
 20
71.69520346040774
 30
0.0
 10
274.1370776753159
 20
71.69519195958092
 30
0.0
 10
274.089244592851
 20
71.69515767395144
 30
0.0
 10
274.0650498136475
 20
71.69513482016516
 30
0.0
 10
273.9439349958212
 20
71.69499289786411
 30
0.0
 10
273.8459710911925
 20
71.69479205408972
 30
0.0
 10
273.7469274469323
 20
71.69448709121805
 30
0.0
  0
SPLINE
  5
4C4
330
1F
100
AcDbEntity
  8
0
  6
Continuous
 62
     7
370
    25
100
AcDbSpline
210
0.0
220
0.0
230
1.0
 70
    24
 71
     3
 72
     9
 73
     5
 74
     0
 42
0.000000001
 43
0.0000000001
 40
0.0
 40
0.0
 40
0.0
 40
0.0
 40
0.3333391069240918
 40
0.9999999999999998
 40
0.9999999999999998
 40
0.9999999999999998
 40
0.9999999999999998
 10
275.2469274469323
 20
71.66309818991142
 30
0.0
 10
275.2469274469323
 20
71.66319821304695
 30
0.0
 10
275.2469274469323
 20
71.66349827725601
 30
0.0
 10
275.2469274469323
 20
71.67402987284801
 30
0.0
 10
275.2469274469323
 20
71.68105087577085
 30
0.0
  0
LINE
  5
4C5
330
1F
100
AcDbEntity
  8
0
  6
Continuous
 62
     7
370
    25
100
AcDbLine
 10
250.4998892192974
 20
71.71787215170998
 30
0.0
 11
250.5013564023623
 21
71.70110217253965
 31
0.0
  0
LINE
  5
4C6
330
1F
100
AcDbEntity
  8
0
  6
Continuous
 62
     7
370
    25
100
AcDbLine
 10
275.9294235841947
 20
71.71787215170998
 30
0.0
 11
250.4998892192974
 21
71.71787215170998
 31
0.0
  0
LINE
  5
4C7
330
1F
100
AcDbEntity
  8
0
  6
Continuous
 62
     7
370
    25
100
AcDbLine
 10
275.9254080278416
 20
71.67197413257181
 30
0.0
 11
275.9294235841947
 21
71.71787215170998
 31
0.0
  0
ARC
  5
4C8
330
1F
100
AcDbEntity
  8
0
  6
Continuous
 62
     7
370
    25
100
AcDbCircle
 10
275.9297761808348
 20
72.71753945128897
 30
0.0
 40
0.9996673617618776
100
AcDbArc
 50
269.9797909779354
 51
354.986062050083
  0
ARC
  5
4C9
330
1F
100
AcDbEntity
  8
0
  6
Continuous
 62
     7
370
    25
100
AcDbCircle
 10
250.499536622657
 20
72.71753945128897
 30
0.0
 40
0.9996673617618696
100
AcDbArc
 50
185.013937949917
 51
270.0202090220662
  0
LWPOLYLINE
  5
4CA
330
1F
100
AcDbEntity
  8
0
  6
Continuous
 62
     7
370
    25
100
AcDbPolyline
 90
       14
 70
   128
 43
0.0
 10
249.5036945212055
 20
72.63017044563766
 10
249.5117956705938
 20
72.62042399639525
 10
249.5341665963652
 20
72.61207698206722
 10
249.5704842237379
 20
72.60524994794822
 10
249.6202240634848
 20
72.60004148819506
 10
249.6826677864647
 20
72.5965268219568
 10
249.7569135975337
 20
72.59475670708055
 10
249.8418892590255
 20
72.59475670708055
 10
249.9363675757118
 20
72.5965268219568
 10
250.0389841176216
 20
72.60004148819506
 10
250.1482569247642
 20
72.60524994794822
 10
250.2626079091895
 20
72.61207698206722
 10
250.3803856453022
 20
72.62042399639525
 10
250.4998892192974
 20
72.63017044563766
  0
LINE
  5
4CB
330
1F
100
AcDbEntity
  8
0
  6
Continuous
 62
     7
370
    25
100
AcDbLine
 10
250.4998892192974
 20
71.71787215170998
 30
0.0
 11
250.4998892192974
 21
72.63017044563766
 31
0.0
  0
ELLIPSE
  5
4CC
330
1F
100
AcDbEntity
  8
0
  6
Continuous
 62
     7
370
    25
100
AcDbEllipse
 10
250.3787996627607
 20
74.1013861529196
 30
0.0
 11
1.00908294404582
 21
-0.060214231673328
 31
0.0
210
0.0
220
0.0
230
1.0
 40
0.0212419979928254
 41
2.36313497490718
 42
3.144735040031956
  0
ELLIPSE
  5
4CD
330
1F
100
AcDbEntity
  8
0
  6
Continuous
 62
     7
370
    25
100
AcDbEllipse
 10
250.3787996627607
 20
74.1013861529196
 30
0.0
 11
1.005764415286032
 21
-0.0224725118290794
 31
0.0
210
0.0
220
0.0
230
1.0
 40
0.0594918075137289
 41
1.584939354501271
 42
2.366539419625607
  0
LINE
  5
4CE
330
1F
100
AcDbEntity
  8
0
  6
Continuous
 62
     7
370
    25
100
AcDbLine
 10
250.3659123796165
 20
74.16153273055037
 30
0.0
 11
250.4998892192974
 21
72.63017044563766
 31
0.0
  0
LINE
  5
4CF
330
1F
100
AcDbEntity
  8
0
  6
Continuous
 62
     7
370
    25
100
AcDbLine
 10
275.9294235841947
 20
72.63017044563766
 30
0.0
 11
275.9294235841947
 21
71.71787215170998
 31
0.0
  0
LWPOLYLINE
  5
4D0
330
1F
100
AcDbEntity
  8
0
  6
Continuous
 62
     7
370
    25
100
AcDbPolyline
 90
       14
 70
   128
 43
0.0
 10
275.9294235841947
 20
72.63017044563766
 10
276.0489271581899
 20
72.62042399639525
 10
276.1667048943023
 20
72.61207698206722
 10
276.2810558787279
 20
72.60524994794822
 10
276.3903286858702
 20
72.60004148819506
 10
276.4929452277802
 20
72.5965268219568
 10
276.5874235444665
 20
72.59475670708055
 10
276.6723992059579
 20
72.59475670708055
 10
276.7466450170273
 20
72.5965268219568
 10
276.809088740007
 20
72.60004148819506
 10
276.8588285797542
 20
72.60524994794822
 10
276.8951462071266
 20
72.61207698206722
 10
276.9175171328982
 20
72.62042399639525
 10
276.9256182822865
 20
72.63017044563766
  0
LINE
  5
4D1
330
1F
100
AcDbEntity
  8
0
  6
Continuous
 62
     7
370
    25
100
AcDbLine
 10
275.9294235841947
 20
72.63017044563766
 30
0.0
 11
276.0634004238757
 21
74.16153273055037
 31
0.0
  0
ELLIPSE
  5
4D2
330
1F
100
AcDbEntity
  8
0
  6
Continuous
 62
     7
370
    25
100
AcDbEllipse
 10
276.0505131407315
 20
74.1013861529196
 30
0.0
 11
1.00576441528604
 21
0.022472511829079
 31
0.0
210
0.0
220
0.0
230
0.9999999999999998
 40
0.0594918075137282
 41
0.7750532339641861
 42
1.556653299088522
  0
ELLIPSE
  5
4D3
330
1F
100
AcDbEntity
  8
0
  6
Continuous
 62
     7
370
    25
100
AcDbEllipse
 10
276.0505131407315
 20
74.1013861529196
 30
0.0
 11
1.009082944045829
 21
0.0602142316733277
 31
0.0
210
0.0
220
0.0
230
1.0
 40
0.0212419979928252
 41
6.280042920738764
 42
7.061642985862194
  0
LINE
  5
4D4
330
1F
100
AcDbEntity
  8
0
  6
Continuous
 62
     7
370
    25
100
AcDbLine
 10
250.4998892192974
 20
72.63017044563766
 30
0.0
 11
275.9294235841947
 21
72.63017044563766
 31
0.0
  0
SPLINE
  5
4D5
330
1F
100
AcDbEntity
  8
0
  6
Continuous
 62
     7
370
    25
100
AcDbSpline
210
0.0
220
0.0
230
1.0
 70
     8
 71
     3
 72
    28
 73
    24
 74
     0
 42
0.000000001
 43
0.0000000001
 40
0.0
 40
0.0
 40
0.0
 40
0.0
 40
0.1250000000000015
 40
0.1250000000000015
 40
0.2500000000000031
 40
0.2500000000000031
 40
0.3750000000000047
 40
0.3750000000000047
 40
0.4375000000000055
 40
0.4375000000000055
 40
0.5000000000000063
 40
0.5000000000000063
 40
0.6250000000000205
 40
0.6250000000000205
 40
0.6875000000000218
 40
0.6875000000000218
 40
0.7500000000000231
 40
0.7500000000000231
 40
0.8750000000000076
 40
0.8750000000000076
 40
0.9375000000000039
 40
0.9375000000000039
 40
1.0
 40
1.0
 40
1.0
 40
1.0
 10
249.4896017677402
 20
74.37861200613487
 30
0.0
 10
249.5002018647375
 20
74.3782888324459
 30
0.0
 10
249.5106204395095
 20
74.37663261589084
 30
0.0
 10
249.5311097437526
 20
74.37076571487235
 30
0.0
 10
249.5412346898752
 20
74.36652376513184
 30
0.0
 10
249.5608801580411
 20
74.35548400418635
 30
0.0
 10
249.5702240406554
 20
74.34880196187354
 30
0.0
 10
249.5835445424041
 20
74.33709136699118
 30
0.0
 10
249.5878681205143
 20
74.33290487612144
 30
0.0
 10
249.5962775126496
 20
74.32395484624733
 30
0.0
 10
249.6003809439636
 20
74.31916633175764
 30
0.0
 10
249.6121129312868
 20
74.30417466885562
 30
0.0
 10
249.6192163985157
 20
74.29331486229519
 30
0.0
 10
249.6288184938249
 20
74.27575565247399
 30
0.0
 10
249.6318426348228
 20
74.26968974568329
 30
0.0
 10
249.6375289982314
 20
74.25712164568595
 30
0.0
 10
249.6401903600132
 20
74.25061269604616
 30
0.0
 10
249.6474695620983
 20
74.23082027142552
 30
0.0
 10
249.6514488030339
 20
74.21714811337195
 30
0.0
 10
249.6561229309278
 20
74.19593258971168
 30
0.0
 10
249.657463929284
 20
74.1887421816191
 30
0.0
 10
249.6596986755717
 20
74.17411704162465
 30
0.0
 10
249.6605916755571
 20
74.16664465704688
 30
0.0
 10
249.6612333960712
 20
74.15930975804845
 30
0.0
  0
LINE
  5
4D6
330
1F
100
AcDbEntity
  8
0
  6
Continuous
 62
     7
370
    25
100
AcDbLine
 10
249.1282874183631
 20
74.38962768751828
 30
0.0
 11
249.4896017677402
 21
74.37861200613487
 31
0.0
  0
SPLINE
  5
4D7
330
1F
100
AcDbEntity
  8
0
  6
Continuous
 62
     7
370
    25
100
AcDbSpline
210
0.0
220
0.0
230
1.0
 70
     8
 71
     3
 72
    28
 73
    24
 74
     0
 42
0.000000001
 43
0.0000000001
 40
0.0
 40
0.0
 40
0.0
 40
0.0
 40
0.1250000000000013
 40
0.1250000000000013
 40
0.2500000000000026
 40
0.2500000000000026
 40
0.3750000000000038
 40
0.3750000000000038
 40
0.4375000000000101
 40
0.4375000000000101
 40
0.5000000000000162
 40
0.5000000000000162
 40
0.625000000000019
 40
0.625000000000019
 40
0.6875000000000144
 40
0.6875000000000144
 40
0.75000000000001
 40
0.75000000000001
 40
0.875000000000001
 40
0.875000000000001
 40
0.9375000000000005
 40
0.9375000000000005
 40
1.0
 40
1.0
 40
1.0
 40
1.0
 10
276.9397110357514
 20
74.37861200613487
 30
0.0
 10
276.9291109387548
 20
74.3782888324459
 30
0.0
 10
276.9186923639823
 20
74.37663261589084
 30
0.0
 10
276.8982030597393
 20
74.37076571487235
 30
0.0
 10
276.8880781136166
 20
74.36652376513184
 30
0.0
 10
276.8684326454509
 20
74.35548400418632
 30
0.0
 10
276.8590887628364
 20
74.34880196187354
 30
0.0
 10
276.8457682610879
 20
74.33709136699118
 30
0.0
 10
276.8414446829775
 20
74.33290487612136
 30
0.0
 10
276.8330352908425
 20
74.32395484624733
 30
0.0
 10
276.8289318595283
 20
74.31916633175761
 30
0.0
 10
276.8171998722055
 20
74.30417466885559
 30
0.0
 10
276.8100964049764
 20
74.29331486229516
 30
0.0
 10
276.800494309667
 20
74.27575565247396
 30
0.0
 10
276.7974701686692
 20
74.26968974568329
 30
0.0
 10
276.7917838052607
 20
74.25712164568593
 30
0.0
 10
276.7891224434787
 20
74.25061269604616
 30
0.0
 10
276.7818432413938
 20
74.23082027142548
 30
0.0
 10
276.7778640004581
 20
74.21714811337186
 30
0.0
 10
276.773189872564
 20
74.19593258971166
 30
0.0
 10
276.771848874208
 20
74.18874218161907
 30
0.0
 10
276.7696141279203
 20
74.17411704162462
 30
0.0
 10
276.7687211279302
 20
74.16664465704686
 30
0.0
 10
276.7680794074211
 20
74.15930975804839
 30
0.0
  0
LINE
  5
4D8
330
1F
100
AcDbEntity
  8
0
  6
Continuous
 62
     7
370
    25
100
AcDbLine
 10
276.9397110357514
 20
74.37861200613487
 30
0.0
 11
277.301025385129
 21
74.38962768751828
 31
0.0
  0
ELLIPSE
  5
4D9
330
1F
100
AcDbEntity
  8
0
  6
Continuous
 62
     7
370
    25
100
AcDbEllipse
 10
276.0505131407315
 20
74.3512700455744
 30
0.0
 11
1.254804775604867
 21
0.0003943147994787
 31
0.0
210
0.0
220
0.0
230
0.9999999999999996
 40
0.0305669980438257
 41
0.7832257640877448
 42
1.560516191603012
  0
LINE
  5
4DA
330
1F
100
AcDbEntity
  8
0
  6
Continuous
 62
     7
370
    25
100
AcDbLine
 10
276.0634004238757
 20
74.38962768751828
 30
0.0
 11
276.0634004238757
 21
74.16153273055037
 31
0.0
  0
ELLIPSE
  5
4DB
330
1F
100
AcDbEntity
  8
0
  6
Continuous
 62
     7
370
    25
100
AcDbEllipse
 10
250.3787996627607
 20
74.3512700455744
 30
0.0
 11
1.254804775604858
 21
-0.0003943147994614
 31
0.0
210
0.0
220
0.0
230
1.0
 40
0.030566998043826
 41
1.58107646198678
 42
2.358366889501826
  0
LINE
  5
4DC
330
1F
100
AcDbEntity
  8
0
  6
Continuous
 62
     7
370
    25
100
AcDbLine
 10
250.3659123796165
 20
74.38962768751828
 30
0.0
 11
250.3659123796165
 21
74.16153273055037
 31
0.0
  0
LINE
  5
4DD
330
1F
100
AcDbEntity
  8
0
  6
Continuous
 62
     7
370
    25
100
AcDbLine
 10
276.0634004238757
 20
74.16153273055037
 30
0.0
 11
250.3659123796165
 21
74.16153273055037
 31
0.0
  0
LINE
  5
4DE
330
1F
100
AcDbEntity
  8
0
  6
Continuous
 62
     7
370
    25
100
AcDbLine
 10
281.0896564017463
 20
74.50513473070784
 30
0.0
 11
245.339656401746
 21
74.50513473070784
 31
0.0
  0
LINE
  5
4DF
330
1F
100
AcDbEntity
  8
0
  6
Continuous
 62
     7
370
    25
100
AcDbLine
 10
250.3659123796165
 20
74.38962768751828
 30
0.0
 11
276.0634004238757
 21
74.38962768751828
 31
0.0
  0
LINE
  5
4E0
330
1F
100
AcDbEntity
  8
0
  6
CENTERX2
 62
     7
370
    18
100
AcDbLine
 10
270.1250459740914
 20
71.25513473070786
 30
0.0
 11
260.1376762168653
 21
71.25513473070786
 31
0.0
  0
HATCH
  5
4E1
330
1F
100
AcDbEntity
  8
0
  6
Continuous
 62
     7
370
    18
100
AcDbHatch
 10
0.0
 20
0.0
 30
0.0
210
0.0
220
0.0
230
1.0
  2
ANSI31
 70
     0
 71
     0
 91
        1
 92
        0
 93
       28
 72
     1
 10
251.2047520734268
 20
71.68340859561884
 11
251.2047520734268
 21
71.66838609481643
 72
     1
 10
251.2047520734268
 20
71.66838609481643
 11
250.454752073427
 21
71.70326981574596
 72
     2
 10
250.5012134727793
 20
72.70218990182401
 40
1.0
 50
92.66300076606757
 51
175.0000000000004
 73
     0
 72
     1
 10
249.5050187746877
 20
72.61503415907636
 11
249.3697176815248
 21
74.16153273055041
 72
     2
 10
249.1206690070017
 20
74.13974379486344
 40
0.25
 50
5.000000000000655
 51
88.25371837971436
 73
     1
 72
     1
 10
249.1282874183631
 20
74.38962768751828
 11
245.3396564017459
 21
74.50513473070781
 72
     1
 10
245.339656401746
 20
74.50513473070784
 11
245.339656401746
 21
74.00490240812006
 72
     1
 10
245.339656401746
 20
74.00490240812009
 11
248.8909837281817
 21
73.8966302335336
 72
     1
 10
248.8909837281818
 20
73.8966302335336
 11
249.0069214256419
 21
72.57145628770247
 72
     2
 10
250.5012134727793
 20
72.70218990182401
 40
1.5
 50
185.0000000000007
 51
258.6167558917536
 73
     1
 72
     2
 10
250.1558148246805
 20
70.9866142626022
 40
0.25
 50
281.3832441082474
 51
353.9999999999974
 73
     0
 72
     1
 10
250.4044452985225
 20
71.0127463784191
 11
250.4577974325671
 21
70.50513473070783
 72
     1
 10
250.4577974325671
 20
70.50513473070783
 11
276.0062749131101
 21
70.50513473070783
 72
     1
 10
276.0062749131098
 20
70.50513473070783
 11
276.0575021600622
 21
70.99252942820085
 72
     2
 10
276.3061326339046
 20
70.96639731238396
 40
0.25
 50
185.9999999999953
 51
257.4435567358423
 73
     0
 72
     2
 10
275.9256803969445
 20
72.67454136233759
 40
1.5
 50
-77.44355673584383
 51
-4.999999999999904
 73
     1
 72
     1
 10
277.4199724440821
 20
72.54380774821608
 11
277.5383290753105
 21
73.8966302335336
 72
     1
 10
277.5383290753105
 20
73.8966302335336
 11
281.0896564017462
 21
74.00490240812006
 72
     1
 10
281.0896564017463
 20
74.00490240812009
 11
281.0896564017463
 21
74.50513473070786
 72
     1
 10
281.0896564017458
 20
74.50513473070784
 11
277.3010253851286
 21
74.38962768751828
 72
     2
 10
277.3086437964904
 20
74.13974379486344
 40
0.25
 50
91.74628162028438
 51
175.0000000000001
 73
     1
 72
     1
 10
277.0595951219673
 20
74.16153273055037
 11
276.9218750950362
 21
72.58738561958996
 72
     2
 10
275.9256803969445
 20
72.67454136233759
 40
1.0
 50
364.9999999999994
 51
445.9143832200253
 73
     0
 72
     1
 10
275.9969274469325
 20
71.67708266250689
 11
275.2469274469326
 21
71.62351123393533
 72
     1
 10
275.2469274469323
 20
71.62351123393527
 11
275.2469274469323
 21
71.66166124430252
 72
     4
 94
        3
 73
     1
 74
     0
 95
       11
 96
        7
 40
0.0130555729221768
 40
0.0130555729221768
 40
0.0130555729221768
 40
0.0130555729221768
 40
0.0722088264482497
 40
0.0722088264482497
 40
0.0722088264482497
 40
0.1444176528964993
 40
0.1444176528964993
 40
0.1444176528964993
 40
0.1444176528964993
 10
275.2469274469318
 20
71.66166124430249
 42
1.0
 10
274.4728091684093
 20
71.60364272313391
 42
1.0
 10
273.6986908898869
 20
71.54562420196533
 42
1.0
 10
272.9245726113646
 20
71.48760568079679
 42
1.0
 10
271.9796005414915
 20
71.41678203076712
 42
1.0
 10
271.0346284716189
 20
71.34595838073746
 42
1.0
 10
270.0896564017458
 20
71.27513473070784
 42
1.0
 97
        0
 72
     1
 10
270.0896564017458
 20
71.27513473070784
 11
260.0896564017458
 21
71.27513473070784
 72
     4
 94
        3
 73
     1
 74
     0
 95
       14
 96
       10
 40
0.0
 40
0.0
 40
0.0
 40
0.0
 40
0.1033792471018253
 40
0.1033792471018253
 40
0.1033792471018253
 40
0.1692585309310807
 40
0.1692585309310807
 40
0.1692585309310807
 40
0.2259147059368515
 40
0.2259147059368515
 40
0.2259147059368515
 40
0.2259147059368515
 10
260.0896564017458
 20
71.27513473070784
 42
1.0
 10
258.7344034443309
 20
71.33741051246189
 42
1.0
 10
257.379150486916
 20
71.39968629421592
 42
1.0
 10
256.0238975295009
 20
71.46196207596993
 42
1.0
 10
255.1602513263704
 20
71.50164783512257
 42
1.0
 10
254.2966051232398
 20
71.54133359427523
 42
1.0
 10
253.4329589201093
 20
71.58101935342781
 42
1.0
 10
252.6902233045485
 20
71.61514910082487
 42
1.0
 10
251.9474876889877
 20
71.64927884822181
 42
1.0
 10
251.2047520734268
 20
71.68340859561884
 42
1.0
 97
        0
 97
        0
 75
     0
 76
     1
 52
-90.00000000000001
 41
10.0
 77
     0
 78
     1
 53
315.0
 43
207.9336590294343
 44
166.2004339708594
 45
0.8838834764831846
 46
0.8838834764831842
 79
     0
 98
        1
 10
207.9336590294343
 20
166.2004339708594
  0
DIMENSION
  5
4E2
330
1F
100
AcDbEntity
  8
0
  6
Continuous
 62
     7
370
    18
100
AcDbDimension
280
     0
  2
*D13
 10
179.5680310606738
 20
79.12728003849467
 30
0.0
 11
179.5680310606738
 21
96.87848534125279
 31
0.0
 70
   160
  1
36
 71
     2
 42
35.74999999999979
 73
     0
 74
     0
 75
     0
  3
3_4 Scale
100
AcDbAlignedDimension
 13
181.9547689283504
 23
114.8772800384944
 33
0.0
 14
181.9547689283504
 24
79.12728003849465
 34
0.0
 50
90.0
100
AcDbRotatedDimension
  0
ARC
  5
4E3
330
1F
100
AcDbEntity
  8
0
  6
Continuous
 62
     7
370
    18
100
AcDbCircle
 10
288.1826939627554
 20
118.8019474223644
 30
0.0
 40
12.37414939278826
100
AcDbArc
 50
145.4827201075801
 51
204.1635919716866
  0
LINE
  5
4E4
330
1F
100
AcDbEntity
  8
0
  6
Continuous
 62
     7
370
    18
100
AcDbLine
 10
277.7097542404844
 20
117.3203167509326
 30
0.0
 11
279.9742159371751
 21
117.3964332556124
 31
0.0
  0
ARC
  5
4E5
330
1F
100
AcDbEntity
  8
0
  6
Continuous
 62
     7
370
    18
100
AcDbCircle
 10
279.8727902220139
 20
120.4140120540216
 30
0.0
 40
3.01928285861135
100
AcDbArc
 50
271.9250793018873
 51
355.0000630502204
  0
LINE
  5
4E6
330
1F
100
AcDbEntity
  8
0
  6
Continuous
 62
     7
370
    18
100
AcDbLine
 10
282.8805840873769
 20
120.1508675237922
 30
0.0
 11
283.285268170504
 21
124.7763851347038
 31
0.0
  0
ARC
  5
4E7
330
1F
100
AcDbEntity
  8
0
  6
Continuous
 62
     7
370
    18
100
AcDbCircle
 10
284.0372162019578
 20
124.7105996420752
 30
0.0
 40
0.7548202256483351
100
AcDbArc
 50
91.74640244692017
 51
175.0001085631011
  0
LINE
  5
4E8
330
1F
100
AcDbEntity
  8
0
  6
Continuous
 62
     7
370
    18
100
AcDbLine
 10
284.0142124869836
 20
125.4650692585245
 30
0.0
 11
295.4531748753453
 21
125.8138180794262
 31
0.0
  0
LINE
  5
4E9
330
1F
100
AcDbEntity
  8
0
  6
Continuous
 62
     7
370
    25
100
AcDbLine
 10
295.4531748753453
 20
124.3034734492169
 30
0.0
 11
295.4531748753453
 21
125.8138180794262
 31
0.0
  0
LINE
  5
4EA
330
1F
100
AcDbEntity
  8
0
  6
Continuous
 62
     7
370
    18
100
AcDbLine
 10
284.7307010614226
 20
123.9765686733636
 30
0.0
 11
295.4531748753453
 21
124.3034734492169
 31
0.0
  0
LINE
  5
4EB
330
1F
100
AcDbEntity
  8
0
  6
Continuous
 62
     7
370
    18
100
AcDbLine
 10
284.3844838630051
 20
120.0192934528389
 30
0.0
 11
284.7307010614226
 21
123.9765686733636
 31
0.0
  0
ARC
  5
4EC
330
1F
100
AcDbEntity
  8
0
  6
Continuous
 62
     7
370
    18
100
AcDbCircle
 10
279.8727856076698
 20
120.4140177214735
 30
0.0
 40
4.528932368168607
100
AcDbArc
 50
280.7777732779886
 51
354.9999770873602
  0
ARC
  5
4ED
330
1F
100
AcDbEntity
  8
0
  6
Continuous
 62
     7
370
    18
100
AcDbCircle
 10
280.8608571810152
 20
115.2234588161021
 30
0.0
 40
0.7548340142904707
100
AcDbArc
 50
100.7782353035479
 51
173.9992656096629
  0
LINE
  5
4EE
330
1F
100
AcDbEntity
  8
0
  6
Continuous
 62
     7
370
    18
100
AcDbLine
 10
280.1101592378204
 20
115.3023700777376
 30
0.0
 11
279.9455989052625
 21
113.7366716126813
 31
0.0
  0
LINE
  5
4EF
330
1F
100
AcDbEntity
  8
0
  6
Continuous
 62
     7
370
    18
100
AcDbLine
 10
276.8927624232428
 20
113.7366716126813
 30
0.0
 11
279.9455989052625
 21
113.7366716126813
 31
0.0
  0
LINE
  5
4F0
330
1F
100
AcDbEntity
  8
0
  6
Continuous
 62
     7
370
    18
100
AcDbLine
 10
277.7097542404844
 20
117.3253507695448
 30
0.0
 11
275.9040896700583
 21
117.2672029392341
 31
0.0
  0
LINE
  5
4F1
330
1F
100
AcDbEntity
  8
0
  6
Continuous
 62
     7
370
    18
100
AcDbLine
 10
277.7097542404844
 20
117.3253507695448
 30
0.0
 11
277.7097542404844
 21
117.3203167509326
 31
0.0
  0
SPLINE
  5
4F2
330
1F
100
AcDbEntity
  8
0
  6
Continuous
 62
     7
370
    18
100
AcDbSpline
210
0.0
220
0.0
230
1.0
 70
     8
 71
     3
 72
    13
 73
     9
 74
     0
 42
0.000000001
 43
0.0000000001
 40
0.0
 40
0.0
 40
0.0
 40
0.0
 40
0.035729546706465
 40
0.140876312900323
 40
0.3134282433982254
 40
0.5475855295821961
 40
0.8375222106452278
 40
1.0
 40
1.0
 40
1.0
 40
1.0
 10
277.7097542404844
 20
117.3264237311119
 30
0.0
 10
277.6881798021232
 20
117.3270880828657
 30
0.0
 10
277.6031149857629
 20
117.3297075234738
 30
0.0
 10
277.4137438160485
 20
117.328217462742
 30
0.0
 10
277.1045578662828
 20
117.3283470618283
 30
0.0
 10
276.6837207002909
 20
117.3259398483397
 30
0.0
 10
276.2689820107304
 20
117.3235644360873
 30
0.0
 10
275.9956938154374
 20
117.3212992097767
 30
0.0
 10
275.8975465086393
 20
117.3204856881336
 30
0.0
  0
ARC
  5
4F3
330
1F
100
AcDbEntity
  8
0
  6
Continuous
 62
     7
370
    18
100
AcDbCircle
 10
886.3450777633786
 20
129.7552436454718
 30
0.0
 40
610.3365698503735
100
AcDbArc
 50
180.91360519718
 51
181.1689636428747
  0
LINE
  5
4F4
330
1F
100
AcDbEntity
  8
0
  6
Continuous
 62
     7
370
    18
100
AcDbLine
 10
276.0860972522039
 20
120.0235838599315
 30
0.0
 11
279.8727845361203
 21
120.1508675237922
 31
0.0
  0
ARC
  5
4F5
330
1F
100
AcDbEntity
  8
0
  6
Continuous
 62
     7
370
    18
100
AcDbCircle
 10
506.9075661322483
 20
127.1322858041985
 30
0.0
 40
227.1420970573433
100
AcDbArc
 50
181.7613151199135
 51
182.4565864875198
  0
LWPOLYLINE
  5
4F6
330
1F
100
AcDbEntity
  8
0
  6
Continuous
 62
     7
370
    18
100
AcDbPolyline
 90
       14
 70
   128
 43
0.0
 10
279.8727845361203
 20
120.1508675237922
 10
280.2336042853601
 20
120.1214402077328
 10
280.5892093439618
 20
120.0962381760212
 10
280.934470043417
 20
120.0756254019746
 10
281.26439133359
 20
120.0598995737541
 10
281.5742190603801
 20
120.04928780451
 10
281.8594753916086
 20
120.0439433112061
 10
282.1160438391496
 20
120.0439433112061
 10
282.3402117699943
 20
120.04928780451
 10
282.5287483432039
 20
120.0598995737541
 10
282.6789257654418
 20
120.0756254019746
 10
282.7885830575713
 20
120.0962381760212
 10
282.8561260546553
 20
120.1214402077328
 10
282.8805840873769
 20
120.1508675237922
  0
LINE
  5
4F7
330
1F
100
AcDbEntity
  8
0
  6
Continuous
 62
     7
370
    18
100
AcDbLine
 10
279.8727845361203
 20
120.1508675237922
 30
0.0
 11
280.2774686192474
 21
124.7763851347038
 31
0.0
  0
ARC
  5
4F8
330
1F
100
AcDbEntity
  8
0
  6
Continuous
 62
     7
370
    18
100
AcDbCircle
 10
281.2228491877643
 20
87.23007314148192
 30
0.0
 40
37.55821200099499
100
AcDbArc
 50
88.19615884250259
 51
91.44234869459062
  0
ARC
  5
4F9
330
1F
100
AcDbEntity
  8
0
  6
Continuous
 62
     7
370
    18
100
AcDbCircle
 10
282.8922982825499
 20
118.5945079029797
 30
0.0
 40
6.194354804251005
100
AcDbArc
 50
86.36271299096616
 51
94.5111060030638
  0
LINE
  5
4FA
330
1F
100
AcDbEntity
  8
0
  6
Continuous
 62
     7
370
    18
100
AcDbLine
 10
275.868996785913
 20
120.0235838599315
 30
0.0
 11
276.0860972522039
 21
120.0235838599315
 31
0.0
  0
SPLINE
  5
4FB
330
1F
100
AcDbEntity
  8
0
  6
Continuous
 62
     7
370
    18
100
AcDbSpline
210
0.0
220
0.0
230
1.0
 70
     8
 71
     3
 72
    13
 73
     9
 74
     0
 42
0.000000001
 43
0.0000000001
 40
0.0
 40
0.0
 40
0.0
 40
0.0
 40
0.0088785816861527
 40
0.0633213540971046
 40
0.3324098474236612
 40
0.5796082396536329
 40
0.7998243696393538
 40
1.0
 40
1.0
 40
1.0
 40
1.0
 10
282.4050978255168
 20
124.7696732574957
 30
0.0
 10
282.4053397897634
 20
124.7723585156152
 30
0.0
 10
282.4070654599525
 20
124.7915095676901
 30
0.0
 10
282.4190525054781
 20
124.8917089703937
 30
0.0
 10
282.4638704497855
 20
125.0617472497121
 30
0.0
 10
282.5778975616717
 20
125.2558469619809
 30
0.0
 10
282.7346751213691
 20
125.397854917425
 30
0.0
 10
282.8624559356015
 20
125.4208569248174
 30
0.0
 10
282.9233006225095
 20
125.4318096640566
 30
0.0
  0
LWPOLYLINE
  5
4FC
330
1F
100
AcDbEntity
  8
0
  6
Continuous
 62
     7
370
    18
100
AcDbPolyline
 90
        8
 70
   128
 43
0.0
 10
282.9233006225095
 20
125.4318096640566
 10
283.2018543758254
 20
125.4403021349346
 10
283.443621887574
 20
125.4476733764735
 10
283.6456273832065
 20
125.4538317241897
 10
283.805383965421
 20
125.4587023408956
 10
283.9209219548735
 20
125.4622250025828
 10
283.9908172308867
 20
125.464355869715
 10
284.0142124869836
 20
125.4650692585245
  0
LINE
  5
4FD
330
1F
100
AcDbEntity
  8
0
  6
Continuous
 62
     7
370
    18
100
AcDbLine
 10
280.2774686192474
 20
124.7763851347038
 30
0.0
 11
280.2774686192474
 21
125.4650692585245
 31
0.0
  0
ARC
  5
4FE
330
1F
100
AcDbEntity
  8
0
  6
Continuous
 62
     7
370
    18
100
AcDbCircle
 10
280.4716536868631
 20
35.65683267613123
 30
0.0
 40
89.80844651746062
100
AcDbArc
 50
88.43570977820716
 51
90.12388582499372
  0
LINE
  5
4FF
330
1F
100
AcDbEntity
  8
0
  6
Continuous
 62
     7
370
    18
100
AcDbLine
 10
280.2774686192474
 20
124.7763851347038
 30
0.0
 11
277.3463802847567
 21
124.7763851347038
 31
0.0
  0
LINE
  5
500
330
1F
100
AcDbEntity
  8
0
  6
Continuous
 62
     7
370
    18
100
AcDbLine
 10
295.4531748753453
 20
125.8138180794262
 30
0.0
 11
277.9869476397207
 21
125.8138180794262
 31
0.0
  0
LINE
  5
501
330
1F
100
AcDbEntity
  8
0
  6
Continuous
 62
     7
370
    18
100
AcDbLine
 10
277.7556909887897
 20
125.4650692585245
 30
0.0
 11
280.2774686192474
 21
125.4650692585245
 31
0.0
  0
INSERT
  5
502
330
1F
100
AcDbEntity
  8
0
  6
Continuous
 62
     7
370
    18
100
AcDbBlockReference
  2
SW_HATCH_0
 10
276.1945004679163
 20
117.2762788301968
 30
0.0
 41
6.038573306349852
 42
6.038573306349852
 43
6.038573306349852
  0
POINT
  5
503
330
1F
100
AcDbEntity
  8
0
  6
Continuous
 62
     7
370
    18
100
AcDbPoint
 10
283.376029396274
 20
125.8138181524036
 30
0.0
  0
DIMENSION
  5
504
330
1F
100
AcDbEntity
  8
0
  6
Continuous
 62
     7
370
    18
100
AcDbDimension
280
     0
  2
*D14
 10
295.4531760089738
 20
129.6176438571911
 30
0.0
 11
289.6282147602391
 21
129.6176438571911
 31
0.0
 70
   160
  1
4
 71
     2
 42
12.07714661269972
 73
     0
 74
     0
 75
     0
  3
3_4 Scale
100
AcDbAlignedDimension
 13
283.376029396274
 23
125.8138181524036
 33
0.0
 14
295.4531760089738
 24
125.8138181524038
 34
0.0
100
AcDbRotatedDimension
  0
DIMENSION
  5
505
330
1F
100
AcDbEntity
  8
0
  6
Continuous
 62
     7
370
    18
100
AcDbDimension
280
     0
  2
*D15
 10
298.0536405876626
 20
113.7366715397042
 30
0.0
 11
298.0536405876626
 21
120.096047842258
 31
0.0
 70
   160
  1
4 {\H0.7x;\S1#2;} 
 71
     2
 42
12.07714661269968
 73
     0
 74
     0
 75
     0
  3
3_4 Scale
100
AcDbAlignedDimension
 13
295.4531760089738
 23
125.8138181524038
 33
0.0
 14
279.9455989052625
 24
113.7366715397041
 34
0.0
 50
90.0
100
AcDbRotatedDimension
  0
DIMENSION
  5
506
330
1F
100
AcDbEntity
  8
0
  6
Continuous
 62
     7
370
    18
100
AcDbDimension
280
     0
  2
*D16
 10
297.1587040461177
 20
125.8138181524038
 30
0.0
 11
297.1587040461177
 21
125.0586457648656
 31
0.0
 70
   160
  1
<>
 71
     2
 42
3.020689550152155
 73
     0
 74
     0
 75
     0
  3
SLDDIMSTYLE7
100
AcDbAlignedDimension
 13
295.4531760089738
 23
124.3034733773277
 33
0.0
 14
295.4531760089738
 24
125.8138181524038
 34
0.0
 50
90.0
100
AcDbRotatedDimension
  0
ARC
  5
507
330
1F
100
AcDbEntity
  8
0
  6
Continuous
 62
     7
370
    18
100
AcDbCircle
 10
256.668283580075
 20
119.4993887462281
 30
0.0
 40
12.37414939278826
100
AcDbArc
 50
335.8364080283134
 51
34.51727989241992
  0
LINE
  5
508
330
1F
100
AcDbEntity
  8
0
  6
Continuous
 62
     7
370
    18
100
AcDbLine
 10
267.141223302346
 20
118.0177580747964
 30
0.0
 11
264.8767616056554
 21
118.0938745794762
 31
0.0
  0
ARC
  5
509
330
1F
100
AcDbEntity
  8
0
  6
Continuous
 62
     7
370
    18
100
AcDbCircle
 10
264.9781873208165
 20
121.1114533778854
 30
0.0
 40
3.01928285861135
100
AcDbArc
 50
184.9999369497812
 51
268.0749206981126
  0
LINE
  5
50A
330
1F
100
AcDbEntity
  8
0
  6
Continuous
 62
     7
370
    18
100
AcDbLine
 10
261.9703934554536
 20
120.848308847656
 30
0.0
 11
261.5657093723264
 21
125.4738264585676
 31
0.0
  0
ARC
  5
50B
330
1F
100
AcDbEntity
  8
0
  6
Continuous
 62
     7
370
    18
100
AcDbCircle
 10
260.8137613408725
 20
125.4080409659389
 30
0.0
 40
0.7548202256483351
100
AcDbArc
 50
4.999891436898869
 51
88.25359755308145
  0
LINE
  5
50C
330
1F
100
AcDbEntity
  8
0
  6
Continuous
 62
     7
370
    18
100
AcDbLine
 10
260.8367650558468
 20
126.1625105823882
 30
0.0
 11
249.397802667485
 21
126.5112594032899
 31
0.0
  0
LINE
  5
50D
330
1F
100
AcDbEntity
  8
0
  6
Continuous
 62
     7
370
    25
100
AcDbLine
 10
249.3978026674851
 20
125.0009147730805
 30
0.0
 11
249.397802667485
 21
126.5112594032899
 31
0.0
  0
LINE
  5
50E
330
1F
100
AcDbEntity
  8
0
  6
Continuous
 62
     7
370
    18
100
AcDbLine
 10
260.1202764814078
 20
124.6740099972274
 30
0.0
 11
249.3978026674851
 21
125.0009147730805
 31
0.0
  0
LINE
  5
50F
330
1F
100
AcDbEntity
  8
0
  6
Continuous
 62
     7
370
    18
100
AcDbLine
 10
260.4664936798253
 20
120.7167347767027
 30
0.0
 11
260.1202764814078
 21
124.6740099972274
 31
0.0
  0
ARC
  5
510
330
1F
100
AcDbEntity
  8
0
  6
Continuous
 62
     7
370
    18
100
AcDbCircle
 10
264.9781919351606
 20
121.1114590453373
 30
0.0
 40
4.528932368168607
100
AcDbArc
 50
185.0000229126398
 51
259.2222267220114
  0
ARC
  5
511
330
1F
100
AcDbEntity
  8
0
  6
Continuous
 62
     7
370
    18
100
AcDbCircle
 10
263.9901203618152
 20
115.9209001399659
 30
0.0
 40
0.7548340142904707
100
AcDbArc
 50
6.000734390337044
 51
79.22176469645211
  0
LINE
  5
512
330
1F
100
AcDbEntity
  8
0
  6
Continuous
 62
     7
370
    18
100
AcDbLine
 10
264.7408183050101
 20
115.9998114016014
 30
0.0
 11
264.905378637568
 21
114.4341129365452
 31
0.0
  0
LINE
  5
513
330
1F
100
AcDbEntity
  8
0
  6
Continuous
 62
     7
370
    18
100
AcDbLine
 10
267.9582151195877
 20
114.4341129365452
 30
0.0
 11
264.905378637568
 21
114.4341129365452
 31
0.0
  0
LINE
  5
514
330
1F
100
AcDbEntity
  8
0
  6
Continuous
 62
     7
370
    18
100
AcDbLine
 10
266.8598884267404
 20
118.0227920934088
 30
0.0
 11
268.6655529971666
 21
117.964644263098
 31
0.0
  0
LINE
  5
515
330
1F
100
AcDbEntity
  8
0
  6
Continuous
 62
     7
370
    18
100
AcDbLine
 10
276.0757706060012
 20
117.3253507695448
 30
0.0
 11
276.0757706060012
 21
117.3203167509326
 31
0.0
  0
SPLINE
  5
516
330
1F
100
AcDbEntity
  8
0
  6
Continuous
 62
     7
370
    18
100
AcDbSpline
210
0.0
220
0.0
230
1.0
 70
     8
 71
     3
 72
    13
 73
     9
 74
     0
 42
0.000000001
 43
0.0000000001
 40
0.0
 40
0.0
 40
0.0
 40
0.0
 40
0.035729546706465
 40
0.140876312900323
 40
0.3134282433982254
 40
0.5475855295821961
 40
0.8375222106452278
 40
1.0
 40
1.0
 40
1.0
 40
1.0
 10
276.0757706060012
 20
117.3264237311119
 30
0.0
 10
276.0973450443624
 20
117.3270880828657
 30
0.0
 10
276.1824098607227
 20
117.3297075234738
 30
0.0
 10
276.371781030437
 20
117.328217462742
 30
0.0
 10
276.6809669802027
 20
117.3283470618283
 30
0.0
 10
277.1018041461946
 20
117.3259398483397
 30
0.0
 10
277.5165428357552
 20
117.3235644360873
 30
0.0
 10
277.7898310310483
 20
117.3212992097767
 30
0.0
 10
277.8879783378462
 20
117.3204856881336
 30
0.0
  0
ARC
  5
517
330
1F
100
AcDbEntity
  8
0
  6
Continuous
 62
     7
370
    18
100
AcDbCircle
 10
-235.5114015502206
 20
128.6650566775833
 30
0.0
 40
504.2721116608423
100
AcDbArc
 50
358.7841870113993
 51
359.0998223102902
  0
LINE
  5
518
330
1F
100
AcDbEntity
  8
0
  6
Continuous
 62
     7
370
    18
100
AcDbLine
 10
268.979809620394
 20
120.7427309169886
 30
0.0
 11
265.1931223364775
 21
120.8700145808493
 31
0.0
  0
ARC
  5
519
330
1F
100
AcDbEntity
  8
0
  6
Continuous
 62
     7
370
    18
100
AcDbCircle
 10
37.94341141058203
 20
127.8297271280597
 30
0.0
 40
227.1420970573433
100
AcDbArc
 50
357.5434135124818
 51
358.2386848800865
  0
LWPOLYLINE
  5
51A
330
1F
100
AcDbEntity
  8
0
  6
Continuous
 62
     7
370
    18
100
AcDbPolyline
 90
       14
 70
   128
 43
0.0
 10
264.9781930067101
 20
120.848308847656
 10
264.6173732574703
 20
120.8188815315967
 10
264.2617681988686
 20
120.793679499885
 10
263.9165074994135
 20
120.7730667258384
 10
263.5865862092404
 20
120.7573408976179
 10
263.2767584824504
 20
120.7467291283738
 10
262.9915021512218
 20
120.7413846350699
 10
262.7349337036808
 20
120.7413846350699
 10
262.5107657728361
 20
120.7467291283738
 10
262.3222291996265
 20
120.7573408976179
 10
262.1720517773886
 20
120.7730667258384
 10
262.0623944852592
 20
120.793679499885
 10
261.9948514881751
 20
120.8188815315966
 10
261.9703934554536
 20
120.848308847656
  0
LINE
  5
51B
330
1F
100
AcDbEntity
  8
0
  6
Continuous
 62
     7
370
    18
100
AcDbLine
 10
264.9781930067101
 20
120.848308847656
 30
0.0
 11
264.573508923583
 21
125.4738264585676
 31
0.0
  0
ARC
  5
51C
330
1F
100
AcDbEntity
  8
0
  6
Continuous
 62
     7
370
    18
100
AcDbCircle
 10
263.6281283550665
 20
87.92751446534573
 30
0.0
 40
37.55821200099499
100
AcDbArc
 50
88.55765130540941
 51
91.80384115749903
  0
ARC
  5
51D
330
1F
100
AcDbEntity
  8
0
  6
Continuous
 62
     7
370
    18
100
AcDbCircle
 10
261.9586792602806
 20
119.2919492268434
 30
0.0
 40
6.194354804251005
100
AcDbArc
 50
85.48889399693619
 51
93.63728700903385
  0
LINE
  5
51E
330
1F
100
AcDbEntity
  8
0
  6
Continuous
 62
     7
370
    18
100
AcDbLine
 10
268.9155752110792
 20
120.7427309169887
 30
0.0
 11
268.6984747447883
 21
120.7427309169887
 31
0.0
  0
SPLINE
  5
51F
330
1F
100
AcDbEntity
  8
0
  6
Continuous
 62
     7
370
    18
100
AcDbSpline
210
0.0
220
0.0
230
1.0
 70
     8
 71
     3
 72
    13
 73
     9
 74
     0
 42
0.000000001
 43
0.0000000001
 40
0.0
 40
0.0
 40
0.0
 40
0.0
 40
0.0088785816861527
 40
0.0633213540971046
 40
0.3324098474236612
 40
0.5796082396536329
 40
0.7998243696393538
 40
1.0
 40
1.0
 40
1.0
 40
1.0
 10
262.4458797173136
 20
125.4671145813595
 30
0.0
 10
262.4456377530669
 20
125.469799839479
 30
0.0
 10
262.4439120828779
 20
125.4889508915539
 30
0.0
 10
262.4319250373523
 20
125.5891502942575
 30
0.0
 10
262.3871070930448
 20
125.7591885735759
 30
0.0
 10
262.2730799811587
 20
125.9532882858447
 30
0.0
 10
262.1163024214613
 20
126.0952962412888
 30
0.0
 10
261.9885216072288
 20
126.1182982486812
 30
0.0
 10
261.9276769203208
 20
126.1292509879203
 30
0.0
  0
LWPOLYLINE
  5
520
330
1F
100
AcDbEntity
  8
0
  6
Continuous
 62
     7
370
    18
100
AcDbPolyline
 90
        8
 70
   128
 43
0.0
 10
261.9276769203208
 20
126.1292509879203
 10
261.649123167005
 20
126.1377434587984
 10
261.4073556552563
 20
126.1451147003373
 10
261.2053501596239
 20
126.1512730480535
 10
261.0455935774093
 20
126.1561436647594
 10
260.9300555879569
 20
126.1596663264466
 10
260.8601603119437
 20
126.1617971935788
 10
260.8367650558468
 20
126.1625105823882
  0
LINE
  5
521
330
1F
100
AcDbEntity
  8
0
  6
Continuous
 62
     7
370
    18
100
AcDbLine
 10
264.573508923583
 20
125.4738264585676
 30
0.0
 11
264.573508923583
 21
126.1625105823883
 31
0.0
  0
ARC
  5
522
330
1F
100
AcDbEntity
  8
0
  6
Continuous
 62
     7
370
    18
100
AcDbCircle
 10
264.3793238559683
 20
36.35427399999505
 30
0.0
 40
89.80844651746062
100
AcDbArc
 50
89.87611417500792
 51
91.56429022179283
  0
LINE
  5
523
330
1F
100
AcDbEntity
  8
0
  6
Continuous
 62
     7
370
    18
100
AcDbLine
 10
264.573508923583
 20
125.4738264585676
 30
0.0
 11
267.5045972580737
 21
125.4738264585677
 31
0.0
  0
LINE
  5
524
330
1F
100
AcDbEntity
  8
0
  6
Continuous
 62
     7
370
    18
100
AcDbLine
 10
249.397802667485
 20
126.5112594032899
 30
0.0
 11
266.8640299031096
 21
126.5112594032901
 31
0.0
  0
LINE
  5
525
330
1F
100
AcDbEntity
  8
0
  6
Continuous
 62
     7
370
    18
100
AcDbLine
 10
267.0952865540406
 20
126.1625105823883
 30
0.0
 11
264.573508923583
 21
126.1625105823883
 31
0.0
  0
INSERT
  5
526
330
1F
100
AcDbEntity
  8
0
  6
Continuous
 62
     7
370
    18
100
AcDbBlockReference
  2
SW_HATCH_0
 10
268.6564770749142
 20
117.9737201540606
 30
0.0
 41
-6.038573306349852
 42
6.038573306349852
 43
6.038573306349852
  0
POINT
  5
527
330
1F
100
AcDbEntity
  8
0
  6
Continuous
 62
     7
370
    18
100
AcDbPoint
 10
261.4749481465564
 20
126.5112594762674
 30
0.0
 50
180.0000000000006
  0
DIMENSION
  5
528
330
1F
100
AcDbEntity
  8
0
  6
Continuous
 62
     7
370
    18
100
AcDbDimension
280
     0
  2
*D17
 10
249.3978015338566
 20
130.3150851810548
 30
0.0
 11
255.2227627825912
 21
130.3150851810548
 31
0.0
 70
   160
  1
4
 71
     2
 42
12.07714661269978
 73
     0
 74
     0
 75
     0
  3
3_4 Scale
100
AcDbAlignedDimension
 13
261.4749481465564
 23
126.5112594762674
 33
0.0
 14
249.3978015338566
 24
126.5112594762674
 34
0.0
 50
180.0
100
AcDbRotatedDimension
  0
DIMENSION
  5
529
330
1F
100
AcDbEntity
  8
0
  6
Continuous
 62
     7
370
    18
100
AcDbDimension
280
     0
  2
*D18
 10
246.286615147997
 20
114.434112863568
 30
0.0
 11
246.2866151479969
 21
119.9173808240169
 31
0.0
 70
   160
  1
4 {\H0.7x;\S1#2;} 
 71
     2
 42
12.07714661269951
 73
     0
 74
     0
 75
     0
  3
3_4 Scale
100
AcDbAlignedDimension
 13
249.3978015338566
 23
126.5112594762674
 33
0.0
 14
264.905378637568
 24
114.4341128635679
 34
0.0
 50
90.0
100
AcDbRotatedDimension
  0
DIMENSION
  5
52A
330
1F
100
AcDbEntity
  8
0
  6
Continuous
 62
     7
370
    18
100
AcDbDimension
280
     0
  2
*D19
 10
247.6922734967127
 20
126.5112594762675
 30
0.0
 11
247.6922734967127
 21
125.7560870887292
 31
0.0
 70
   160
  1
<>
 71
     2
 42
3.020689550152155
 73
     0
 74
     0
 75
     0
  3
SLDDIMSTYLE7
100
AcDbAlignedDimension
 13
249.3978015338566
 23
125.0009147011914
 33
0.0
 14
249.3978015338566
 24
126.5112594762674
 34
0.0
 50
90.0
100
AcDbRotatedDimension
  0
LINE
  5
52B
330
1F
100
AcDbEntity
  8
0
  6
Continuous
100
AcDbLine
 10
265.1931223364775
 20
120.8700145808493
 30
0.0
 11
264.9790798666747
 21
120.8772092889769
 31
0.0
  0
MTEXT
  5
52C
330
1F
100
AcDbEntity
  8
0
  6
Continuous
 62
     0
370
     0
100
AcDbMText
 10
261.9049732671189
 20
79.75916963675546
 30
0.0
 40
1.101673228346456
 41
0.0
 46
0.0
 71
     2
 72
     1
  1
SECTION A-A
  7
SLDTEXTSTYLE0
 73
     1
 44
1.0
  0
MTEXT
  5
52D
330
1F
100
AcDbEntity
  8
0
  6
Continuous
 62
     0
370
     0
100
AcDbMText
 10
286.0130443308628
 20
111.7486154402882
 30
0.0
 40
1.101673228346456
 41
0.0
 46
0.0
 71
     2
 72
     1
  1
DETAIL C
  7
SLDTEXTSTYLE0
 73
     1
 44
1.0
  0
MTEXT
  5
52E
330
1F
100
AcDbEntity
  8
0
  6
Continuous
 62
     0
370
     0
100
AcDbMText
 10
260.4074490293956
 20
112.4988615730264
 30
0.0
 40
1.101673228346456
 41
0.0
 46
0.0
 71
     2
 72
     1
  1
DETAIL D
  7
SLDTEXTSTYLE0
 73
     1
 44
1.0
  0
MTEXT
  5
52F
330
1F
100
AcDbEntity
  8
0
  6
Continuous
 62
     7
370
    18
100
AcDbMText
 10
235.096360103295
 20
83.98190693779621
 30
0.0
 40
1.99875
 41
0.0
 46
0.0
 71
     1
 72
     1
  1
D
  7
SLDTEXTSTYLE0
 73
     1
 44
1.0
  0
CIRCLE
  5
530
330
1F
100
AcDbEntity
  8
0
 62
     9
420
 13093066
100
AcDbCircle
 10
241.9106094240447
 20
83.1563410495387
 30
0.0
 40
5.0
  0
MTEXT
  5
531
330
1F
100
AcDbEntity
  8
0
  6
Continuous
 62
     7
370
    18
100
AcDbMText
 10
290.4458679383519
 20
83.63064852367568
 30
0.0
 40
1.99875
 41
0.0
 46
0.0
 71
     1
 72
     1
  1
C
  7
SLDTEXTSTYLE0
 73
     1
 44
1.0
  0
CIRCLE
  5
532
330
1F
100
AcDbEntity
  8
0
 62
     9
420
 13093066
100
AcDbCircle
 10
284.444829441334
 20
83.22041594623938
 30
0.0
 40
5.0
  0
MTEXT
  5
533
330
1F
100
AcDbEntity
  8
0
  6
Continuous
 62
     0
370
     0
100
AcDbMText
 10
263.3916704367749
 20
69.021159686989
 30
0.0
 40
1.101673228346456
 41
0.0
 46
0.0
 71
     2
 72
     1
  1
SECTION B-B
  7
SLDTEXTSTYLE0
 73
     1
 44
1.0
  0
DIMENSION
  5
534
330
1F
100
AcDbEntity
  8
0
  6
Continuous
 62
     7
370
    18
100
AcDbDimension
280
     0
  2
*D20
 10
240.6162445094228
 20
97.00228003849472
 30
0.0
 11
240.6162445094228
 21
108.112874060535
 31
0.0
 70
   160
  1
18
 71
     5
 42
17.875
 73
     0
 74
     0
 75
     0
  3
3_4 Scale
100
AcDbAlignedDimension
 13
231.9547689283504
 23
114.8772800384946
 33
0.0
 14
207.0797689283504
 24
97.00228003849465
 34
0.0
 50
90.0
100
AcDbRotatedDimension
  0
CIRCLE
  5
535
330
1F
100
AcDbEntity
  8
0
 62
     0
100
AcDbCircle
 10
207.0797689283504
 20
97.00228003849465
 30
0.0
 40
2.187503999999705
  0
CIRCLE
  5
536
330
1F
100
AcDbEntity
  8
0
 62
     0
100
AcDbCircle
 10
207.0797689283504
 20
97.00228003849465
 30
0.0
 40
1.624991999999735
  0
VIEWPORT
  5
61F
102
{ACAD_XDICTIONARY
360
620
102
}
330
58
100
AcDbEntity
 67
     1
  8
0
100
AcDbViewport
 10
6.209666669165905
 20
3.999999883606678
 30
0.0
 40
22.15459885499058
 41
8.99345102034271
 68
     1
 69
     1
 12
6.209666669165905
 22
3.999999883606678
 13
0.0
 23
0.0
 14
0.5
 24
0.5
 15
0.5
 25
0.5
 16
0.0
 26
0.0
 36
1.0
 17
0.0
 27
0.0
 37
0.0
 42
50.0
 43
0.0
 44
0.0
 45
8.99345102034271
 50
0.0
 51
0.0
 72
  1000
 90
   557088
  1

281
     0
 71
     1
 74
     0
110
0.0
120
0.0
130
0.0
111
1.0
121
0.0
131
0.0
112
0.0
122
1.0
132
0.0
 79
     0
146
0.0
170
     0
 61
     5
348
9F
292
     1
282
     1
141
0.0
142
0.0
 63
   250
421
  3355443
  0
VIEWPORT
  5
623
102
{ACAD_XDICTIONARY
360
624
102
}
330
58
100
AcDbEntity
 67
     1
  8
0
100
AcDbViewport
 10
5.249999761581421
 20
3.999999761581421
 30
0.0
 40
8.399999618530275
 41
6.399999618530274
 68
     2
 69
     2
 12
237.0810778545382
 22
95.41781582890658
 13
0.0
 23
0.0
 14
0.5
 24
0.5
 15
0.5
 25
0.5
 16
0.0
 26
0.0
 36
1.0
 17
0.0
 27
0.0
 37
0.0
 42
50.0
 43
0.0
 44
0.0
 45
99.31940184691155
 50
0.0
 51
0.0
 72
  1000
 90
   819808
  1

281
     0
 71
     1
 74
     0
110
0.0
120
0.0
130
0.0
111
1.0
121
0.0
131
0.0
112
0.0
122
1.0
132
0.0
 79
     0
146
0.0
170
     0
 61
     5
348
9F
292
     1
282
     1
141
0.0
142
0.0
 63
   250
421
  3355443
  0
ENDSEC
  0
SECTION
  2
OBJECTS
  0
DICTIONARY
  5
C
330
0
100
AcDbDictionary
281
     1
  3
ACAD_CIP_PREVIOUS_PRODUCT_INFO
350
1A5
  3
ACAD_COLOR
350
73
  3
ACAD_DETAILVIEWSTYLE
350
1AB
  3
ACAD_GROUP
350
D
  3
ACAD_LAYOUT
350
1A
  3
ACAD_MATERIAL
350
72
  3
ACAD_MLEADERSTYLE
350
D7
  3
ACAD_MLINESTYLE
350
17
  3
ACAD_PLOTSETTINGS
350
19
  3
ACAD_PLOTSTYLENAME
350
E
  3
ACAD_SCALELIST
350
B6
  3
ACAD_SECTIONVIEWSTYLE
350
1A8
  3
ACAD_TABLESTYLE
350
86
  3
ACAD_VISUALSTYLE
350
99
  3
ACDB_RECOMPOSE_DATA
350
679
  3
AcDbVariableDictionary
350
66
  3
AcDsDecomposeData
350
67F
  0
DICTIONARY
  5
18E
330
2
100
AcDbDictionary
280
     1
281
     1
  3
ACAD_LAYERSTATES
360
18F
  0
DICTIONARY
  5
E6
330
10
100
AcDbDictionary
280
     1
281
     1
  0
DICTIONARY
  5
29C
330
29B
100
AcDbDictionary
280
     1
281
     1
  0
DICTIONARY
  5
15D
330
1F
100
AcDbDictionary
280
     1
281
     1
  0
DICTIONARY
  5
64A
330
649
100
AcDbDictionary
280
     1
281
     1
  3
ASDK_XREC_ANNOTATION_SCALE_INFO
360
64B
  0
DICTIONARY
  5
64E
330
64D
100
AcDbDictionary
280
     1
281
     1
  3
ASDK_XREC_ANNOTATION_SCALE_INFO
360
64F
  0
DICTIONARY
  5
620
330
61F
100
AcDbDictionary
280
     1
281
     1
  3
ASDK_XREC_ANNOTATION_SCALE_INFO
360
621
  0
DICTIONARY
  5
624
330
623
100
AcDbDictionary
280
     1
281
     1
  3
ASDK_XREC_ANNOTATION_SCALE_INFO
360
625
  0
XRECORD
  5
1A5
102
{ACAD_REACTORS
330
C
102
}
330
C
100
AcDbXrecord
280
     1
300
ACDLT
300
2018
300
ACDLT_F_S
  0
DICTIONARY
  5
73
102
{ACAD_REACTORS
330
C
102
}
330
C
100
AcDbDictionary
281
     1
  0
DICTIONARY
  5
1AB
102
{ACAD_REACTORS
330
C
102
}
330
C
100
AcDbDictionary
281
     1
  3
Imperial24
350
1AC
  0
DICTIONARY
  5
D
102
{ACAD_REACTORS
330
C
102
}
330
C
100
AcDbDictionary
281
     1
  0
DICTIONARY
  5
1A
102
{ACAD_REACTORS
330
C
102
}
330
C
100
AcDbDictionary
281
     1
  3
Layout1
350
59
  3
Layout2
350
5E
  3
Model
350
22
  0
DICTIONARY
  5
72
102
{ACAD_REACTORS
330
C
102
}
330
C
100
AcDbDictionary
281
     1
  3
ByBlock
350
97
  3
ByLayer
350
96
  3
Global
350
98
  0
DICTIONARY
  5
D7
102
{ACAD_REACTORS
330
C
102
}
330
C
100
AcDbDictionary
281
     1
  3
Annotative
350
E5
  3
Standard
350
D8
  0
DICTIONARY
  5
17
102
{ACAD_REACTORS
330
C
102
}
330
C
100
AcDbDictionary
281
     1
  3
Standard
350
18
  0
DICTIONARY
  5
19
102
{ACAD_REACTORS
330
C
102
}
330
C
100
AcDbDictionary
281
     1
  0
ACDBDICTIONARYWDFLT
  5
E
102
{ACAD_REACTORS
330
C
102
}
330
C
100
AcDbDictionary
281
     1
  3
Normal
350
F
100
AcDbDictionaryWithDefault
340
F
  0
DICTIONARY
  5
B6
102
{ACAD_REACTORS
330
C
102
}
330
C
100
AcDbDictionary
281
     1
  3
A0
350
B7
  3
A1
350
124
  3
A2
350
125
  3
A3
350
126
  3
A4
350
127
  3
A5
350
128
  3
A6
350
129
  3
A7
350
12A
  3
A8
350
12B
  3
A9
350
12C
  3
B0
350
12D
  3
B1
350
12E
  3
B2
350
12F
  3
B3
350
130
  3
B4
350
131
  3
B5
350
132
  3
B6
350
133
  3
B7
350
134
  3
B8
350
135
  3
B9
350
136
  3
C0
350
137
  3
C1
350
138
  3
C2
350
139
  3
C3
350
13A
  3
C4
350
13B
  3
C5
350
13C
  3
C6
350
13D
  3
C7
350
13E
  3
C8
350
13F
  3
C9
350
140
  3
D0
350
141
  3
D1
350
142
  3
D2
350
143
  0
DICTIONARY
  5
1A8
102
{ACAD_REACTORS
330
C
102
}
330
C
100
AcDbDictionary
281
     1
  3
Imperial24
350
1AA
  0
DICTIONARY
  5
86
102
{ACAD_REACTORS
330
C
102
}
330
C
100
AcDbDictionary
281
     1
  3
Standard
350
87
  0
DICTIONARY
  5
99
102
{ACAD_REACTORS
330
C
102
}
330
C
100
AcDbDictionary
281
     1
  3
2dWireframe
350
9F
  3
Basic
350
9E
  3
Brighten
350
A5
  3
ColorChange
350
A9
  3
Conceptual
350
A2
  3
Dim
350
A4
  3
EdgeColorOff
350
175
  3
Facepattern
350
A8
  3
Flat
350
9A
  3
FlatWithEdges
350
9B
  3
Gouraud
350
9C
  3
GouraudWithEdges
350
9D
  3
Hidden
350
A1
  3
JitterOff
350
173
  3
Linepattern
350
A7
  3
OverhangOff
350
174
  3
Realistic
350
A3
  3
Shaded
350
182
  3
Shaded with edges
350
181
  3
Shades of Gray
350
17E
  3
Sketchy
350
17F
  3
Thicken
350
A6
  3
Wireframe
350
A0
  3
X-Ray
350
180
  0
XRECORD
  5
679
102
{ACAD_REACTORS
330
C
102
}
330
C
100
AcDbXrecord
280
     1
 90
        1
330
87
  0
DICTIONARY
  5
66
102
{ACAD_REACTORS
330
C
102
}
330
C
100
AcDbDictionary
281
     1
  3
CANNOSCALE
350
F0
  3
CMLEADERSTYLE
350
EF
  3
CTABLESTYLE
350
89
  3
CVIEWDETAILSTYLE
350
1B7
  3
CVIEWSECTIONSTYLE
350
1B8
  3
DIMASSOC
350
67
  3
HIDETEXT
350
6B
  3
LAYEREVAL
350
14D
  3
LAYERNOTIFY
350
14E
  0
DICTIONARY
  5
67F
102
{ACAD_REACTORS
330
C
102
}
330
C
100
AcDbDictionary
281
     1
  3
AcDsRecords
350
681
  3
AcDsSchemas
350
680
1001
ACAD
1070
     2
  0
DICTIONARY
  5
18F
102
{ACAD_REACTORS
330
18E
102
}
330
18E
100
AcDbDictionary
281
     1
  0
XRECORD
  5
64B
102
{ACAD_REACTORS
330
64A
102
}
330
64A
100
AcDbXrecord
280
     1
 90
        1
340
B7
  0
XRECORD
  5
64F
102
{ACAD_REACTORS
330
64E
102
}
330
64E
100
AcDbXrecord
280
     1
 90
        1
340
B7
  0
XRECORD
  5
621
102
{ACAD_REACTORS
330
620
102
}
330
620
100
AcDbXrecord
280
     1
 90
        1
340
B7
  0
XRECORD
  5
625
102
{ACAD_REACTORS
330
624
102
}
330
624
100
AcDbXrecord
280
     1
 90
        1
340
B7
  0
ACDBDETAILVIEWSTYLE
  5
1AC
102
{ACAD_XDICTIONARY
360
684
102
}
102
{ACAD_REACTORS
330
1AB
102
}
330
1AB
100
AcDbModelDocViewStyle
 70
     0
  3
Imperial24
290
     0
100
AcDbDetailViewStyle
 70
     0
 71
     0
 90
        3
 71
     1
340
11
 62
   256
 40
0.24
340
0
 62
   256
 40
0.24
300

 40
0.36
280
     3
 71
     2
340
16
 90
       25
 62
   256
 71
     3
340
11
 62
   256
 40
0.24
 90
        1
 40
0.75
 90
        1
300
%<\AcVar ViewType \f "%tc1">% %<\AcVar ViewDetailId>%\PSCALE %<\AcVar ViewScale \f "%sn">%
 71
     4
340
16
 90
       25
 62
   256
340
16
 90
       25
 62
   256
280
     0
  0
LAYOUT
  5
59
102
{ACAD_REACTORS
330
1A
102
}
330
1A
100
AcDbPlotSettings
  1

  2
None
  4
Letter_(8.50_x_11.00_Inches)
  6

 40
6.349999904632568
 41
6.349999904632568
 42
6.350006103515625
 43
6.350006103515625
 44
215.8999938964844
 45
279.3999938964844
 46
0.0
 47
0.0
 48
0.0
 49
0.0
140
0.0
141
0.0
142
1.0
143
1.0
 70
   688
 72
     0
 73
     1
 74
     5
  7

 75
    16
147
1.0
 76
     0
 77
     2
 78
   300
148
0.0
149
0.0
100
AcDbLayout
  1
Layout1
 70
     1
 71
     1
 10
-0.2500002402958907
 20
-0.2499999962453767
 11
10.74999951940822
 21
8.249999763458733
 12
0.0
 22
0.0
 32
0.0
 14
1.049999952316284
 24
0.7999999523162842
 34
0.0
 15
9.449999570846559
 25
7.199999570846558
 35
0.0
146
0.0
 13
0.0
 23
0.0
 33
0.0
 16
1.0
 26
0.0
 36
0.0
 17
0.0
 27
1.0
 37
0.0
 76
     0
330
58
331
61F
1001
ACAD_PSEXT
1000
None
1000
None
1000
Not applicable
1000
The layout will not be plotted unless a new plotter configuration name is selected.
1070
     0
  0
LAYOUT
  5
5E
102
{ACAD_REACTORS
330
1A
102
}
330
1A
100
AcDbPlotSettings
  1

  2
None
  4
Letter_(8.50_x_11.00_Inches)
  6

 40
6.349999904632568
 41
6.349999904632568
 42
6.350006103515625
 43
6.350006103515625
 44
215.8999938964844
 45
279.3999938964844
 46
0.0
 47
0.0
 48
0.0
 49
0.0
140
0.0
141
0.0
142
1.0
143
1.0
 70
   688
 72
     0
 73
     1
 74
     5
  7

 75
    16
147
1.0
 76
     0
 77
     2
 78
   300
148
0.0
149
0.0
100
AcDbLayout
  1
Layout2
 70
     1
 71
     2
 10
-0.2500002402958907
 20
-0.2499999962453767
 11
10.74999951940822
 21
8.249999763458733
 12
0.0
 22
0.0
 32
0.0
 14
1.049999952316284
 24
0.7999999523162842
 34
0.0
 15
9.449999570846559
 25
7.199999570846558
 35
0.0
146
0.0
 13
0.0
 23
0.0
 33
0.0
 16
1.0
 26
0.0
 36
0.0
 17
0.0
 27
1.0
 37
0.0
 76
     0
330
5D
331
649
1001
ACAD_PSEXT
1000
None
1000
None
1000
Not applicable
1000
The layout will not be plotted unless a new plotter configuration name is selected.
1070
     0
  0
LAYOUT
  5
22
102
{ACAD_XDICTIONARY
360
194
102
}
102
{ACAD_REACTORS
330
1A
102
}
330
1A
100
AcDbPlotSettings
  1

  2
none_device
  4
ANSI_A_(8.50_x_11.00_Inches)
  6

 40
6.349999904632568
 41
19.04999923706055
 42
6.350006103515625
 43
19.04998779296875
 44
215.8999938964844
 45
279.3999938964844
 46
0.0
 47
0.0
 48
0.0
 49
0.0
140
0.0
141
0.0
142
1.0
143
2.584895464708373
 70
 11952
 72
     0
 73
     1
 74
     0
  7

 75
     0
147
0.3868628397755418
 76
     0
 77
     2
 78
   300
148
0.0
149
0.0
100
AcDbLayout
  1
Model
 70
     1
 71
     0
 10
0.0
 20
0.0
 11
12.0
 21
9.0
 12
0.0
 22
0.0
 32
0.0
 14
0.0
 24
0.0
 34
0.0
 15
0.0
 25
0.0
 35
0.0
146
0.0
 13
0.0
 23
0.0
 33
0.0
 16
1.0
 26
0.0
 36
0.0
 17
0.0
 27
1.0
 37
0.0
 76
     0
330
1F
331
94
  0
MATERIAL
  5
97
102
{ACAD_XDICTIONARY
360
188
102
}
102
{ACAD_REACTORS
330
72
102
}
330
72
100
AcDbMaterial
  1
ByBlock
 94
       63
  0
MATERIAL
  5
96
102
{ACAD_XDICTIONARY
360
186
102
}
102
{ACAD_REACTORS
330
72
102
}
330
72
100
AcDbMaterial
  1
ByLayer
 94
       63
  0
MATERIAL
  5
98
102
{ACAD_XDICTIONARY
360
110
102
}
102
{ACAD_REACTORS
330
72
102
}
330
72
100
AcDbMaterial
  1
Global
 43
0.0208000000566244
 43
0.0
 43
0.0
 43
0.0
 43
0.0
 43
0.0208000000566244
 43
0.0
 43
0.0
 43
0.0
 43
0.0
 43
1.0
 43
0.0
 43
0.0
 43
0.0
 43
0.0
 43
1.0
 49
0.0208000000566244
 49
0.0
 49
0.0
 49
0.0
 49
0.0
 49
0.0208000000566244
 49
0.0
 49
0.0
 49
0.0
 49
0.0
 49
1.0
 49
0.0
 49
0.0
 49
0.0
 49
0.0
 49
1.0
142
0.0208000000566244
142
0.0
142
0.0
142
0.0
142
0.0
142
0.0208000000566244
142
0.0
142
0.0
142
0.0
142
0.0
142
1.0
142
0.0
142
0.0
142
0.0
142
0.0
142
1.0
144
0.0208000000566244
144
0.0
144
0.0
144
0.0
144
0.0
144
0.0208000000566244
144
0.0
144
0.0
144
0.0
144
0.0
144
1.0
144
0.0
144
0.0
144
0.0
144
0.0
144
1.0
 94
       63
1001
ACAD
1070
    -1
1070
     3
1070
     0
1000

1071
        0
1070
     0
  0
MLEADERSTYLE
  5
E5
102
{ACAD_REACTORS
330
D7
102
}
330
D7
100
AcDbMLeaderStyle
179
     2
170
     2
171
     1
172
     0
 90
        2
 40
0.0
 41
0.0
173
     1
 91
-1056964608
340
14
 92
       -2
290
     1
 42
0.09
291
     1
 43
0.36
  3
Standard
 44
0.18
300

342
11
174
     1
178
     1
175
     1
176
     0
 93
-1056964608
 45
0.18
292
     0
297
     0
 46
0.18
 94
-1056964608
 47
1.0
 49
1.0
140
1.0
293
     1
141
0.0
294
     1
177
     0
142
1.0
295
     0
296
     1
143
0.125
271
     0
272
     9
273
     9
298
     0
  0
MLEADERSTYLE
  5
D8
102
{ACAD_REACTORS
330
D7
102
}
330
D7
100
AcDbMLeaderStyle
179
     2
170
     2
171
     1
172
     0
 90
        2
 40
0.0
 41
0.0
173
     1
 91
-1056964608
340
14
 92
       -2
290
     1
 42
0.09
291
     1
 43
0.36
  3
Standard
 44
0.18
300

342
11
174
     1
178
     1
175
     1
176
     0
 93
-1056964608
 45
0.18
292
     0
297
     0
 46
0.18
 94
-1056964608
 47
1.0
 49
1.0
140
1.0
293
     1
141
0.0
294
     1
177
     0
142
1.0
295
     0
296
     0
143
0.125
271
     0
272
     9
273
     9
298
     0
  0
MLINESTYLE
  5
18
102
{ACAD_REACTORS
330
17
102
}
330
17
100
AcDbMlineStyle
  2
STANDARD
 70
     0
  3

 62
   256
 51
90.0
 52
90.0
 71
     2
 49
0.5
 62
   256
  6
BYLAYER
 49
-0.5
 62
   256
  6
BYLAYER
  0
ACDBPLACEHOLDER
  5
F
102
{ACAD_REACTORS
330
E
102
}
330
E
  0
SCALE
  5
B7
102
{ACAD_REACTORS
330
B6
102
}
330
B6
100
AcDbScale
 70
     0
300
1:1
140
1.0
141
1.0
290
     1
  0
SCALE
  5
124
102
{ACAD_REACTORS
330
B6
102
}
330
B6
100
AcDbScale
 70
     0
300
1:2
140
1.0
141
2.0
290
     0
  0
SCALE
  5
125
102
{ACAD_REACTORS
330
B6
102
}
330
B6
100
AcDbScale
 70
     0
300
1:4
140
1.0
141
4.0
290
     0
  0
SCALE
  5
126
102
{ACAD_REACTORS
330
B6
102
}
330
B6
100
AcDbScale
 70
     0
300
1:5
140
1.0
141
5.0
290
     0
  0
SCALE
  5
127
102
{ACAD_REACTORS
330
B6
102
}
330
B6
100
AcDbScale
 70
     0
300
1:8
140
1.0
141
8.0
290
     0
  0
SCALE
  5
128
102
{ACAD_REACTORS
330
B6
102
}
330
B6
100
AcDbScale
 70
     0
300
1:10
140
1.0
141
10.0
290
     0
  0
SCALE
  5
129
102
{ACAD_REACTORS
330
B6
102
}
330
B6
100
AcDbScale
 70
     0
300
1:16
140
1.0
141
16.0
290
     0
  0
SCALE
  5
12A
102
{ACAD_REACTORS
330
B6
102
}
330
B6
100
AcDbScale
 70
     0
300
1:20
140
1.0
141
20.0
290
     0
  0
SCALE
  5
12B
102
{ACAD_REACTORS
330
B6
102
}
330
B6
100
AcDbScale
 70
     0
300
1:30
140
1.0
141
30.0
290
     0
  0
SCALE
  5
12C
102
{ACAD_REACTORS
330
B6
102
}
330
B6
100
AcDbScale
 70
     0
300
1:40
140
1.0
141
40.0
290
     0
  0
SCALE
  5
12D
102
{ACAD_REACTORS
330
B6
102
}
330
B6
100
AcDbScale
 70
     0
300
1:50
140
1.0
141
50.0
290
     0
  0
SCALE
  5
12E
102
{ACAD_REACTORS
330
B6
102
}
330
B6
100
AcDbScale
 70
     0
300
1:100
140
1.0
141
100.0
290
     0
  0
SCALE
  5
12F
102
{ACAD_REACTORS
330
B6
102
}
330
B6
100
AcDbScale
 70
     0
300
2:1
140
2.0
141
1.0
290
     0
  0
SCALE
  5
130
102
{ACAD_REACTORS
330
B6
102
}
330
B6
100
AcDbScale
 70
     0
300
4:1
140
4.0
141
1.0
290
     0
  0
SCALE
  5
131
102
{ACAD_REACTORS
330
B6
102
}
330
B6
100
AcDbScale
 70
     0
300
8:1
140
8.0
141
1.0
290
     0
  0
SCALE
  5
132
102
{ACAD_REACTORS
330
B6
102
}
330
B6
100
AcDbScale
 70
     0
300
10:1
140
10.0
141
1.0
290
     0
  0
SCALE
  5
133
102
{ACAD_REACTORS
330
B6
102
}
330
B6
100
AcDbScale
 70
     0
300
100:1
140
100.0
141
1.0
290
     0
  0
SCALE
  5
134
102
{ACAD_REACTORS
330
B6
102
}
330
B6
100
AcDbScale
 70
     0
300
1/128" = 1'-0"
140
0.0078125
141
12.0
290
     0
  0
SCALE
  5
135
102
{ACAD_REACTORS
330
B6
102
}
330
B6
100
AcDbScale
 70
     0
300
1/64" = 1'-0"
140
0.015625
141
12.0
290
     0
  0
SCALE
  5
136
102
{ACAD_REACTORS
330
B6
102
}
330
B6
100
AcDbScale
 70
     0
300
1/32" = 1'-0"
140
0.03125
141
12.0
290
     0
  0
SCALE
  5
137
102
{ACAD_REACTORS
330
B6
102
}
330
B6
100
AcDbScale
 70
     0
300
1/16" = 1'-0"
140
0.0625
141
12.0
290
     0
  0
SCALE
  5
138
102
{ACAD_REACTORS
330
B6
102
}
330
B6
100
AcDbScale
 70
     0
300
3/32" = 1'-0"
140
0.09375
141
12.0
290
     0
  0
SCALE
  5
139
102
{ACAD_REACTORS
330
B6
102
}
330
B6
100
AcDbScale
 70
     0
300
1/8" = 1'-0"
140
0.125
141
12.0
290
     0
  0
SCALE
  5
13A
102
{ACAD_REACTORS
330
B6
102
}
330
B6
100
AcDbScale
 70
     0
300
3/16" = 1'-0"
140
0.1875
141
12.0
290
     0
  0
SCALE
  5
13B
102
{ACAD_REACTORS
330
B6
102
}
330
B6
100
AcDbScale
 70
     0
300
1/4" = 1'-0"
140
0.25
141
12.0
290
     0
  0
SCALE
  5
13C
102
{ACAD_REACTORS
330
B6
102
}
330
B6
100
AcDbScale
 70
     0
300
3/8" = 1'-0"
140
0.375
141
12.0
290
     0
  0
SCALE
  5
13D
102
{ACAD_REACTORS
330
B6
102
}
330
B6
100
AcDbScale
 70
     0
300
1/2" = 1'-0"
140
0.5
141
12.0
290
     0
  0
SCALE
  5
13E
102
{ACAD_REACTORS
330
B6
102
}
330
B6
100
AcDbScale
 70
     0
300
3/4" = 1'-0"
140
0.75
141
12.0
290
     0
  0
SCALE
  5
13F
102
{ACAD_REACTORS
330
B6
102
}
330
B6
100
AcDbScale
 70
     0
300
1" = 1'-0"
140
1.0
141
12.0
290
     0
  0
SCALE
  5
140
102
{ACAD_REACTORS
330
B6
102
}
330
B6
100
AcDbScale
 70
     0
300
1-1/2" = 1'-0"
140
1.5
141
12.0
290
     0
  0
SCALE
  5
141
102
{ACAD_REACTORS
330
B6
102
}
330
B6
100
AcDbScale
 70
     0
300
3" = 1'-0"
140
3.0
141
12.0
290
     0
  0
SCALE
  5
142
102
{ACAD_REACTORS
330
B6
102
}
330
B6
100
AcDbScale
 70
     0
300
6" = 1'-0"
140
6.0
141
12.0
290
     0
  0
SCALE
  5
143
102
{ACAD_REACTORS
330
B6
102
}
330
B6
100
AcDbScale
 70
     0
300
1'-0" = 1'-0"
140
12.0
141
12.0
290
     0
  0
ACDBSECTIONVIEWSTYLE
  5
1AA
102
{ACAD_XDICTIONARY
360
682
102
}
102
{ACAD_REACTORS
330
1A8
102
}
330
1A8
100
AcDbModelDocViewStyle
 70
     0
  3
Imperial24
290
     0
100
AcDbSectionViewStyle
 70
     0
 71
     0
 90
       78
 71
     1
340
11
 62
   256
 40
0.24
340
0
340
0
 62
   256
 40
0.24
300
I, O, Q, S, X, Z
 40
0.48
 90
        3
 40
0.18
 90
        1
 71
     2
340
16
 90
       25
 62
   256
340
16
 90
       50
 62
   256
 40
0.24
 40
0.0
 40
0.24
 71
     3
340
11
 62
   256
 40
0.24
 90
        1
 40
0.75
 90
        1
300
%<\AcVar ViewType \f "%tc1">% %<\AcVar ViewSectionStartId>%-%<\AcVar ViewSectionEndId>%\PSCALE %<\AcVar ViewScale \f "%sn">%
 71
     4
 62
   256
 62
   257
300
ANSI31
 40
1.0
 90
        0
290
     0
290
     0
 90
        6
 40
0.0
 40
1.570796326794896
 40
0.2617993877991494
 40
1.308996938995747
 40
-0.2617993877991494
 40
1.832595714594046
  0
TABLESTYLE
  5
87
102
{ACAD_XDICTIONARY
360
104
102
}
102
{ACAD_REACTORS
330
86
102
}
330
86
100
AcDbTableStyle
280
     0
  3
Standard
 70
     0
 71
     0
 40
0.06
 41
0.06
280
     0
281
     0
  7
Standard
140
0.18
170
     2
 62
     0
 63
     7
283
     0
 90
      512
 91
        0
  1

274
    -2
284
     1
 64
     0
275
    -2
285
     1
 65
     0
276
    -2
286
     1
 66
     0
277
    -2
287
     1
 67
     0
278
    -2
288
     1
 68
     0
279
    -2
289
     1
 69
     0
  7
Standard
140
0.25
170
     5
 62
     0
 63
     7
283
     0
 90
      512
 91
        0
  1

274
    -2
284
     1
 64
     0
275
    -2
285
     1
 65
     0
276
    -2
286
     1
 66
     0
277
    -2
287
     1
 67
     0
278
    -2
288
     1
 68
     0
279
    -2
289
     1
 69
     0
  7
Standard
140
0.18
170
     5
 62
     0
 63
     7
283
     0
 90
      512
 91
        0
  1

274
    -2
284
     1
 64
     0
275
    -2
285
     1
 65
     0
276
    -2
286
     1
 66
     0
277
    -2
287
     1
 67
     0
278
    -2
288
     1
 68
     0
279
    -2
289
     1
 69
     0
  0
VISUALSTYLE
  5
9F
102
{ACAD_REACTORS
330
99
102
}
330
99
100
AcDbVisualStyle
  2
2dWireframe
 70
     4
177
     3
291
     0
 70
    58
 90
        0
176
     1
 90
        2
176
     1
 90
        1
176
     1
 90
        0
176
     1
 40
0.6
176
     1
 40
30.0
176
     1
 62
     7
420
 16777215
176
     1
 90
        1
176
     1
 90
        4
176
     1
 62
     7
176
     1
 62
   257
176
     1
 90
        1
176
     1
 90
        1
176
     1
 40
1.0
176
     1
 90
        0
176
     1
 62
   257
176
     1
 40
1.0
176
     1
 90
        1
176
     1
 90
        6
176
     1
 90
        2
176
     1
 62
     7
176
     1
 90
        5
176
     1
 90
        0
176
     1
 90
        0
176
     1
290
     0
176
     1
 90
        1
176
     1
 40
0.0
176
     1
 90
        0
176
     1
290
     1
176
     1
290
     1
176
     1
290
     0
176
     1
290
     0
176
     1
290
     0
176
     1
290
     0
176
     1
290
     0
176
     1
290
     0
176
     1
290
     0
176
     1
 90
       50
176
     1
 40
0.0
176
     1
 40
1.0
176
     1
 90
        0
176
     1
 62
    18
420
        0
176
     1
 90
       50
176
     1
 90
        3
176
     1
 62
     5
420
      255
176
     1
290
     0
176
     1
 90
       50
176
     1
 90
       50
176
     1
 90
       50
176
     1
290
     0
176
     1
 90
       50
176
     1
 62
   256
176
     0
 40
1.0
176
     0
 90
        2
176
     1
  1
strokes_ogs.tif
176
     1
290
     0
176
     1
 40
1.0
176
     1
 40
1.0
176
     1
1001
ACAD
1000
AcDbSavedByObjectVersion
1070
     0
  0
VISUALSTYLE
  5
9E
102
{ACAD_REACTORS
330
99
102
}
330
99
100
AcDbVisualStyle
  2
Basic
 70
     7
177
     3
291
     1
 70
    58
 90
        1
176
     1
 90
        0
176
     1
 90
        1
176
     1
 90
        0
176
     1
 40
0.6
176
     1
 40
30.0
176
     1
 62
     7
420
 16777215
176
     1
 90
        0
176
     1
 90
        4
176
     1
 62
     7
176
     1
 62
   257
176
     1
 90
        1
176
     1
 90
        1
176
     1
 40
1.0
176
     1
 90
        8
176
     1
 62
     7
176
     1
 40
1.0
176
     1
 90
        1
176
     1
 90
        6
176
     1
 90
        2
176
     1
 62
     7
176
     1
 90
        5
176
     1
 90
        0
176
     1
 90
        0
176
     1
290
     0
176
     1
 90
        1
176
     1
 40
0.0
176
     1
 90
        0
176
     1
290
     0
176
     1
290
     1
176
     1
290
     1
176
     1
290
     0
176
     1
290
     0
176
     1
290
     0
176
     1
290
     0
176
     1
290
     0
176
     1
290
     0
176
     1
 90
       50
176
     1
 40
0.0
176
     1
 40
1.0
176
     1
 90
        0
176
     1
 62
    18
420
        0
176
     1
 90
       50
176
     1
 90
        3
176
     1
 62
     5
420
      255
176
     1
290
     0
176
     1
 90
       50
176
     1
 90
       50
176
     1
 90
       50
176
     1
290
     0
176
     1
 90
       50
176
     1
 62
   256
176
     0
 40
1.0
176
     0
 90
        2
176
     1
  1
strokes_ogs.tif
176
     1
290
     0
176
     1
 40
1.0
176
     1
 40
1.0
176
     1
1001
ACAD
1000
AcDbSavedByObjectVersion
1070
     0
  0
VISUALSTYLE
  5
A5
102
{ACAD_REACTORS
330
99
102
}
330
99
100
AcDbVisualStyle
  2
Brighten
 70
    12
177
     3
291
     1
 70
    58
 90
        2
176
     1
 90
        2
176
     1
 90
        1
176
     1
 90
        0
176
     1
 40
0.6
176
     1
 40
30.0
176
     1
 62
     7
420
 16777215
176
     1
 90
        1
176
     1
 90
        4
176
     1
 62
     7
176
     1
 62
   257
176
     1
 90
        1
176
     1
 90
        1
176
     1
 40
1.0
176
     1
 90
        8
176
     1
 62
     7
176
     1
 40
1.0
176
     1
 90
        1
176
     1
 90
        6
176
     1
 90
        2
176
     1
 62
     7
176
     1
 90
        5
176
     1
 90
        0
176
     1
 90
        0
176
     1
290
     0
176
     1
 90
        1
176
     1
 40
50.0
176
     1
 90
        0
176
     1
290
     0
176
     1
290
     1
176
     1
290
     1
176
     1
290
     0
176
     1
290
     0
176
     1
290
     0
176
     1
290
     0
176
     1
290
     0
176
     1
290
     0
176
     1
 90
       50
176
     1
 40
0.0
176
     1
 40
1.0
176
     1
 90
        0
176
     1
 62
    18
420
        0
176
     1
 90
       50
176
     1
 90
        3
176
     1
 62
     5
420
      255
176
     1
290
     0
176
     1
 90
       50
176
     1
 90
       50
176
     1
 90
       50
176
     1
290
     0
176
     1
 90
       50
176
     1
 62
   256
176
     0
 40
1.0
176
     0
 90
        2
176
     1
  1
strokes_ogs.tif
176
     1
290
     0
176
     1
 40
1.0
176
     1
 40
1.0
176
     1
1001
ACAD
1000
AcDbSavedByObjectVersion
1070
     0
  0
VISUALSTYLE
  5
A9
102
{ACAD_REACTORS
330
99
102
}
330
99
100
AcDbVisualStyle
  2
ColorChange
 70
    16
177
     3
291
     1
 70
    58
 90
        2
176
     1
 90
        2
176
     1
 90
        3
176
     1
 90
        0
176
     1
 40
0.6
176
     1
 40
30.0
176
     1
 62
     8
420
  8421504
176
     1
 90
        1
176
     1
 90
        4
176
     1
 62
     7
176
     1
 62
   257
176
     1
 90
        1
176
     1
 90
        1
176
     1
 40
1.0
176
     1
 90
        8
176
     1
 62
     8
420
  8421504
176
     1
 40
1.0
176
     1
 90
        1
176
     1
 90
        6
176
     1
 90
        2
176
     1
 62
     7
176
     1
 90
        5
176
     1
 90
        0
176
     1
 90
        0
176
     1
290
     0
176
     1
 90
        1
176
     1
 40
0.0
176
     1
 90
        0
176
     1
290
     0
176
     1
290
     1
176
     1
290
     1
176
     1
290
     0
176
     1
290
     0
176
     1
290
     0
176
     1
290
     0
176
     1
290
     0
176
     1
290
     0
176
     1
 90
       50
176
     1
 40
0.0
176
     1
 40
1.0
176
     1
 90
        0
176
     1
 62
    18
420
        0
176
     1
 90
       50
176
     1
 90
        3
176
     1
 62
     5
420
      255
176
     1
290
     0
176
     1
 90
       50
176
     1
 90
       50
176
     1
 90
       50
176
     1
290
     0
176
     1
 90
       50
176
     1
 62
   256
176
     0
 40
1.0
176
     0
 90
        2
176
     1
  1
strokes_ogs.tif
176
     1
290
     0
176
     1
 40
1.0
176
     1
 40
1.0
176
     1
1001
ACAD
1000
AcDbSavedByObjectVersion
1070
     0
  0
VISUALSTYLE
  5
A2
102
{ACAD_REACTORS
330
99
102
}
330
99
100
AcDbVisualStyle
  2
Conceptual
 70
     9
177
     3
291
     0
 70
    58
 90
        3
176
     1
 90
        2
176
     1
 90
        1
176
     1
 90
        0
176
     1
 40
0.6
176
     1
 40
30.0
176
     1
 62
     7
420
 16777215
176
     1
 90
        2
176
     1
 90
        2
176
     1
 62
     7
176
     1
 62
   257
176
     1
 90
        1
176
     1
 90
        1
176
     1
 40
40.0
176
     1
 90
        8
176
     1
 62
     7
176
     1
 40
1.0
176
     1
 90
        1
176
     1
 90
        6
176
     1
 90
        2
176
     1
 62
     7
176
     1
 90
        3
176
     1
 90
        0
176
     1
 90
        0
176
     1
290
     0
176
     1
 90
        1
176
     1
 40
0.0
176
     1
 90
        0
176
     1
290
     0
176
     1
290
     1
176
     1
290
     1
176
     1
290
     0
176
     1
290
     0
176
     1
290
     0
176
     1
290
     0
176
     1
290
     0
176
     1
290
     0
176
     1
 90
       50
176
     1
 40
0.0
176
     1
 40
1.0
176
     1
 90
        0
176
     1
 62
    18
420
        0
176
     1
 90
       50
176
     1
 90
        3
176
     1
 62
     5
420
      255
176
     1
290
     0
176
     1
 90
       50
176
     1
 90
       50
176
     1
 90
       50
176
     1
290
     0
176
     1
 90
       50
176
     1
 62
   256
176
     0
 40
1.0
176
     0
 90
        2
176
     1
  1
strokes_ogs.tif
176
     1
290
     0
176
     1
 40
1.0
176
     1
 40
1.0
176
     1
1001
ACAD
1000
AcDbSavedByObjectVersion
1070
     0
  0
VISUALSTYLE
  5
A4
102
{ACAD_REACTORS
330
99
102
}
330
99
100
AcDbVisualStyle
  2
Dim
 70
    11
177
     3
291
     1
 70
    58
 90
        2
176
     1
 90
        2
176
     1
 90
        1
176
     1
 90
        0
176
     1
 40
0.6
176
     1
 40
30.0
176
     1
 62
     7
420
 16777215
176
     1
 90
        1
176
     1
 90
        4
176
     1
 62
     7
176
     1
 62
   257
176
     1
 90
        1
176
     1
 90
        1
176
     1
 40
1.0
176
     1
 90
        8
176
     1
 62
     7
176
     1
 40
1.0
176
     1
 90
        1
176
     1
 90
        6
176
     1
 90
        2
176
     1
 62
     7
176
     1
 90
        5
176
     1
 90
        0
176
     1
 90
        0
176
     1
290
     0
176
     1
 90
        1
176
     1
 40
-50.0
176
     1
 90
        0
176
     1
290
     0
176
     1
290
     1
176
     1
290
     1
176
     1
290
     0
176
     1
290
     0
176
     1
290
     0
176
     1
290
     0
176
     1
290
     0
176
     1
290
     0
176
     1
 90
       50
176
     1
 40
0.0
176
     1
 40
1.0
176
     1
 90
        0
176
     1
 62
    18
420
        0
176
     1
 90
       50
176
     1
 90
        3
176
     1
 62
     5
420
      255
176
     1
290
     0
176
     1
 90
       50
176
     1
 90
       50
176
     1
 90
       50
176
     1
290
     0
176
     1
 90
       50
176
     1
 62
   256
176
     0
 40
1.0
176
     0
 90
        2
176
     1
  1
strokes_ogs.tif
176
     1
290
     0
176
     1
 40
1.0
176
     1
 40
1.0
176
     1
1001
ACAD
1000
AcDbSavedByObjectVersion
1070
     0
  0
VISUALSTYLE
  5
175
102
{ACAD_REACTORS
330
99
102
}
330
99
100
AcDbVisualStyle
  2
EdgeColorOff
 70
    22
177
     3
291
     1
 70
    58
 90
        2
176
     0
 90
        2
176
     0
 90
        0
176
     0
 90
        0
176
     0
 40
0.6
176
     0
 40
30.0
176
     0
 62
     7
420
 16777215
176
     0
 90
        1
176
     0
 90
        4
176
     0
 62
     7
176
     0
 62
   257
176
     0
 90
        1
176
     0
 90
        1
176
     0
 40
1.0
176
     0
 90
        8
176
     2
 62
     7
176
     0
 40
1.0
176
     0
 90
        1
176
     0
 90
        6
176
     0
 90
        2
176
     0
 62
     7
176
     0
 90
        5
176
     0
 90
        0
176
     0
 90
        0
176
     0
290
     0
176
     0
 90
        1
176
     0
 40
0.0
176
     0
 90
        0
176
     0
290
     0
176
     1
290
     1
176
     1
290
     1
176
     1
290
     0
176
     1
290
     0
176
     1
290
     0
176
     1
290
     0
176
     1
290
     0
176
     1
290
     0
176
     1
 90
       50
176
     1
 40
0.0
176
     1
 40
1.0
176
     1
 90
        0
176
     1
 62
    18
420
        0
176
     1
 90
       50
176
     1
 90
        3
176
     1
 62
     5
420
      255
176
     1
290
     0
176
     1
 90
       50
176
     1
 90
       50
176
     1
 90
       50
176
     1
290
     0
176
     1
 90
       50
176
     1
 62
   256
176
     0
 40
1.0
176
     0
 90
        2
176
     1
  1
strokes_ogs.tif
176
     1
290
     0
176
     1
 40
1.0
176
     1
 40
1.0
176
     1
1001
ACAD
1000
AcDbSavedByObjectVersion
1070
     0
  0
VISUALSTYLE
  5
A8
102
{ACAD_REACTORS
330
99
102
}
330
99
100
AcDbVisualStyle
  2
Facepattern
 70
    15
177
     3
291
     1
 70
    58
 90
        2
176
     1
 90
        2
176
     1
 90
        1
176
     1
 90
        0
176
     1
 40
0.6
176
     1
 40
30.0
176
     1
 62
     7
420
 16777215
176
     1
 90
        1
176
     1
 90
        4
176
     1
 62
     7
176
     1
 62
   257
176
     1
 90
        1
176
     1
 90
        1
176
     1
 40
1.0
176
     1
 90
        8
176
     1
 62
     7
176
     1
 40
1.0
176
     1
 90
        1
176
     1
 90
        6
176
     1
 90
        2
176
     1
 62
     7
176
     1
 90
        5
176
     1
 90
        0
176
     1
 90
        0
176
     1
290
     0
176
     1
 90
        1
176
     1
 40
0.0
176
     1
 90
        0
176
     1
290
     0
176
     1
290
     1
176
     1
290
     1
176
     1
290
     0
176
     1
290
     0
176
     1
290
     0
176
     1
290
     0
176
     1
290
     0
176
     1
290
     0
176
     1
 90
       50
176
     1
 40
0.0
176
     1
 40
1.0
176
     1
 90
        0
176
     1
 62
    18
420
        0
176
     1
 90
       50
176
     1
 90
        3
176
     1
 62
     5
420
      255
176
     1
290
     0
176
     1
 90
       50
176
     1
 90
       50
176
     1
 90
       50
176
     1
290
     0
176
     1
 90
       50
176
     1
 62
   256
176
     0
 40
1.0
176
     0
 90
        2
176
     1
  1
strokes_ogs.tif
176
     1
290
     0
176
     1
 40
1.0
176
     1
 40
1.0
176
     1
1001
ACAD
1000
AcDbSavedByObjectVersion
1070
     0
  0
VISUALSTYLE
  5
9A
102
{ACAD_REACTORS
330
99
102
}
330
99
100
AcDbVisualStyle
  2
Flat
 70
     0
177
     3
291
     1
 70
    58
 90
        2
176
     1
 90
        1
176
     1
 90
        1
176
     1
 90
        2
176
     1
 40
0.6
176
     1
 40
30.0
176
     1
 62
     7
420
 16777215
176
     1
 90
        0
176
     1
 90
        0
176
     1
 62
     7
176
     1
 62
   257
176
     1
 90
        1
176
     1
 90
        1
176
     1
 40
1.0
176
     1
 90
        8
176
     1
 62
     7
176
     1
 40
1.0
176
     1
 90
        1
176
     1
 90
        6
176
     1
 90
        2
176
     1
 62
     7
176
     1
 90
        5
176
     1
 90
        0
176
     1
 90
        0
176
     1
290
     0
176
     1
 90
       13
176
     1
 40
0.0
176
     1
 90
        0
176
     1
290
     0
176
     1
290
     1
176
     1
290
     1
176
     1
290
     0
176
     1
290
     0
176
     1
290
     0
176
     1
290
     0
176
     1
290
     0
176
     1
290
     0
176
     1
 90
       50
176
     1
 40
0.0
176
     1
 40
1.0
176
     1
 90
        0
176
     1
 62
    18
420
        0
176
     1
 90
       50
176
     1
 90
        3
176
     1
 62
     5
420
      255
176
     1
290
     0
176
     1
 90
       50
176
     1
 90
       50
176
     1
 90
       50
176
     1
290
     0
176
     1
 90
       50
176
     1
 62
   256
176
     0
 40
1.0
176
     0
 90
        2
176
     1
  1
strokes_ogs.tif
176
     1
290
     0
176
     1
 40
1.0
176
     1
 40
1.0
176
     1
1001
ACAD
1000
AcDbSavedByObjectVersion
1070
     0
  0
VISUALSTYLE
  5
9B
102
{ACAD_REACTORS
330
99
102
}
330
99
100
AcDbVisualStyle
  2
FlatWithEdges
 70
     1
177
     3
291
     1
 70
    58
 90
        2
176
     1
 90
        1
176
     1
 90
        1
176
     1
 90
        2
176
     1
 40
0.6
176
     1
 40
30.0
176
     1
 62
     7
420
 16777215
176
     1
 90
        1
176
     1
 90
        0
176
     1
 62
     7
176
     1
 62
   257
176
     1
 90
        1
176
     1
 90
        1
176
     1
 40
1.0
176
     1
 90
        0
176
     1
 62
   257
176
     1
 40
1.0
176
     1
 90
        1
176
     1
 90
        6
176
     1
 90
        2
176
     1
 62
     7
176
     1
 90
        5
176
     1
 90
        0
176
     1
 90
        0
176
     1
290
     0
176
     1
 90
       13
176
     1
 40
0.0
176
     1
 90
        0
176
     1
290
     0
176
     1
290
     1
176
     1
290
     1
176
     1
290
     0
176
     1
290
     0
176
     1
290
     0
176
     1
290
     0
176
     1
290
     0
176
     1
290
     0
176
     1
 90
       50
176
     1
 40
0.0
176
     1
 40
1.0
176
     1
 90
        0
176
     1
 62
    18
420
        0
176
     1
 90
       50
176
     1
 90
        3
176
     1
 62
     5
420
      255
176
     1
290
     0
176
     1
 90
       50
176
     1
 90
       50
176
     1
 90
       50
176
     1
290
     0
176
     1
 90
       50
176
     1
 62
   256
176
     0
 40
1.0
176
     0
 90
        2
176
     1
  1
strokes_ogs.tif
176
     1
290
     0
176
     1
 40
1.0
176
     1
 40
1.0
176
     1
1001
ACAD
1000
AcDbSavedByObjectVersion
1070
     0
  0
VISUALSTYLE
  5
9C
102
{ACAD_REACTORS
330
99
102
}
330
99
100
AcDbVisualStyle
  2
Gouraud
 70
     2
177
     3
291
     1
 70
    58
 90
        2
176
     1
 90
        2
176
     1
 90
        1
176
     1
 90
        2
176
     1
 40
0.6
176
     1
 40
30.0
176
     1
 62
     7
420
 16777215
176
     1
 90
        0
176
     1
 90
        0
176
     1
 62
     7
176
     1
 62
   257
176
     1
 90
        1
176
     1
 90
        1
176
     1
 40
1.0
176
     1
 90
        0
176
     1
 62
     7
176
     1
 40
1.0
176
     1
 90
        1
176
     1
 90
        6
176
     1
 90
        2
176
     1
 62
     7
176
     1
 90
        5
176
     1
 90
        0
176
     1
 90
        0
176
     1
290
     0
176
     1
 90
       13
176
     1
 40
0.0
176
     1
 90
        0
176
     1
290
     0
176
     1
290
     1
176
     1
290
     1
176
     1
290
     0
176
     1
290
     0
176
     1
290
     0
176
     1
290
     0
176
     1
290
     0
176
     1
290
     0
176
     1
 90
       50
176
     1
 40
0.0
176
     1
 40
1.0
176
     1
 90
        0
176
     1
 62
    18
420
        0
176
     1
 90
       50
176
     1
 90
        3
176
     1
 62
     5
420
      255
176
     1
290
     0
176
     1
 90
       50
176
     1
 90
       50
176
     1
 90
       50
176
     1
290
     0
176
     1
 90
       50
176
     1
 62
   256
176
     0
 40
1.0
176
     0
 90
        2
176
     1
  1
strokes_ogs.tif
176
     1
290
     0
176
     1
 40
1.0
176
     1
 40
1.0
176
     1
1001
ACAD
1000
AcDbSavedByObjectVersion
1070
     0
  0
VISUALSTYLE
  5
9D
102
{ACAD_REACTORS
330
99
102
}
330
99
100
AcDbVisualStyle
  2
GouraudWithEdges
 70
     3
177
     3
291
     1
 70
    58
 90
        2
176
     1
 90
        2
176
     1
 90
        1
176
     1
 90
        2
176
     1
 40
0.6
176
     1
 40
30.0
176
     1
 62
     7
420
 16777215
176
     1
 90
        1
176
     1
 90
        0
176
     1
 62
     7
176
     1
 62
   257
176
     1
 90
        1
176
     1
 90
        1
176
     1
 40
1.0
176
     1
 90
        0
176
     1
 62
   257
176
     1
 40
1.0
176
     1
 90
        1
176
     1
 90
        6
176
     1
 90
        2
176
     1
 62
     7
176
     1
 90
        5
176
     1
 90
        0
176
     1
 90
        0
176
     1
290
     0
176
     1
 90
       13
176
     1
 40
0.0
176
     1
 90
        0
176
     1
290
     0
176
     1
290
     1
176
     1
290
     1
176
     1
290
     0
176
     1
290
     0
176
     1
290
     0
176
     1
290
     0
176
     1
290
     0
176
     1
290
     0
176
     1
 90
       50
176
     1
 40
0.0
176
     1
 40
1.0
176
     1
 90
        0
176
     1
 62
    18
420
        0
176
     1
 90
       50
176
     1
 90
        3
176
     1
 62
     5
420
      255
176
     1
290
     0
176
     1
 90
       50
176
     1
 90
       50
176
     1
 90
       50
176
     1
290
     0
176
     1
 90
       50
176
     1
 62
   256
176
     0
 40
1.0
176
     0
 90
        2
176
     1
  1
strokes_ogs.tif
176
     1
290
     0
176
     1
 40
1.0
176
     1
 40
1.0
176
     1
1001
ACAD
1000
AcDbSavedByObjectVersion
1070
     0
  0
VISUALSTYLE
  5
A1
102
{ACAD_REACTORS
330
99
102
}
330
99
100
AcDbVisualStyle
  2
Hidden
 70
     6
177
     3
291
     0
 70
    58
 90
        1
176
     1
 90
        2
176
     1
 90
        2
176
     1
 90
        0
176
     1
 40
0.6
176
     1
 40
30.0
176
     1
 62
     7
420
 16777215
176
     1
 90
        2
176
     1
 90
        2
176
     1
 62
     7
176
     1
 62
   257
176
     1
 90
        2
176
     1
 90
        1
176
     1
 40
40.0
176
     1
 90
        0
176
     1
 62
   257
176
     1
 40
1.0
176
     1
 90
        1
176
     1
 90
        6
176
     1
 90
        2
176
     1
 62
     7
176
     1
 90
        3
176
     1
 90
        0
176
     1
 90
        0
176
     1
290
     0
176
     1
 90
        1
176
     1
 40
0.0
176
     1
 90
        0
176
     1
290
     0
176
     1
290
     1
176
     1
290
     1
176
     1
290
     0
176
     1
290
     0
176
     1
290
     0
176
     1
290
     0
176
     1
290
     0
176
     1
290
     0
176
     1
 90
       50
176
     1
 40
0.0
176
     1
 40
1.0
176
     1
 90
        0
176
     1
 62
    18
420
        0
176
     1
 90
       50
176
     1
 90
        3
176
     1
 62
     5
420
      255
176
     1
290
     0
176
     1
 90
       50
176
     1
 90
       50
176
     1
 90
       50
176
     1
290
     0
176
     1
 90
       50
176
     1
 62
   256
176
     0
 40
1.0
176
     0
 90
        2
176
     1
  1
strokes_ogs.tif
176
     1
290
     0
176
     1
 40
1.0
176
     1
 40
1.0
176
     1
1001
ACAD
1000
AcDbSavedByObjectVersion
1070
     0
  0
VISUALSTYLE
  5
173
102
{ACAD_REACTORS
330
99
102
}
330
99
100
AcDbVisualStyle
  2
JitterOff
 70
    20
177
     3
291
     1
 70
    58
 90
        2
176
     0
 90
        2
176
     0
 90
        0
176
     0
 90
        0
176
     0
 40
0.6
176
     0
 40
30.0
176
     0
 62
     7
420
 16777215
176
     0
 90
        1
176
     0
 90
        4
176
     0
 62
     7
176
     0
 62
   257
176
     0
 90
        1
176
     0
 90
        1
176
     0
 40
1.0
176
     0
 90
       10
176
     2
 62
     7
176
     0
 40
1.0
176
     0
 90
        1
176
     0
 90
        6
176
     0
 90
        2
176
     0
 62
     7
176
     0
 90
        5
176
     0
 90
        0
176
     0
 90
        0
176
     0
290
     0
176
     0
 90
        1
176
     0
 40
0.0
176
     0
 90
        0
176
     0
290
     0
176
     1
290
     1
176
     1
290
     1
176
     1
290
     0
176
     1
290
     0
176
     1
290
     0
176
     1
290
     0
176
     1
290
     0
176
     1
290
     0
176
     1
 90
       50
176
     1
 40
0.0
176
     1
 40
1.0
176
     1
 90
        0
176
     1
 62
    18
420
        0
176
     1
 90
       50
176
     1
 90
        3
176
     1
 62
     5
420
      255
176
     1
290
     0
176
     1
 90
       50
176
     1
 90
       50
176
     1
 90
       50
176
     1
290
     0
176
     1
 90
       50
176
     1
 62
   256
176
     0
 40
1.0
176
     0
 90
        2
176
     1
  1
strokes_ogs.tif
176
     1
290
     0
176
     1
 40
1.0
176
     1
 40
1.0
176
     1
1001
ACAD
1000
AcDbSavedByObjectVersion
1070
     0
  0
VISUALSTYLE
  5
A7
102
{ACAD_REACTORS
330
99
102
}
330
99
100
AcDbVisualStyle
  2
Linepattern
 70
    14
177
     3
291
     1
 70
    58
 90
        2
176
     1
 90
        2
176
     1
 90
        1
176
     1
 90
        0
176
     1
 40
0.6
176
     1
 40
30.0
176
     1
 62
     7
420
 16777215
176
     1
 90
        1
176
     1
 90
        4
176
     1
 62
     7
176
     1
 62
   257
176
     1
 90
        7
176
     1
 90
        7
176
     1
 40
1.0
176
     1
 90
        8
176
     1
 62
     7
176
     1
 40
1.0
176
     1
 90
        1
176
     1
 90
        6
176
     1
 90
        2
176
     1
 62
     7
176
     1
 90
        5
176
     1
 90
        0
176
     1
 90
        0
176
     1
290
     0
176
     1
 90
        1
176
     1
 40
0.0
176
     1
 90
        0
176
     1
290
     0
176
     1
290
     1
176
     1
290
     1
176
     1
290
     0
176
     1
290
     0
176
     1
290
     0
176
     1
290
     0
176
     1
290
     0
176
     1
290
     0
176
     1
 90
       50
176
     1
 40
0.0
176
     1
 40
1.0
176
     1
 90
        0
176
     1
 62
    18
420
        0
176
     1
 90
       50
176
     1
 90
        3
176
     1
 62
     5
420
      255
176
     1
290
     0
176
     1
 90
       50
176
     1
 90
       50
176
     1
 90
       50
176
     1
290
     0
176
     1
 90
       50
176
     1
 62
   256
176
     0
 40
1.0
176
     0
 90
        2
176
     1
  1
strokes_ogs.tif
176
     1
290
     0
176
     1
 40
1.0
176
     1
 40
1.0
176
     1
1001
ACAD
1000
AcDbSavedByObjectVersion
1070
     0
  0
VISUALSTYLE
  5
174
102
{ACAD_REACTORS
330
99
102
}
330
99
100
AcDbVisualStyle
  2
OverhangOff
 70
    21
177
     3
291
     1
 70
    58
 90
        2
176
     0
 90
        2
176
     0
 90
        0
176
     0
 90
        0
176
     0
 40
0.6
176
     0
 40
30.0
176
     0
 62
     7
420
 16777215
176
     0
 90
        1
176
     0
 90
        4
176
     0
 62
     7
176
     0
 62
   257
176
     0
 90
        1
176
     0
 90
        1
176
     0
 40
1.0
176
     0
 90
        9
176
     2
 62
     7
176
     0
 40
1.0
176
     0
 90
        1
176
     0
 90
        6
176
     0
 90
        2
176
     0
 62
     7
176
     0
 90
        5
176
     0
 90
        0
176
     0
 90
        0
176
     0
290
     0
176
     0
 90
        1
176
     0
 40
0.0
176
     0
 90
        0
176
     0
290
     0
176
     1
290
     1
176
     1
290
     1
176
     1
290
     0
176
     1
290
     0
176
     1
290
     0
176
     1
290
     0
176
     1
290
     0
176
     1
290
     0
176
     1
 90
       50
176
     1
 40
0.0
176
     1
 40
1.0
176
     1
 90
        0
176
     1
 62
    18
420
        0
176
     1
 90
       50
176
     1
 90
        3
176
     1
 62
     5
420
      255
176
     1
290
     0
176
     1
 90
       50
176
     1
 90
       50
176
     1
 90
       50
176
     1
290
     0
176
     1
 90
       50
176
     1
 62
   256
176
     0
 40
1.0
176
     0
 90
        2
176
     1
  1
strokes_ogs.tif
176
     1
290
     0
176
     1
 40
1.0
176
     1
 40
1.0
176
     1
1001
ACAD
1000
AcDbSavedByObjectVersion
1070
     0
  0
VISUALSTYLE
  5
A3
102
{ACAD_REACTORS
330
99
102
}
330
99
100
AcDbVisualStyle
  2
Realistic
 70
     8
177
     3
291
     0
 70
    58
 90
        2
176
     1
 90
        3
176
     1
 90
        0
176
     1
 90
        2
176
     1
 40
0.6
176
     1
 40
30.0
176
     1
 62
     7
420
 16777215
176
     1
 90
        0
176
     1
 90
        0
176
     1
 62
     7
176
     1
 62
   257
176
     1
 90
        1
176
     1
 90
        1
176
     1
 40
1.0
176
     1
 90
        8
176
     1
 62
   257
176
     1
 40
1.0
176
     1
 90
        1
176
     1
 90
        6
176
     1
 90
        2
176
     1
 62
     7
176
     1
 90
        3
176
     1
 90
        0
176
     1
 90
        0
176
     1
290
     0
176
     1
 90
       13
176
     1
 40
0.0
176
     1
 90
        0
176
     1
290
     0
176
     1
290
     1
176
     1
290
     1
176
     1
290
     0
176
     1
290
     0
176
     1
290
     0
176
     1
290
     0
176
     1
290
     0
176
     1
290
     0
176
     1
 90
       50
176
     1
 40
0.0
176
     1
 40
1.0
176
     1
 90
        0
176
     1
 62
    18
420
        0
176
     1
 90
       50
176
     1
 90
        3
176
     1
 62
     5
420
      255
176
     1
290
     0
176
     1
 90
       50
176
     1
 90
       50
176
     1
 90
       50
176
     1
290
     0
176
     1
 90
       50
176
     1
 62
   256
176
     0
 40
1.0
176
     0
 90
        2
176
     1
  1
strokes_ogs.tif
176
     1
290
     0
176
     1
 40
1.0
176
     1
 40
1.0
176
     1
1001
ACAD
1000
AcDbSavedByObjectVersion
1070
     0
  0
VISUALSTYLE
  5
182
102
{ACAD_REACTORS
330
99
102
}
330
99
100
AcDbVisualStyle
  2
Shaded
 70
    27
177
     3
291
     0
 70
    58
 90
        2
176
     1
 90
        2
176
     1
 90
        1
176
     1
 90
        2
176
     1
 40
0.6
176
     1
 40
30.0
176
     1
 62
     7
420
 16777215
176
     1
 90
        0
176
     1
 90
        4
176
     1
 62
     7
176
     1
 62
   257
176
     1
 90
        1
176
     1
 90
        1
176
     1
 40
1.0
176
     1
 90
        8
176
     1
 62
   257
176
     1
 40
1.0
176
     1
 90
        1
176
     1
 90
        6
176
     1
 90
        2
176
     1
 62
     8
420
  7895160
176
     1
 90
        3
176
     1
 90
        0
176
     1
 90
        0
176
     1
290
     0
176
     1
 90
        5
176
     1
 40
0.0
176
     1
 90
        0
176
     1
290
     0
176
     1
290
     1
176
     1
290
     1
176
     1
290
     0
176
     1
290
     0
176
     1
290
     0
176
     1
290
     0
176
     1
290
     0
176
     1
290
     0
176
     1
 90
       50
176
     1
 40
0.0
176
     1
 40
1.0
176
     1
 90
        0
176
     1
 62
    18
420
        0
176
     1
 90
       50
176
     1
 90
        3
176
     1
 62
     5
420
      255
176
     1
290
     0
176
     1
 90
       50
176
     1
 90
       50
176
     1
 90
       50
176
     1
290
     0
176
     1
 90
       50
176
     1
 62
   256
176
     0
 40
1.0
176
     0
 90
        2
176
     1
  1
strokes_ogs.tif
176
     1
290
     0
176
     1
 40
1.0
176
     1
 40
1.0
176
     1
1001
ACAD
1000
AcDbSavedByObjectVersion
1070
     0
  0
VISUALSTYLE
  5
181
102
{ACAD_REACTORS
330
99
102
}
330
99
100
AcDbVisualStyle
  2
Shaded with edges
 70
    26
177
     3
291
     0
 70
    58
 90
        2
176
     1
 90
        2
176
     1
 90
        1
176
     1
 90
        2
176
     1
 40
0.6
176
     1
 40
30.0
176
     1
 62
     7
420
 16777215
176
     1
 90
        1
176
     1
 90
        2
176
     1
 62
     7
176
     1
 62
   257
176
     1
 90
        2
176
     1
 90
        1
176
     1
 40
1.0
176
     1
 90
        8
176
     1
 62
   257
176
     1
 40
1.0
176
     1
 90
        1
176
     1
 90
        6
176
     1
 90
        2
176
     1
 62
     7
176
     1
 90
        3
176
     1
 90
        0
176
     1
 90
        0
176
     1
290
     0
176
     1
 90
        5
176
     1
 40
0.0
176
     1
 90
        0
176
     1
290
     0
176
     1
290
     1
176
     1
290
     1
176
     1
290
     0
176
     1
290
     0
176
     1
290
     0
176
     1
290
     0
176
     1
290
     0
176
     1
290
     0
176
     1
 90
       50
176
     1
 40
0.0
176
     1
 40
1.0
176
     1
 90
        0
176
     1
 62
    18
420
        0
176
     1
 90
       50
176
     1
 90
        3
176
     1
 62
     5
420
      255
176
     1
290
     0
176
     1
 90
       50
176
     1
 90
       50
176
     1
 90
       50
176
     1
290
     0
176
     1
 90
       50
176
     1
 62
   256
176
     0
 40
1.0
176
     0
 90
        2
176
     1
  1
strokes_ogs.tif
176
     1
290
     0
176
     1
 40
1.0
176
     1
 40
1.0
176
     1
1001
ACAD
1000
AcDbSavedByObjectVersion
1070
     0
  0
VISUALSTYLE
  5
17E
102
{ACAD_REACTORS
330
99
102
}
330
99
100
AcDbVisualStyle
  2
Shades of Gray
 70
    23
177
     3
291
     0
 70
    58
 90
        2
176
     1
 90
        2
176
     1
 90
        3
176
     1
 90
        0
176
     1
 40
0.6
176
     1
 40
30.0
176
     1
 62
     7
420
 16777215
176
     1
 90
        2
176
     1
 90
        2
176
     1
 62
     7
176
     1
 62
     7
176
     1
 90
        1
176
     1
 90
        1
176
     1
 40
40.0
176
     1
 90
        8
176
     1
 62
     7
176
     1
 40
1.0
176
     1
 90
        1
176
     1
 90
        6
176
     1
 90
        2
176
     1
 62
     7
176
     1
 90
        3
176
     1
 90
        0
176
     1
 90
        0
176
     1
290
     0
176
     1
 90
        1
176
     1
 40
0.0
176
     1
 90
        0
176
     1
290
     0
176
     1
290
     1
176
     1
290
     1
176
     1
290
     0
176
     1
290
     0
176
     1
290
     0
176
     1
290
     0
176
     1
290
     0
176
     1
290
     0
176
     1
 90
       50
176
     1
 40
0.0
176
     1
 40
1.0
176
     1
 90
        0
176
     1
 62
    18
420
        0
176
     1
 90
       50
176
     1
 90
        3
176
     1
 62
     5
420
      255
176
     1
290
     0
176
     1
 90
       50
176
     1
 90
       50
176
     1
 90
       50
176
     1
290
     0
176
     1
 90
       50
176
     1
 62
   256
176
     0
 40
1.0
176
     0
 90
        2
176
     1
  1
strokes_ogs.tif
176
     1
290
     0
176
     1
 40
1.0
176
     1
 40
1.0
176
     1
1001
ACAD
1000
AcDbSavedByObjectVersion
1070
     0
  0
VISUALSTYLE
  5
17F
102
{ACAD_REACTORS
330
99
102
}
330
99
100
AcDbVisualStyle
  2
Sketchy
 70
    24
177
     3
291
     0
 70
    58
 90
        1
176
     1
 90
        2
176
     1
 90
        2
176
     1
 90
        0
176
     1
 40
0.6
176
     1
 40
30.0
176
     1
 62
     7
420
 16777215
176
     1
 90
        2
176
     1
 90
        2
176
     1
 62
     7
176
     1
 62
     7
176
     1
 90
        1
176
     1
 90
        1
176
     1
 40
40.0
176
     1
 90
       11
176
     1
 62
     7
176
     1
 40
1.0
176
     1
 90
        1
176
     1
 90
        6
176
     1
 90
        2
176
     1
 62
     7
176
     1
 90
        6
176
     1
 90
        0
176
     1
 90
        0
176
     1
290
     0
176
     1
 90
        1
176
     1
 40
0.0
176
     1
 90
        0
176
     1
290
     0
176
     1
290
     1
176
     1
290
     1
176
     1
290
     0
176
     1
290
     0
176
     1
290
     0
176
     1
290
     0
176
     1
290
     0
176
     1
290
     0
176
     1
 90
       50
176
     1
 40
0.0
176
     1
 40
1.0
176
     1
 90
        0
176
     1
 62
    18
420
        0
176
     1
 90
       50
176
     1
 90
        3
176
     1
 62
     5
420
      255
176
     1
290
     0
176
     1
 90
       50
176
     1
 90
       50
176
     1
 90
       50
176
     1
290
     0
176
     1
 90
       50
176
     1
 62
   256
176
     0
 40
1.0
176
     0
 90
        2
176
     1
  1
strokes_ogs.tif
176
     1
290
     0
176
     1
 40
1.0
176
     1
 40
1.0
176
     1
1001
ACAD
1000
AcDbSavedByObjectVersion
1070
     0
  0
VISUALSTYLE
  5
A6
102
{ACAD_REACTORS
330
99
102
}
330
99
100
AcDbVisualStyle
  2
Thicken
 70
    13
177
     3
291
     1
 70
    58
 90
        2
176
     1
 90
        2
176
     1
 90
        1
176
     1
 90
        0
176
     1
 40
0.6
176
     1
 40
30.0
176
     1
 62
     7
420
 16777215
176
     1
 90
        1
176
     1
 90
        4
176
     1
 62
     7
176
     1
 62
   257
176
     1
 90
        1
176
     1
 90
        1
176
     1
 40
1.0
176
     1
 90
       12
176
     1
 62
     7
176
     1
 40
1.0
176
     1
 90
        1
176
     1
 90
        6
176
     1
 90
        2
176
     1
 62
     7
176
     1
 90
        5
176
     1
 90
        0
176
     1
 90
        0
176
     1
290
     0
176
     1
 90
        1
176
     1
 40
0.0
176
     1
 90
        0
176
     1
290
     0
176
     1
290
     1
176
     1
290
     1
176
     1
290
     0
176
     1
290
     0
176
     1
290
     0
176
     1
290
     0
176
     1
290
     0
176
     1
290
     0
176
     1
 90
       50
176
     1
 40
0.0
176
     1
 40
1.0
176
     1
 90
        0
176
     1
 62
    18
420
        0
176
     1
 90
       50
176
     1
 90
        3
176
     1
 62
     5
420
      255
176
     1
290
     0
176
     1
 90
       50
176
     1
 90
       50
176
     1
 90
       50
176
     1
290
     0
176
     1
 90
       50
176
     1
 62
   256
176
     0
 40
1.0
176
     0
 90
        2
176
     1
  1
strokes_ogs.tif
176
     1
290
     0
176
     1
 40
1.0
176
     1
 40
1.0
176
     1
1001
ACAD
1000
AcDbSavedByObjectVersion
1070
     0
  0
VISUALSTYLE
  5
A0
102
{ACAD_REACTORS
330
99
102
}
330
99
100
AcDbVisualStyle
  2
Wireframe
 70
     5
177
     3
291
     0
 70
    58
 90
        0
176
     1
 90
        2
176
     1
 90
        0
176
     1
 90
        0
176
     1
 40
0.6
176
     1
 40
30.0
176
     1
 62
     7
420
 16777215
176
     1
 90
        1
176
     1
 90
        4
176
     1
 62
     7
176
     1
 62
   257
176
     1
 90
        1
176
     1
 90
        1
176
     1
 40
1.0
176
     1
 90
        0
176
     1
 62
   257
176
     1
 40
1.0
176
     1
 90
        1
176
     1
 90
        6
176
     1
 90
        2
176
     1
 62
     7
176
     1
 90
        3
176
     1
 90
        0
176
     1
 90
        0
176
     1
290
     0
176
     1
 90
        1
176
     1
 40
0.0
176
     1
 90
        0
176
     1
290
     0
176
     1
290
     1
176
     1
290
     1
176
     1
290
     0
176
     1
290
     0
176
     1
290
     0
176
     1
290
     0
176
     1
290
     0
176
     1
290
     0
176
     1
 90
       50
176
     1
 40
0.0
176
     1
 40
1.0
176
     1
 90
        0
176
     1
 62
    18
420
        0
176
     1
 90
       50
176
     1
 90
        3
176
     1
 62
     5
420
      255
176
     1
290
     0
176
     1
 90
       50
176
     1
 90
       50
176
     1
 90
       50
176
     1
290
     0
176
     1
 90
       50
176
     1
 62
   256
176
     0
 40
1.0
176
     0
 90
        2
176
     1
  1
strokes_ogs.tif
176
     1
290
     0
176
     1
 40
1.0
176
     1
 40
1.0
176
     1
1001
ACAD
1000
AcDbSavedByObjectVersion
1070
     0
  0
VISUALSTYLE
  5
180
102
{ACAD_REACTORS
330
99
102
}
330
99
100
AcDbVisualStyle
  2
X-Ray
 70
    25
177
     3
291
     0
 70
    58
 90
        2
176
     1
 90
        2
176
     1
 90
        1
176
     1
 90
        1
176
     1
 40
0.5
176
     1
 40
30.0
176
     1
 62
     7
420
 16777215
176
     1
 90
        1
176
     1
 90
        0
176
     1
 62
     7
176
     1
 62
   257
176
     1
 90
        1
176
     1
 90
        1
176
     1
 40
1.0
176
     1
 90
        8
176
     1
 62
     7
176
     1
 40
1.0
176
     1
 90
        1
176
     1
 90
        6
176
     1
 90
        2
176
     1
 62
     7
176
     1
 90
        3
176
     1
 90
        0
176
     1
 90
        0
176
     1
290
     0
176
     1
 90
       13
176
     1
 40
0.0
176
     1
 90
        0
176
     1
290
     0
176
     1
290
     1
176
     1
290
     1
176
     1
290
     0
176
     1
290
     0
176
     1
290
     0
176
     1
290
     0
176
     1
290
     0
176
     1
290
     0
176
     1
 90
       50
176
     1
 40
0.0
176
     1
 40
1.0
176
     1
 90
        0
176
     1
 62
    18
420
        0
176
     1
 90
       50
176
     1
 90
        3
176
     1
 62
     5
420
      255
176
     1
290
     0
176
     1
 90
       50
176
     1
 90
       50
176
     1
 90
       50
176
     1
290
     0
176
     1
 90
       50
176
     1
 62
   256
176
     0
 40
1.0
176
     0
 90
        2
176
     1
  1
strokes_ogs.tif
176
     1
290
     0
176
     1
 40
1.0
176
     1
 40
1.0
176
     1
1001
ACAD
1000
AcDbSavedByObjectVersion
1070
     0
  0
DICTIONARYVAR
  5
F0
102
{ACAD_REACTORS
330
66
102
}
330
66
100
DictionaryVariables
280
     0
  1
1:1
  0
DICTIONARYVAR
  5
EF
102
{ACAD_REACTORS
330
66
102
}
330
66
100
DictionaryVariables
280
     0
  1
STANDARD
  0
DICTIONARYVAR
  5
89
102
{ACAD_REACTORS
330
66
102
}
330
66
100
DictionaryVariables
280
     0
  1
STANDARD
  0
DICTIONARYVAR
  5
1B7
102
{ACAD_REACTORS
330
66
102
}
330
66
100
DictionaryVariables
280
     0
  1
Imperial24
  0
DICTIONARYVAR
  5
1B8
102
{ACAD_REACTORS
330
66
102
}
330
66
100
DictionaryVariables
280
     0
  1
Imperial24
  0
DICTIONARYVAR
  5
67
102
{ACAD_REACTORS
330
66
102
}
330
66
100
DictionaryVariables
280
     0
  1
2
  0
DICTIONARYVAR
  5
6B
102
{ACAD_REACTORS
330
66
102
}
330
66
100
DictionaryVariables
280
     0
  1
1
  0
DICTIONARYVAR
  5
14D
102
{ACAD_REACTORS
330
66
102
}
330
66
100
DictionaryVariables
280
     0
  1
0
  0
DICTIONARYVAR
  5
14E
102
{ACAD_REACTORS
330
66
102
}
330
66
100
DictionaryVariables
280
     0
  1
0
  0
DICTIONARY
  5
681
102
{ACAD_REACTORS
330
67F
102
}
330
67F
100
AcDbDictionary
281
     1
  0
DICTIONARY
  5
680
102
{ACAD_REACTORS
330
67F
102
}
330
67F
100
AcDbDictionary
281
     1
  3
983855264
350
67A
  3
983855280
350
67B
  3
983855296
350
67C
  3
983855312
350
67D
  3
983855328
350
67E
  0
DICTIONARY
  5
684
330
1AC
100
AcDbDictionary
280
     1
281
     1
  3
ACAD_XREC_ROUNDTRIP
360
685
  0
DICTIONARY
  5
194
330
22
100
AcDbDictionary
280
     1
281
     1
  3
AcPublish_PlotSettingsOverride
360
677
  0
DICTIONARY
  5
188
330
97
100
AcDbDictionary
280
     1
281
     1
  3
FBXASSET
360
189
  0
DICTIONARY
  5
186
330
96
100
AcDbDictionary
280
     1
281
     1
  3
FBXASSET
360
187
  0
DICTIONARY
  5
110
330
98
100
AcDbDictionary
280
     1
281
     1
  3
BUMPTILE
360
112
  3
DIFFUSETILE
360
111
  3
FBXASSET
360
18A
  3
OPACITYTILE
360
113
  3
REFLECTIONTILE
360
114
  0
DICTIONARY
  5
682
330
1AA
100
AcDbDictionary
280
     1
281
     1
  3
ACAD_XREC_ROUNDTRIP
360
683
  0
DICTIONARY
  5
104
330
87
100
AcDbDictionary
280
     1
281
     1
  3
ACAD_ROUNDTRIP_2008_TABLESTYLE_CELLSTYLEMAP
360
678
  0
XRECORD
  5
67A
102
{ACAD_REACTORS
330
680
102
}
330
680
100
AcDbXrecord
280
     1
  1
AcDb_Thumbnail_Schema
102
{ATTRRECORD
341
67B
  2
AcDbDs::TreatedAsObjectData
280
     1
291
     1
102
ATTRRECORD}
102
{ATTRRECORD
341
67C
  2
AcDbDs::Legacy
280
     1
291
     1
102
ATTRRECORD}
  2
AcDbDs::ID
280
    10
 91
        8
102
{ATTRRECORD
341
67D
  2
AcDs:Indexable
280
     1
291
     1
102
ATTRRECORD}
102
{ATTRRECORD
341
67E
  2
AcDbDs::HandleAttribute
280
     7
282
     1
102
ATTRRECORD}
  2
Thumbnail_Data
280
    15
 91
        0
  0
XRECORD
  5
67B
102
{ACAD_REACTORS
330
680
102
}
330
680
100
AcDbXrecord
280
     1
  1
AcDbDs::TreatedAsObjectDataSchema
  2
AcDbDs::TreatedAsObjectData
280
     1
 91
        0
  0
XRECORD
  5
67C
102
{ACAD_REACTORS
330
680
102
}
330
680
100
AcDbXrecord
280
     1
  1
AcDbDs::LegacySchema
  2
AcDbDs::Legacy
280
     1
 91
        0
  0
XRECORD
  5
67D
102
{ACAD_REACTORS
330
680
102
}
330
680
100
AcDbXrecord
280
     1
  1
AcDbDs::IndexedPropertySchema
  2
AcDs:Indexable
280
     1
 91
        0
  0
XRECORD
  5
67E
102
{ACAD_REACTORS
330
680
102
}
330
680
100
AcDbXrecord
280
     1
  1
AcDbDs::HandleAttributeSchema
  2
AcDbDs::HandleAttribute
280
     7
 91
        1
284
     1
  0
XRECORD
  5
685
102
{ACAD_REACTORS
330
684
102
}
330
684
100
AcDbXrecord
280
     1
102
DISPLAYNAME
  1
Imperial24
102
FLAGS
 90
        0
  0
PLOTSETTINGS
  5
677
102
{ACAD_REACTORS
330
194
102
}
330
194
100
AcDbPlotSettings
  1

  2
none_device
  4
ANSI_A_(8.50_x_11.00_Inches)
  6

 40
6.349999904632568
 41
19.04999923706055
 42
6.350006103515625
 43
19.04998779296875
 44
215.8999938964844
 45
279.3999938964844
 46
0.0
 47
0.0
 48
0.0
 49
0.0
140
0.0
141
0.0
142
1.0
143
27.19129305263315
 70
 11952
 72
     0
 73
     1
 74
     0
  7

 75
     0
147
0.0367764783404871
 76
     0
 77
     2
 78
   300
148
-3024.998149899462
149
-1027.541467952705
  0
XRECORD
  5
189
102
{ACAD_REACTORS
330
188
102
}
330
188
100
AcDbXrecord
280
     1
 70
     1
 90
429727718
  1
508B35C9-AEE7-456F-BE74-D52651303AC6
310
504B03040A0000080000B670623B3DEE336E79000000790000001B0000006175746F6465736B2D64657369676E2D7061636B6167652E786D6C3C3F786D6C2076657273696F6E3D22312E302220656E636F64696E673D227574662D3822203F3E3C666F726D6174733E3C666F726D61743E687474703A2F2F736368656D612E
310
6175746F6465736B2E636F6D2F64657369676E2D7061636B6167652F323030393C2F666F726D61743E3C2F666F726D6174733E504B0304140006080800B670623BD486FD9CA0000000F4000000130000005B436F6E74656E745F54797065735D2E786D6C7D8EC10E82300C865F65E91D8A1E8C310C0EEA1BF002731658846E
310
D98AC1B77784ABF1D8FE5FBFBF75BBCE937A534CCEB38643598122B6FEE978D0B0485F9C41B54DDD7D022595594E1A469170414C76A4D9A4D207E29CF43ECE46F218070CC6BECC4078ACAA135ACF422C856C0E68EA1BF5669944DDD7BCDE7B1F8E415D77AECB980613C2E4AC91FC167A2B244592486606FC29C8FD7F045B9A
310
EF7053A7E60B504B0304140006080800B670623B28ED286BEB0000007C01000008000000636F72652E786D6C8D90416EC3201045AF82665B6183218D6D61A254764FD00B204C5C94182C03558F5F9C3852BBEB6A467FFE9B197D71FA9E6FE8CBACC17AD7012D0820E3B41FAD9B3A48F1826B40272956EFE32F1B20A766D3C1
310
268314D3EAD3B24BDABB685CCCAAF3A3D94515828980F42D371D04FD696655A814B3235C8B45E9AB9A4C419F5D8653B2237A1CB163DE672FD6AC209BF3C08E0D1B30EB19C3FC9D72FCC6EB231EFA33EDE96BDD341517E5064B11EDFCBCAF57A3A2194156843498524CAA0FCA5B7268F9E185D42D21A2DCEC7FA0B48CFF8492
310
759155FBBB0F2C80A4F991FB408A72CB22977B50B96EB9C91F504B0304140006080800B670623B55019EA25F0000007C00000007000000636E782E786D6C4DCB3B0E80201045D1AD90E915ED2CF8AC45050C11660C8261F98AB1B07AC9C97D42D718D865D3E909258CFD00CCE24AC6E326A164D74DC0B4128928FF32603847
310
2BA13128B1252AC747C6BAB984FC68F0B87FE8960A5C09FE86CFB69FBA01504B0304140006080800B670623B7BC41AC871010000D40300000C0000006662782F636F72652E786D6CC553ED6E8320147D15C2DF4501B56B6D90A64BBB27D80B50A5CE54C120983EFEAE1F4DD7A56BBA5FF3879273EEE59E7310BE393735EA95
310
ED2AA333CC428A91D2B9292A5D66D8BB63B0C26823B835C67D2BC348CB46657880B1E0A535BE9DA1DC68A7B403549B42CDA0EC3AE530CA6B5864B8CB3F552343E91D5474A7B095F949962A6421D0502778E72C0840D390E18DC5F170E664C205F7BE2A66B62A605A75AC94C522DDEEE3651AEF837817C741F2CE92E02D592D
310
83FD6ECB76EC7595A651C2C9D02CB8AB9A8BBADC2AE954814544691A3016D0E883256BBA58278B17BA5A53CAC9507ED3E4DBE2C9265F691747B3DCA9ADC382819091F8E1162272A8933DE82182932144F88C09DF060D8140C84E1EEA8B8F1340BDCA9DB1093085F157AA97B557309586747CD0EF0B4EA64E983A6E0EAEEFCE
310
889E9EF17847386AA94B30211D2C0FDE0D3AF9A4610EAD5536E8DD1969631B593F67E381C33F5157F17725E5A636F6BF1491F980C8FC7B90E13E8A2F504B0304140006080800B670623B70102A487D0000009D0000000B0000006662782F636E782E786D6C4DCCD10A83201886E15B91FFDC95A5C30335ACCDFB886521330D
310
A76397BF1A1DECE883878F57749FD5A3B74D2F17830472A901D9F088930B8B849267CC01754AA418F3DF0D5018572BE160506249B16C274D761E8BCFBB7A179E27F65CB39A0F14D396184C9921B81F34C3ACA1B4B99ABB6E6F062A25AA5F69DF23ACBE504B0304140006080800B670623B3610CA3329010000120200003100
310
00006662782F42384135303843342D343331462D343546312D424341352D3532343432364645413344462F636F72652E786D6C8D515B6EC32010BC0AE22B55850D0E446E848992B43E412FE000495162B07854397EA176A4F62F3F2C9A9D991D58BEBB8F37F0AD7D30CE76905418026DA553C65E3A98E219B510EC04F7CEC5
310
3F3408EC30EA0E16180A7EF12E4D0B249D8DDAC68C5AA7F4020E21E80881BCE54B0783FCD2E3500D296646B856D320AFC34557A4CAEDCC133C449F0380794839A138B47B86DB2345744D7A44594FD0E1B867883594369BFE63BF7EEF793D0B054FC9A8456E548E63CE46FB674D8A58F068C6477CE9F510B582A2C1F80D1182
310
70F349E816B32D65AFB8DD62CCEB42FF274A937A52948C8DEB66893BCB021484D7734370E5D2E9F608A3EF93F3119479ABA0E50B14B8C298119A43CCC4FCFCECB8A18B6388CEE7EF5D5D4F994BD86CBBA182D76543B9FCAE2FD7B24DF103504B0304140006080800B670623B1B8617914E0100003303000030000000666278
310
2F42384135303843342D343331462D343546312D424341352D3532343432364645413344462F636E782E786D6CD593C16EC32010447F0571AD6CE3D489D20813A9877E410FBD62D82434182CC055F3F75D1292E692438FBD206B7698593D61BEFD1E2DF982108D773D6D6B460938E5B571FB9ECE6957AD29D90A1EBC4F7736
310
4A9C1CA1A759A682EF839FA72269D8C9D92654AD71C72206887E0E0A22CAF926B15E498B01E0AA19451807D01A34B919F16B070157417138917400F2F6FA41FCF0092A45DEE414C19BDC21783E4BD39D891265658C3D8DEA00A3ACE59CBC8678ACB54CB26EEB6BD7839D7E9348BE70AD9C8321B9BCA7F9A4A26C542347DEE0
310
50F09802D22BA6749A800A394DD62899107273365E3C82CFC6A55557BC06C10774B7ABE7AEC3B0F34CF06446280E154026D0542C187BA9DAB6628BF7B6DBB0E5A65B3EB1F58631DE64BBE083F7B65CC218087E22CABB042E51D1F2268F1FE12B3EA24D40D63E9CFE00120194D60B9D5BC67FE6D39CDF37E20AF817881F504B
310
0304140006080800B670623BBFEF2E3B690500003C100000340000006662782F42384135303843342D343331462D343546312D424341352D3532343432364645413344462F6F626A656374732E786D6CAD575D739B3814FD2B0CFB0C98D84E931D4227B6938EA793B6534F3BFB90198F0099B001899144EAECAFDF231018B0
310
D37A3FFC609090EEE7B94757C1FB7D915B2F54C88CB31BDB7727B64559CC938CA53776A576CE956DBD0F03C1B9EA2DB32D460A7A63EB693B0C52C1ABD24C257447AA5C8D66EF177F5832A68CDA569C13296F6C193FD182B8A4523CA1F2D94D88226EBADBBBBEDB2C1C8A4D05299F46424B222853B014F30C52ACC6287F389C
310
D85E1878FA7B18E87FB36AFAF62AAFF667A83F635211161F291B8999FAB3D5DDC5FCDA99CF6653677679E13B8BFBC5CAF1DF4D27CBCBE5F2FAF6EE1A8AA51290642C117467871F101B91C581D77CEA2C36869F3229E68CD1B8F61F1ED6361B89092D294B90C78C4A68EB793D190E7D1D9BDEE7A91E1B95FDE9F3BCEAEFE809
310
6A6D6F9F7D4B79F4275C90E7A04248AA51D5C4C738DAE06F72885AC4796EBE65D22A88A22223B995679120E2D50EB1542F098381188D4EA111AE3DB043FF20AF6F2B4AE3D7D83D65E5AECA730D4D3BAC91BD05FEA992B565D95F549CD6069B90AB2A63EACA38A45E4B6A87D781574F86817E4C2FCCC72690D62E2729520E37
310
9BAF234797BAF6D62B3BFC781FED37BA1E4F2B2F052FA9501A3E80569BB8F6A9A364D4FA67654E6F803383981F82F21591FF84F23D9882BC896C3FDBCF8C162508933B2E0AE4C69DD43F6BD2BE38DDDBF10BF86CB4FA784D37F3AF16075E67EC9030DECA1FC0A55373F5DFF3378C591FA9BDF485C10B0A8C8BA909E5262639
310
A8E72163488806A595734C81CB77D1DE0ED7604A303B76913CEC0272F412782FF88EFF4636D8AA56DF7B322474C4B767303F625997056C7B032C473C592B36CEBD15F3F9FF5233B7ABCDC74D257624A60F8658567497B14CE1EC3C80B76FD02011038F9EE9EB0F2E12387A9C844D3F09855125116D1D731DF8B43D2CF4E0A0
310
79A020C6BE946BCE0B7EA1E1219331CD73C228AF5A2DDD31A4B1DA918CE91350854D40A71723140BFA92E94E62B0626016CEFA5864A50E5977E8753CEDBEE1CBB7F52780D20E17AF0BA0F5F9B02A3AD07DCC732EB6D1EBB661421BE0C39E21BABF0FE16D22EA6929407C8DE596724C88B749B6DB5512BC7B228ADFD7CB7EA6
310
3A22397E690BA8D5D8D4E40CEC8CDA23C2C0B7D5898640101CEC9C6D331CE328CB93CAFBBAC70A642DF70DF95155945B52F08AA973C23469FD69ADEF84F7BB18F983A8F8C90E37F5D35980B2139A1C523540813E824EF83448CF7C72B598CE97D7CEEDDDDD3B6736BFBC771677EF66CE6A7E7139F7A793E9EDF2B2B3A8B624
310
0CDA13AA5F8388264EC4A0129909F3B7F5A16CEDF08128E97D680ACA4B9BE7B7B58BB638F0B00700EF36AE8B32A705658A68F83EE897FC2B41573190D1CCAF0B92D233A47CFEB019D9809933F67DD1A5467F8CF69AD9A5AE859342D45355448C64F968A371DC2D596ADC6E43D93D1B466F877A64E2893E54F23C4B40388995
310
525E5005DA3983ED45412510D3EFCA13737B3863F74BD30F2A12E5B4B5E489A025CE25500DB855B11ACE5BBFA185D35DD48D8DC3CE7DC69F2944DB42AA6F6CF09BCA622ADD08C7A36E7C6AE18000BAB08E040135C2D21C9D75B3A91B77BB746C403F38018DFE6EC939DD92F16B40BC05294B9CDA035AAD6D330AE27FE4786B
310
8E45145EA34A75BE1C263A676A35A8ACC6297337400BF16C54EF515F3F77CB77EB3583889C754FFA29081AA98E2222ADEF05DA3E63D2EDEA8B8756C05A7FB6CABC4A91CBF325398202CC952E70A008A830324BA200D5E5EF8F5F04C75DB4B0EE3340E071C98B823333B83577596BF3849B69F2085AA0FAFA212F26BEFF5877
310
FDE622B28D88A42E49E43326DA82D31E8CB006401E1DA726059ECEC168F97A6599036306A135688F9AD2E61A6EA178F4CD51974A9F2CCB9F36FE5EBD14601068D9C3BF01504B0304140006080000B670623B000000000000000000000000350000006662782F42384135303843342D343331462D343546312D424341352D35
310
32343432364645413344462F76657274696365732E62696E504B0304140006080800B670623BF270F1330600000004000000360000006662782F42384135303843342D343331462D343546312D424341352D3532343432364645413344462F747269616E676C65732E62696E636660600000504B0304140006080000B67062
310
3B000000000000000000000000370000006662782F42384135303843342D343331462D343546312D424341352D3532343432364645413344462F617474726962757465732E62696E504B0304140006080800B670623B08DA0BD19000000041010000360000006662782F42384135303843342D343331462D343546312D4243
310
41352D3532343432364645413344462F6469726563746F72792E786D6C858F410AC3201045AF22B36F53E9A60B35CBEEBAE80D244E44489C6234F4F835464A48035D0DF398FF9F8AF63D0E6CC63039F212F8F9020C7D47C6792B21C5FE7403D62A1188E2E60C98D7234A5830286103A55745067B9D86B8A3CF9C7F90C11DE6
310
07FB144396D7B6A82D282E9A152AD114D5EF2CB866EEE831B8EEA07A7BB5A8D7D61A2BAAEB7FD5F70921FF497D00504B0304140006080800B670623B3B4606F3FE000000A00100003B0000006662782F42384135303843342D343331462D343546312D424341352D3532343432364645413344462F7265736F75726365732F
310
636F72652E786D6C8D504B6E833010BD0A9A6D65B08134808CA354A427E8052C332156828DFCA97AFC9A40A576D7CDCCE87D344F8F9FBEE647F689CE6B6B7A6039850C8DB2A336530F315C4903D94970676DF82583CCC8197B5861107C72362E3BA4AC096842428D1D7107A5F71820538F74F4E0D50D6799CB1892C2DFF345
310
AABB9C306779A2934E701F5C0A906D4FD609C2A1B7D129F4BCD858C163D4E3AED163FAA9AF1A1D88F67CA98E6D35906AA82A52BFB39ABCD5CD915C86331BD86BD3B665CD8BD52C78D0F34F46E550061C419494B6843142CB0F5677F4D0D58717DA7494F26295FF31C565FCA7296A13AA728FBBD93C0896823C09C18BB5AFB4
310
9E65A6BD762BBE01504B010214000A0000080000B670623B3DEE336E79000000790000001B00000000000000000000000000000000006175746F6465736B2D64657369676E2D7061636B6167652E786D6C504B01021400140006080800B670623BD486FD9CA0000000F40000001300000000000000000000000000B2000000
310
5B436F6E74656E745F54797065735D2E786D6C504B01021400140006080800B670623B28ED286BEB0000007C010000080000000000000000000000000083010000636F72652E786D6C504B01021400140006080800B670623B55019EA25F0000007C000000070000000000000000000000000094020000636E782E786D6C50
310
4B01021400140006080800B670623B7BC41AC871010000D40300000C00000000000000000000000000180300006662782F636F72652E786D6C504B01021400140006080800B670623B70102A487D0000009D0000000B00000000000000000000000000B30400006662782F636E782E786D6C504B01021400140006080800B6
310
70623B3610CA3329010000120200003100000000000000000000000000590500006662782F42384135303843342D343331462D343546312D424341352D3532343432364645413344462F636F72652E786D6C504B01021400140006080800B670623B1B8617914E010000330300003000000000000000000000000000D10600
310
006662782F42384135303843342D343331462D343546312D424341352D3532343432364645413344462F636E782E786D6C504B01021400140006080800B670623BBFEF2E3B690500003C10000034000000000000000000000000006D0800006662782F42384135303843342D343331462D343546312D424341352D35323434
310
32364645413344462F6F626A656374732E786D6C504B01021400140006080000B670623B0000000000000000000000003500000000000000000000000000280E00006662782F42384135303843342D343331462D343546312D424341352D3532343432364645413344462F76657274696365732E62696E504B010214001400
310
06080800B670623BF270F133060000000400000036000000000000000000000000007B0E00006662782F42384135303843342D343331462D343546312D424341352D3532343432364645413344462F747269616E676C65732E62696E504B01021400140006080000B670623B00000000000000000000000037000000000000
310
00000000000000D50E00006662782F42384135303843342D343331462D343546312D424341352D3532343432364645413344462F617474726962757465732E62696E504B01021400140006080800B670623B08DA0BD1900000004101000036000000000000000000000000002A0F00006662782F42384135303843342D3433
310
31462D343546312D424341352D3532343432364645413344462F6469726563746F72792E786D6C504B01021400140006080800B670623B3B4606F3FE000000A00100003B000000000000000000000000000E1000006662782F42384135303843342D343331462D343546312D424341352D3532343432364645413344462F72
310
65736F75726365732F636F72652E786D6C504B0506000000000E000E0080040000651100000000
  0
XRECORD
  5
187
102
{ACAD_REACTORS
330
186
102
}
330
186
100
AcDbXrecord
280
     1
 70
     1
 90
429727718
  1
887D55A9-D0DD-414E-B741-A7DCD4DA2B4C
310
504B03040A0000080000B670623B3DEE336E79000000790000001B0000006175746F6465736B2D64657369676E2D7061636B6167652E786D6C3C3F786D6C2076657273696F6E3D22312E302220656E636F64696E673D227574662D3822203F3E3C666F726D6174733E3C666F726D61743E687474703A2F2F736368656D612E
310
6175746F6465736B2E636F6D2F64657369676E2D7061636B6167652F323030393C2F666F726D61743E3C2F666F726D6174733E504B0304140006080800B670623BD486FD9CA0000000F4000000130000005B436F6E74656E745F54797065735D2E786D6C7D8EC10E82300C865F65E91D8A1E8C310C0EEA1BF002731658846E
310
D98AC1B77784ABF1D8FE5FBFBF75BBCE937A534CCEB38643598122B6FEE978D0B0485F9C41B54DDD7D022595594E1A469170414C76A4D9A4D207E29CF43ECE46F218070CC6BECC4078ACAA135ACF422C856C0E68EA1BF5669944DDD7BCDE7B1F8E415D77AECB980613C2E4AC91FC167A2B244592486606FC29C8FD7F045B9A
310
EF7053A7E60B504B0304140006080800B670623BBC1638F5EC0000007C01000008000000636F72652E786D6C8D90416EC3201045AF82665B61836BE2D8C24471DB9CA01740401C94182C03558F5F9C3852BBEB6A467FFE9B197D7EF89E6EE8CB2CC17AD7032D0820E394D7D68D3DA478C67B4007C117EFE32F1B202727D3C3
310
2A83E0E3E2D3BC49CABB685CCCAAF3DA6CA20CC14440EA969B1E82BA98491632C5EC08D76296EA2A4753D06797E194AC468F2356E77DF66CCD02825543D50CACC62D39ED70FDC68EB8FD68F6F8787A6784342D1DDA1D2F5758F068A7E77DB518198D065111D2624A31A93E69DD11D6D5EC85EC3B4278B9DAFF4069D6FF8492
310
75F1B5DADE7D600104CD8FDC0782976B16B9DC83CA75CD4DFC00504B0304140006080800B670623B55019EA25F0000007C00000007000000636E782E786D6C4DCB3B0E80201045D1AD90E915ED2CF8AC45050C11660C8261F98AB1B07AC9C97D42D718D865D3E909258CFD00CCE24AC6E326A164D74DC0B4128928FF326038
310
472BA13128B1252AC747C6BAB984FC68F0B87FE8960A5C09FE86CFB69FBA01504B0304140006080800B670623B3586FFB671010000D40300000C0000006662782F636F72652E786D6CC553ED6E8320147D15C2DF4541A76D6D90A6DDD627D80B50A4CE54C120983EFEAE1F4DD7A55BBA5FF3879273EEE59E7310B6393735EA
310
95ED2AA3731C851423A5A5292A5DE6D8BB63B0C268C39935C67D29C3488B46E578803167A535BE9D2169B453DA01AA4DA16650749D7218C91A1639EEE4876A4428BC838AEE14B6429E44A9C228041AEA38EB9C0501681A32BC313F1ECE8C4C3867DE57C5CC56054CAB8E95B298A7F12E5EEED224C8E87E11242FE936C8DE96
310
AB60BB7F4D295D66D12E5B30323473E6AAE6A24E5A259C2A308F29CD82280A68FC1E256B9AAE93F489AED694323294DF34F9B678B0C957DA3DC7B3DCA9ADC33C022123F1CD2D44E450277AD04338234388F01913BE0D1A0281909D38D4171F27807A259DB1093085F157AA17B557309586747CD0CF0B46A64E983A6E0EAEEF
310
CE881F9EF1FB8E70D44297604238581EBC1B74B249C31C5AAB6CD0BB33D2C636A27ECCC62F0EFF445DC5DF95244D6DEC7F2922F30191F9F720C37DE49F504B0304140006080800B670623B4220A0FF7D0000009D0000000B0000006662782F636E782E786D6C4DCCD10A83201886E15B91FFDCE542CB0335D0EC3E6259C84A
310
C3E9D8E5AF46073BFAE0E1E315DD675BD1DBA5978F41C2FD4600B9F088930F8B849267CC01754AA418F3DF0D50183727E164506249B1EC174D6E1ECB9A0F5D7D785E68DB8151CD286E5A5363CA6B8A39E90D36D40E96B086F55A43A544F52B1D7B86D517504B0304140006080800B670623B2FA3FEDE290100001202000031
310
0000006662782F45374635344235342D363743322D343832342D383044432D4334454645303536354442422F636F72652E786D6C8D515B6EC32010BC0AE22B55850D2E386E848994D7097A0117488A1283C5A3CAF10BB523B57FF961D1ECCCECC0F2ED7DBC816FED8371B687A4C210682B9D32F6D2C314CFA883602BB8772E
310
FEA141608751F7B0C050F08B77695A20E96CD43666D43AA5177008414708E42D5F7A18E4971E876A483133C2B59A06791D2EBA22556E679EE021FA1C00CC43CA09C5717D6274C7286AD7FB06D1AEA1A8C3873DDAD3E3E98859CB0EBB1DAF67A1E02919B5C88DCA71CCD968FFAC49110B1ECDF8882FBD1EA256503418BF2342
310
106E3E08DD60B6A1EC15771B8C795DE8FF4469524F8A92B1F1AD59E2CEB20005E1F5DC105CB9F4797B84D1F7C9F908CABC55D0F2050A5C61CC1AD2F27A26E6E767C7962E8E213A9FBF7775FDCC5CC266DB960A5E970DE5F2BBBE5CCB36C50F504B0304140006080800B670623B1B8617914E01000033030000300000006662
310
782F45374635344235342D363743322D343832342D383044432D4334454645303536354442422F636E782E786D6CD593C16EC32010447F0571AD6CE3D489D20813A9877E410FBD62D82434182CC055F3F75D1292E692438FBD206B7698593D61BEFD1E2DF982108D773D6D6B460938E5B571FB9ECE6957AD29D90A1EBC4F77
310
364A9C1CA1A759A682EF839FA72269D8C9D92654AD71C72206887E0E0A22CAF926B15E498B01E0AA19451807D01A34B919F16B070157417138917400F2F6FA41FCF0092A45DEE414C19BDC21783E4BD39D891265658C3D8DEA00A3ACE59CBC8678ACB54CB26EEB6BD7839D7E9348BE70AD9C8321B9BCA7F9A4A26C542347DE
310
E050F09802D22BA6749A800A394DD62899107273365E3C82CFC6A55557BC06C10774B7ABE7AEC3B0F34CF06446280E154026D0542C187BA9DAB6628BF7B6DBB0E5A65B3EB1F58631DE64BBE083F7B65CC218087E22CABB042E51D1F2268F1FE12B3EA24D40D63E9CFE00120194D60B9D5BC67FE6D39CDF37E20AF817881F50
310
4B0304140006080800B670623B29652116630500003C100000340000006662782F45374635344235342D363743322D343832342D383044432D4334454645303536354442422F6F626A656374732E786D6CAD575D739B3814FD2B0CFB0C989834C90EA1639B24E3E9A6EDD4D3CE3E64C623834CD8006224913AFDF57B040203
310
B65BEF871F0C12D2FD3CF7E8CA7FBFCB33E3957291B2E2D674ED8969D02262715A24B76625B7D6B569BC0F7CCE98EC2D338D82E4F4D654D366E0279C55A59E8AE99654991CCDDECFFF3444440B6A1A514684B83545F44C7362934AB2988A173B2692D8C97667BB76B3702836E1A47C1E092D09A78584A5982F20C5688C7287
310
C389E904BEA3BE07BEFAD7ABA6A75739B53F43FD69212429A20365233153D70BEF2E2E6FAC4BCF9B5ADEBB0BD79ADFCF43CBBD9A4E16EF168B9BD9DD0D140BC921495BC2E9D60C1E101B9E46BED37CEA2CD6861F3329624541A3DA7F7858DBAC25C6B4A4458C3CA654405BCFEBC970E8AAD8F43E4FD558ABEC4F9FE7557F47
310
4F506B7BFBEC5BCA367FC105710E2AB8A00A554D7CB4A30DFE26FBA86D18CBF4B75418399194A72433B274C3097F33032C554B027F2046A1932B842B0FCCC0DDCBEBDB8AD2F835768F59B9ADB24C41D30C6A64AF817F2A456D59FA83F2E3DA60137255A585BCD60EC9B7929AC18DEFD49381AF1ED30BFDB109A4B1CD488294
310
C3CDE6EBC8D185AABD6568061FEE37BB95AAC7E3CA4BCE4ACAA5820FA0D526AE7DAA2869B5EE5999531BE0CC20E6FBA07C41E43FA27CF7A6206F3CDD793B4F6B919C1462CB788EDCD893FA674CDA17AB7B3B7C019F8D561FAEE966FED562DFE98C1D12C6A9FC015C2A35D7FF3D7FC398F591DA4B5FE0BFA2C0189FEA50AE22
310
92817A1ED3020951A03432862970F976B33383259812CC8E5D240BBA801CBCF8CE2BBEE3BF910DB6AAD5F79E05123AE2DB33981FB1ACCB02B69D00CB014FD68AB573A7627EF9BFD4CC2C5C7D58557C4B22FAA88925A4DBB44825CECE3D78FB060D1231F0E885BE7D673C86A3874958F593906B5502D1563157814FDAC3420D
310
F69A070A22EC4B98E23CFF171A1E5311D12C23056555ABA53B8614563B92D17D02AAB009E8F46284624E5F53D5490C560CCCC2591FF1B45421EB0EBD8EA7ED13BE7C5D7E0428CD60FEF60779EB13E6664FF711CB185F6FDED60D139A001FF60CD1FD6D086F1D51474901E26B2CB794A343BC8ED3EDB612E0DD2351FCB65CF4
310
33D511C9E14B5B40ADC6A6263DB0336A8F700DDF56271A024E70B0B3629DE21847591E55DED73D56206AB927E46FAABC5C939C55853C274C93D69FD6FA4E78BF8B11DF898C9ECD60553FAD39283BA6F18984AA23E8884F83F45C5F5F859797B31B2B9C84A1E5B9DE9D35BFF25C6B76152E422F9C5DCC3D847F5801ED09D5AF
310
41441327A25FF15487F9EB725FB666F048A4701E9A827292E6F97569A32DF61DEC01C0BB8DCBBCCC684E0B49147C1FD54BF685A0AB18C868E6973949E819523E3DAC463660E68C7D9F55A9D1EFA3BD7A76A16AE1A810F95CE59B82A4D968A376DC2E8B44BBDD86B27B368CDE0ED548C7137DA860591A83706223A12CA712B4
310
7306DBF39C0A20A6DF95C7FAF670C6EED7A61F946493D1D6926782963813403548A78AE470DEF80D2D9CEAA26E4D1C76F60BFE74219A06527D6B82DF641A51616F703CAAC6A7160E08A00BEB4810A0274592A1B36E3675E36E978A0DE80727A0D6DF2D39A75BD27E0D8837276589537B40ABB56D5A41F48F1C6FCD3188C4EB
310
A6929D2FFB89CE995A4D00AE813BDD032DC48B56BD437DFDDC2DD7AED70C2272D63DE9A72068A45A92F0A4BE17A8A06B9366E16707AD80B1FC649459952097E74BB23805982B55E0401150A165964402AA8BDF9F3E7386BB686EDCA780C0D382E5392BF460A6EFB2C6EA1937D3F809B440D5F5435C4C5CF7A9EEFAF54564BD
310
2182DA24162F98680B4E7930C21A0079709CEAEB99A372305ABE0C0D7D6078105A83F6A0296DAEE1068A47DD1C55A9F4C9B2FC69E3EFD44B81028E963DF81B504B0304140006080000B670623B000000000000000000000000350000006662782F45374635344235342D363743322D343832342D383044432D433445464530
310
3536354442422F76657274696365732E62696E504B0304140006080800B670623BF270F1330600000004000000360000006662782F45374635344235342D363743322D343832342D383044432D4334454645303536354442422F747269616E676C65732E62696E636660600000504B0304140006080000B670623B00000000
310
0000000000000000370000006662782F45374635344235342D363743322D343832342D383044432D4334454645303536354442422F617474726962757465732E62696E504B0304140006080800B670623B08DA0BD19000000041010000360000006662782F45374635344235342D363743322D343832342D383044432D4334
310
454645303536354442422F6469726563746F72792E786D6C858F410AC3201045AF22B36F53E9A60B35CBEEBAE80D244E44489C6234F4F835464A48035D0DF398FF9F8AF63D0E6CC63039F212F8F9020C7D47C6792B21C5FE7403D62A1188E2E60C98D7234A5830286103A55745067B9D86B8A3CF9C7F90C11DE607FB144396
310
D7B6A82D282E9A152AD114D5EF2CB866EEE831B8EEA07A7BB5A8D7D61A2BAAEB7FD5F70921FF497D00504B0304140006080800B670623B6378F24DFF000000A00100003B0000006662782F45374635344235342D363743322D343832342D383044432D4334454645303536354442422F7265736F75726365732F636F72652E
310
786D6C8D504B6E833010BD0A9A6D65B0094E42641C85B639412F6099496225D8C89FAAC7AF09546A77DDCC8CDE47F3F4C4F16B7C149FE88371B603565228D06A37187BED20C50BD9437194C23B177FC9A0B06AC40E6618A4B87A97A615D2CE46B431A3D60DB8822A048C50E8473E3A08FA86A32A558A5911EEE5A4F45D5DB1
310
6465A6B34E8A107D0E502C4FE609D26370C96B0CA25A58295232C3AA3143FE692E063D485EF7F5AEE71BD2D2F39634AFFC44DAF7DD9E9CCE6F9CD25DCBFA762BAAD92C4534E34F46ED51451C40D694B6843142EB0FD61C283F34FC85EE0F948A6A96FF31A569F8A729191B37F51A77B105902C0779125254735F793DCBCC7B
310
EE567E03504B010214000A0000080000B670623B3DEE336E79000000790000001B00000000000000000000000000000000006175746F6465736B2D64657369676E2D7061636B6167652E786D6C504B01021400140006080800B670623BD486FD9CA0000000F40000001300000000000000000000000000B20000005B436F6E
310
74656E745F54797065735D2E786D6C504B01021400140006080800B670623BBC1638F5EC0000007C010000080000000000000000000000000083010000636F72652E786D6C504B01021400140006080800B670623B55019EA25F0000007C000000070000000000000000000000000095020000636E782E786D6C504B010214
310
00140006080800B670623B3586FFB671010000D40300000C00000000000000000000000000190300006662782F636F72652E786D6C504B01021400140006080800B670623B4220A0FF7D0000009D0000000B00000000000000000000000000B40400006662782F636E782E786D6C504B01021400140006080800B670623B2F
310
A3FEDE290100001202000031000000000000000000000000005A0500006662782F45374635344235342D363743322D343832342D383044432D4334454645303536354442422F636F72652E786D6C504B01021400140006080800B670623B1B8617914E010000330300003000000000000000000000000000D2060000666278
310
2F45374635344235342D363743322D343832342D383044432D4334454645303536354442422F636E782E786D6C504B01021400140006080800B670623B29652116630500003C10000034000000000000000000000000006E0800006662782F45374635344235342D363743322D343832342D383044432D4334454645303536
310
354442422F6F626A656374732E786D6C504B01021400140006080000B670623B0000000000000000000000003500000000000000000000000000230E00006662782F45374635344235342D363743322D343832342D383044432D4334454645303536354442422F76657274696365732E62696E504B01021400140006080800
310
B670623BF270F13306000000040000003600000000000000000000000000760E00006662782F45374635344235342D363743322D343832342D383044432D4334454645303536354442422F747269616E676C65732E62696E504B01021400140006080000B670623B0000000000000000000000003700000000000000000000
310
000000D00E00006662782F45374635344235342D363743322D343832342D383044432D4334454645303536354442422F617474726962757465732E62696E504B01021400140006080800B670623B08DA0BD190000000410100003600000000000000000000000000250F00006662782F45374635344235342D363743322D34
310
3832342D383044432D4334454645303536354442422F6469726563746F72792E786D6C504B01021400140006080800B670623B6378F24DFF000000A00100003B00000000000000000000000000091000006662782F45374635344235342D363743322D343832342D383044432D4334454645303536354442422F7265736F75
310
726365732F636F72652E786D6C504B0506000000000E000E0080040000611100000000
  0
XRECORD
  5
112
102
{ACAD_REACTORS
330
110
102
}
330
110
100
AcDbXrecord
280
     1
270
     1
271
     1
  0
XRECORD
  5
111
102
{ACAD_REACTORS
330
110
102
}
330
110
100
AcDbXrecord
280
     1
270
     1
271
     1
  0
XRECORD
  5
18A
102
{ACAD_REACTORS
330
110
102
}
330
110
100
AcDbXrecord
280
     1
 70
     0
 90
1778669749
  1
9BF507EE-FAF7-4A99-A33D-4EE51894BC40
310
504B03040A0000080000B670623B3DEE336E79000000790000001B0000006175746F6465736B2D64657369676E2D7061636B6167652E786D6C3C3F786D6C2076657273696F6E3D22312E302220656E636F64696E673D227574662D3822203F3E3C666F726D6174733E3C666F726D61743E687474703A2F2F736368656D612E
310
6175746F6465736B2E636F6D2F64657369676E2D7061636B6167652F323030393C2F666F726D61743E3C2F666F726D6174733E504B0304140006080800B670623BD486FD9CA0000000F4000000130000005B436F6E74656E745F54797065735D2E786D6C7D8EC10E82300C865F65E91D8A1E8C310C0EEA1BF002731658846E
310
D98AC1B77784ABF1D8FE5FBFBF75BBCE937A534CCEB38643598122B6FEE978D0B0485F9C41B54DDD7D022595594E1A469170414C76A4D9A4D207E29CF43ECE46F218070CC6BECC4078ACAA135ACF422C856C0E68EA1BF5669944DDD7BCDE7B1F8E415D77AECB980613C2E4AC91FC167A2B244592486606FC29C8FD7F045B9A
310
EF7053A7E60B504B0304140006080800B670623BCA089DFFEC0000007C01000008000000636F72652E786D6C8D90416E83301045AF62CDB632D8402020E32882F604BD80653BC44AB011B6AB1EBF262152BBEB6A467FFE9B197D76FA9EEFE84BAFDE38DB03CD08206DA553C64E3DC470C1474027CE56E7C22F1B202B66DDC3
310
260367D3EAE2B24BD2D9A06D48AA754AEFA2F05E0740F29E9A1EBCBCEA59642286E4F0B76C11F226269DD15797E0188D42CF2346A57DE662F40ABCAEC77628C6120F654571D50C04B7F5B9C1E3997CD4F550BE3745C3F20DE62C98F9755FAE5A04AD801784B498524C8A4F5A75E4D055873772EC0861F966FF03C545FD138A
310
C686B2D8DF7D621E384D8F3C069CE55B16A93C824A75CB8DFF00504B0304140006080800B670623B55019EA25F0000007C00000007000000636E782E786D6C4DCB3B0E80201045D1AD90E915ED2CF8AC45050C11660C8261F98AB1B07AC9C97D42D718D865D3E909258CFD00CCE24AC6E326A164D74DC0B4128928FF326038
310
472BA13128B1252AC747C6BAB984FC68F0B87FE8960A5C09FE86CFB69FBA01504B0304140006080800B670623B68FC0B7272010000D40300000C0000006662782F636F72652E786D6CC5535B6E833010BC8AE5DF0A6C1E8124328E22D29EA01770C0A128602363A31CBFCB234A53A555FA553EC09AD9F5CE8C31DB5DDA060D
310
D2F4B556190E7C8A9154852E6B5565D8D993B7C668C799D1DA7E29C3488956667884316795D1AE5BA0422B2B950554E9522EA0E87B69312A1A5864B82F3E642B7CE12C54F467BF13C55954D20F7CA0A18EB3DE1A1080E621E31BF3D3F1C2C88C73E65C5D2E6C5DC2B4FA544B8379921C36797888BC3C8A032F4E73EA6D927D
310
EA1DF6F42D49F2E8350D5346C666CE6CDD5ED515460A2B4BCC434A375E1078347C0FE22D5D6DE3D50B5D6F2965642CBF6B725DF96493AB958DC245EEDCD6631E809089F8E61622B2A81703E8219C913144F84C09DF070D8140C8561C9BAB8F3340832CAC363130A576376A108D933095FA747AD0CF0B46E64E983A6D0EAE1F
310
CE089F9EF1FB8E70D44255604258581E9D1D75B259C3125A278D37D80B52DAB4A279CEC62F0EFF44DDC43F9454E8469BFF5244960322CBEF41C6FBC83F01504B0304140006080800B670623B0F71DDB67E0000009D0000000B0000006662782F636E782E786D6C4DCCD10A83201886E15B91FFDCA54DB73F502386BB8F5816
310
32D3703976F9ABD1C18E3E78F87855FB990379BBFCF2296AE02706C4C5471A7C9C349475A408A4352AA7B4FEDD80C47E761A7606A3A69CCA72D0E0C6BE8475D3E0E3F3409428EA6B27A84079A782899AA2EC1A7AE3ECCC2FD858CB2D544655BFD2B67BD87C01504B0304140006080800B670623BE134B4FB28010000120200
310
00310000006662782F38353834323741342D343835462D343034322D383541392D4331303331363839454531452F636F72652E786D6C8D515B6EC32010BC0AE22B55850D0EA424C24451959EA0172086A42831583CAA1CBF503B52FB971F16CDCECC0EACD8DFC71BF836215AEF7A481A0C817183D7D65D7A98D3197108F652
310
04EFD31F1A044E8DA6871586525C82CFD3020DDE25E352419DD76601558C264130DCCAA58771F832A36A544E8511AFCDA486ABBA988634A55D7852C4144A00300FA927949C71DABD1D28A29C7D208A6987383B6CD13BC16BB2E1DBE3911C453B0BA5C8D9EA456E758963CFD684674DAA588A64C747FC2118958C86B2C3788B
310
0841B8FB247487D98EB257CC77188BB6D2FF89F2A49F1465EBD2BA5BE2CEB2082511EDDC9042FB7CBA3DC298FBE4430275DE2A9AE1054ADC60CC08E3A29D89E5F9C5714317C7987C28DFBBBA9E0A97B0D97643A568EB864AF95D5FA9759BF207504B0304140006080800B670623B1B8617914E010000330300003000000066
310
62782F38353834323741342D343835462D343034322D383541392D4331303331363839454531452F636E782E786D6CD593C16EC32010447F0571AD6CE3D489D20813A9877E410FBD62D82434182CC055F3F75D1292E692438FBD206B7698593D61BEFD1E2DF982108D773D6D6B460938E5B571FB9ECE6957AD29D90A1EBC4F
310
77364A9C1CA1A759A682EF839FA72269D8C9D92654AD71C72206887E0E0A22CAF926B15E498B01E0AA19451807D01A34B919F16B070157417138917400F2F6FA41FCF0092A45DEE414C19BDC21783E4BD39D891265658C3D8DEA00A3ACE59CBC8678ACB54CB26EEB6BD7839D7E9348BE70AD9C8321B9BCA7F9A4A26C542347
310
DEE050F09802D22BA6749A800A394DD62899107273365E3C82CFC6A55557BC06C10774B7ABE7AEC3B0F34CF06446280E154026D0542C187BA9DAB6628BF7B6DBB0E5A65B3EB1F58631DE64BBE083F7B65CC218087E22CABB042E51D1F2268F1FE12B3EA24D40D63E9CFE00120194D60B9D5BC67FE6D39CDF37E20AF817881F
310
504B0304140006080800B670623B5933D422630500003B100000340000006662782F38353834323741342D343835462D343034322D383541392D4331303331363839454531452F6F626A656374732E786D6CAD575B6FA33814FE2B887D0642934E9B156594264D158D3A534DD4D13E548A0C38942D60649B4EBABF7E3F8321
310
40924EF6928780CDF1B97EE762EFF32E4B8D37CA45C2F21BD3B547A641F39045491EDF98A5DC5AD7A6F1D9F73863B243661A39C9E88DA9B64DDF8B392B0BBD15D12D295339D85DDEFE618890E6D434C2940871638AF08566C426A5641115AF764424B1E3EDCE76ED9AB0CF36E6A47819302D08A7B984A6D8CFC1C5A89572FB
310
CB91E9F89EA3BEFB9EFAD754E3D3544E654F5F7E920B49F2F040D880CDD89D2CEE2E2EA7D6E56432B6269F2E5CEB7679BBB0DCABF168FE693E9FCEEEA6102C240727AD09A75BD3BF876F78127A4EFDA9D5582B7E4CA590E5390D2BFB6161A5B3E618D182E611E2985001691DAB47FDA5AB7CD3F93C566B2DB2BB7D9E55DD13
310
1D468DEECDB3AB290BFE8409E21C54704115AA6AFF68436BFC8DF65E0B184BF5B74418199194272435D224E084BF9B3E481589EFF5D828747285706581E9BB7B7E5D5D911ABFC6EE312DB7659A2A689A7E85EC0DF04FA5A8344BFEA2FCB834E8845895492EAFB541F2BDA0A63FF59C6AD3F7D4637CA13FD68E34B629891172
310
98597F1D183A57B9B75A98FE9765B05BAB7C3C2EBCE0ACA05C2AF8005A4DE09AA7F29216EB9E15397500C6F47CBE77CA7778FE2BD277AF0AE2C693DD6437D1522427B9D8329E2136F6A8FA19A3E6C56ADF0E5F50CF06D48734EDCEBF22F69C56D97EC138153F804B85E6FABFC7AFEFB32E523BE1F3BD372418E363EDCA7548
310
52949E8724474014288D94610BB57C1BEC4C7F854A89CA8E5324F55B871CBC78CE1BBEE3BFE68D6A5589EF3C730474506FCFA8FCF0659516D0ED04580EEA6425581B77CAE797FF4BCECC16EB2FEB926F49481F746159D06D922712BD730FDEAE42BD40F42C7AA5EF3F198F60E86110D6DD20645A9480B795CF95E3E3A659A8
310
C55E724F408873315335CFFB8584874484344D494E59D94869DB90C26A5B64F49C802CAC1D3ABE18A098D3B7444D123D8A9E5AE8F5214F0AE5B2B6E9B575DA3E61CBD3EA2B4009FA940524DD1305FB6A1FB294F14DF0BEA90BA109ECE1481FDC3FFAE8D60E75141700BE82725371B4873751B2DD960265F788137FACE6DD40
310
B575E4F0A5C99F46629D92131467A41EE11ABD8D4CCC039CA0AFB37C93A08B232B8F0AEFCA1E0A1015DF13FC83322B362463652ECF71D3A8B1A7D1BE65DE1D62C44F22C317D35F574FEB16153BA2D13E543D10A80E74C4A65E78A6B7CBCBD1D5DD9DB59C2DAFACC96C3AB566E3F1C29ADCDD5DBAD7D3C9ED7C822ED74F80A6
310
41755310DE4443F44A9E68373FADF6596BFA0F440AE7BECE2727AE9F4F2B1B53B1E7E00CF0DD1E5C65454A339A4BA2D0FBA05ED2EF0443458F47BDBFCA484CCFE0F2ED7E3DD0013B679C7B5499467F0ECEEADDB9CA85A34CE44B99053949D2C1416DB85DE4B136BB7165FBAC0B7AB3542BED4F8CA182A549847A1319316519
310
95A83A67147B9E5101C47487F2485F1ECE38FD568F839204296D3479219888530154036E6528FBFBC66F98E0D4107563A2D7D9AFF8D389681A08F58D89F22693900A3B407754734FC51C10C010D6D640809EE4718AC1BA3ED4AEDB53CA37283F68805A7E4B72CEB0A4EDEAD5DD8C14059A76AFAA56BA6901E13F32BC51C720
310
12AF41295B5BF61BAD3195181FB506E6B40F4C10AF5AF40EF9F5B159AE5DD1F43C72D635E94310D45C2D49785C5D0B94D3B54AB3C5A38349C0587D338AB48C11CBF339599C02CCA54A70A008A8D03C0B2201D5F9EFCF8F9CE12A9A19CB0410789EB32C63B95ECCF455D658BFE0621A3DA32C5075FB101723D77DAE867E7D0F
310
D90444509B44E2151B4DC2290B065803200FBAA9BE9D392A0603F2D5C2D00D6302A615680F66D2FA166E2079D4C551A54AB758161FCEFD4E450A14704CECFEDF504B0304140006080000B670623B000000000000000000000000350000006662782F38353834323741342D343835462D343034322D383541392D4331303331
310
363839454531452F76657274696365732E62696E504B0304140006080800B670623BF270F1330600000004000000360000006662782F38353834323741342D343835462D343034322D383541392D4331303331363839454531452F747269616E676C65732E62696E636660600000504B0304140006080000B670623B000000
310
000000000000000000370000006662782F38353834323741342D343835462D343034322D383541392D4331303331363839454531452F617474726962757465732E62696E504B0304140006080800B670623B08DA0BD19000000041010000360000006662782F38353834323741342D343835462D343034322D383541392D43
310
31303331363839454531452F6469726563746F72792E786D6C858F410AC3201045AF22B36F53E9A60B35CBEEBAE80D244E44489C6234F4F835464A48035D0DF398FF9F8AF63D0E6CC63039F212F8F9020C7D47C6792B21C5FE7403D62A1188E2E60C98D7234A5830286103A55745067B9D86B8A3CF9C7F90C11DE607FB1443
310
96D7B6A82D282E9A152AD114D5EF2CB866EEE831B8EEA07A7BB5A8D7D61A2BAAEB7FD5F70921FF497D00504B0304140006080800B670623BD9A3B367FE000000A00100003B0000006662782F38353834323741342D343835462D343034322D383541392D4331303331363839454531452F7265736F75726365732F636F7265
310
2E786D6C8D504B6E833010BD0A9A6D65B01D0201194711694FD00B586642AD043BF2A7EAF16B122AB5BB6E6646EFA3797AE2F8B5DC8A4FF4C1383B002B291468B59B8C9D0748F1420E501CA5F0CEC55F3228AC5A708015062966EFD27D83B4B3116DCCA875136EA00A012314FA968F0182FEC045952AC5AC08D7F2AEF455CD
310
58B232D3592745883E07289E4FD609D26370C96B0CA27AB252A464A64D63A6FCD35C0C7A904D73EE467EE664DCD58CD4ED4849D79C5A723ED1B7A61977AF2D6F45B59AA58866F9C9A83DAA8813484E6947182394BFB3BAA7FBBEDEBFD0434FA9A856F91F53BA4FFF342563E38E6F719FB60092E5200F428A6AED2BAF479979
310
AFDDCA6F504B010214000A0000080000B670623B3DEE336E79000000790000001B00000000000000000000000000000000006175746F6465736B2D64657369676E2D7061636B6167652E786D6C504B01021400140006080800B670623BD486FD9CA0000000F40000001300000000000000000000000000B20000005B436F6E
310
74656E745F54797065735D2E786D6C504B01021400140006080800B670623BCA089DFFEC0000007C010000080000000000000000000000000083010000636F72652E786D6C504B01021400140006080800B670623B55019EA25F0000007C000000070000000000000000000000000095020000636E782E786D6C504B010214
310
00140006080800B670623B68FC0B7272010000D40300000C00000000000000000000000000190300006662782F636F72652E786D6C504B01021400140006080800B670623B0F71DDB67E0000009D0000000B00000000000000000000000000B50400006662782F636E782E786D6C504B01021400140006080800B670623BE1
310
34B4FB280100001202000031000000000000000000000000005C0500006662782F38353834323741342D343835462D343034322D383541392D4331303331363839454531452F636F72652E786D6C504B01021400140006080800B670623B1B8617914E010000330300003000000000000000000000000000D3060000666278
310
2F38353834323741342D343835462D343034322D383541392D4331303331363839454531452F636E782E786D6C504B01021400140006080800B670623B5933D422630500003B10000034000000000000000000000000006F0800006662782F38353834323741342D343835462D343034322D383541392D4331303331363839
310
454531452F6F626A656374732E786D6C504B01021400140006080000B670623B0000000000000000000000003500000000000000000000000000240E00006662782F38353834323741342D343835462D343034322D383541392D4331303331363839454531452F76657274696365732E62696E504B01021400140006080800
310
B670623BF270F13306000000040000003600000000000000000000000000770E00006662782F38353834323741342D343835462D343034322D383541392D4331303331363839454531452F747269616E676C65732E62696E504B01021400140006080000B670623B0000000000000000000000003700000000000000000000
310
000000D10E00006662782F38353834323741342D343835462D343034322D383541392D4331303331363839454531452F617474726962757465732E62696E504B01021400140006080800B670623B08DA0BD190000000410100003600000000000000000000000000260F00006662782F38353834323741342D343835462D34
310
3034322D383541392D4331303331363839454531452F6469726563746F72792E786D6C504B01021400140006080800B670623BD9A3B367FE000000A00100003B000000000000000000000000000A1000006662782F38353834323741342D343835462D343034322D383541392D4331303331363839454531452F7265736F75
310
726365732F636F72652E786D6C504B0506000000000E000E0080040000611100000000
  0
XRECORD
  5
113
102
{ACAD_REACTORS
330
110
102
}
330
110
100
AcDbXrecord
280
     1
270
     1
271
     1
  0
XRECORD
  5
114
102
{ACAD_REACTORS
330
110
102
}
330
110
100
AcDbXrecord
280
     1
270
     1
271
     1
  0
XRECORD
  5
683
102
{ACAD_REACTORS
330
682
102
}
330
682
100
AcDbXrecord
280
     1
102
DISPLAYNAME
  1
Imperial24
102
FLAGS
 90
        0
  0
CELLSTYLEMAP
  5
678
102
{ACAD_REACTORS
330
104
102
}
330
104
100
AcDbCellStyleMap
 90
        3
300
CELLSTYLE
  1
TABLEFORMAT_BEGIN
 90
        5
170
     1
 91
        0
 92
    32768
 62
   257
 93
        1
300
CONTENTFORMAT
  1
CONTENTFORMAT_BEGIN
 90
        0
 91
        0
 92
      512
 93
        0
300

 40
0.0
140
1.0
 94
        5
 62
     0
340
11
144
0.25
309
CONTENTFORMAT_END
171
     1
301
MARGIN
  1
CELLMARGIN_BEGIN
 40
0.06
 40
0.06
 40
0.06
 40
0.06
 40
0.18
 40
0.18
309
CELLMARGIN_END
 94
        6
 95
        1
302
GRIDFORMAT
  1
GRIDFORMAT_BEGIN
 90
        0
 91
        1
 62
     0
 92
       -2
340
0
 93
        0
 40
0.045
309
GRIDFORMAT_END
 95
        2
302
GRIDFORMAT
  1
GRIDFORMAT_BEGIN
 90
        0
 91
        1
 62
     0
 92
       -2
340
0
 93
        0
 40
0.045
309
GRIDFORMAT_END
 95
        4
302
GRIDFORMAT
  1
GRIDFORMAT_BEGIN
 90
        0
 91
        1
 62
     0
 92
       -2
340
0
 93
        0
 40
0.045
309
GRIDFORMAT_END
 95
        8
302
GRIDFORMAT
  1
GRIDFORMAT_BEGIN
 90
        0
 91
        1
 62
     0
 92
       -2
340
0
 93
        0
 40
0.045
309
GRIDFORMAT_END
 95
       16
302
GRIDFORMAT
  1
GRIDFORMAT_BEGIN
 90
        0
 91
        1
 62
     0
 92
       -2
340
0
 93
        0
 40
0.045
309
GRIDFORMAT_END
 95
       32
302
GRIDFORMAT
  1
GRIDFORMAT_BEGIN
 90
        0
 91
        1
 62
     0
 92
       -2
340
0
 93
        0
 40
0.045
309
GRIDFORMAT_END
309
TABLEFORMAT_END
  1
CELLSTYLE_BEGIN
 90
        1
 91
        1
300
_TITLE
309
CELLSTYLE_END
300
CELLSTYLE
  1
TABLEFORMAT_BEGIN
 90
        5
170
     1
 91
        0
 92
        0
 62
   257
 93
        1
300
CONTENTFORMAT
  1
CONTENTFORMAT_BEGIN
 90
        0
 91
        0
 92
      512
 93
        0
300

 40
0.0
140
1.0
 94
        5
 62
     0
340
11
144
0.18
309
CONTENTFORMAT_END
171
     1
301
MARGIN
  1
CELLMARGIN_BEGIN
 40
0.06
 40
0.06
 40
0.06
 40
0.06
 40
0.18
 40
0.18
309
CELLMARGIN_END
 94
        6
 95
        1
302
GRIDFORMAT
  1
GRIDFORMAT_BEGIN
 90
        0
 91
        1
 62
     0
 92
       -2
340
0
 93
        0
 40
0.045
309
GRIDFORMAT_END
 95
        2
302
GRIDFORMAT
  1
GRIDFORMAT_BEGIN
 90
        0
 91
        1
 62
     0
 92
       -2
340
0
 93
        0
 40
0.045
309
GRIDFORMAT_END
 95
        4
302
GRIDFORMAT
  1
GRIDFORMAT_BEGIN
 90
        0
 91
        1
 62
     0
 92
       -2
340
0
 93
        0
 40
0.045
309
GRIDFORMAT_END
 95
        8
302
GRIDFORMAT
  1
GRIDFORMAT_BEGIN
 90
        0
 91
        1
 62
     0
 92
       -2
340
0
 93
        0
 40
0.045
309
GRIDFORMAT_END
 95
       16
302
GRIDFORMAT
  1
GRIDFORMAT_BEGIN
 90
        0
 91
        1
 62
     0
 92
       -2
340
0
 93
        0
 40
0.045
309
GRIDFORMAT_END
 95
       32
302
GRIDFORMAT
  1
GRIDFORMAT_BEGIN
 90
        0
 91
        1
 62
     0
 92
       -2
340
0
 93
        0
 40
0.045
309
GRIDFORMAT_END
309
TABLEFORMAT_END
  1
CELLSTYLE_BEGIN
 90
        2
 91
        1
300
_HEADER
309
CELLSTYLE_END
300
CELLSTYLE
  1
TABLEFORMAT_BEGIN
 90
        5
170
     1
 91
        0
 92
        0
 62
   257
 93
        1
300
CONTENTFORMAT
  1
CONTENTFORMAT_BEGIN
 90
        0
 91
        0
 92
      512
 93
        0
300

 40
0.0
140
1.0
 94
        2
 62
     0
340
11
144
0.18
309
CONTENTFORMAT_END
171
     1
301
MARGIN
  1
CELLMARGIN_BEGIN
 40
0.06
 40
0.06
 40
0.06
 40
0.06
 40
0.18
 40
0.18
309
CELLMARGIN_END
 94
        6
 95
        1
302
GRIDFORMAT
  1
GRIDFORMAT_BEGIN
 90
        0
 91
        1
 62
     0
 92
       -2
340
0
 93
        0
 40
0.045
309
GRIDFORMAT_END
 95
        2
302
GRIDFORMAT
  1
GRIDFORMAT_BEGIN
 90
        0
 91
        1
 62
     0
 92
       -2
340
0
 93
        0
 40
0.045
309
GRIDFORMAT_END
 95
        4
302
GRIDFORMAT
  1
GRIDFORMAT_BEGIN
 90
        0
 91
        1
 62
     0
 92
       -2
340
0
 93
        0
 40
0.045
309
GRIDFORMAT_END
 95
        8
302
GRIDFORMAT
  1
GRIDFORMAT_BEGIN
 90
        0
 91
        1
 62
     0
 92
       -2
340
0
 93
        0
 40
0.045
309
GRIDFORMAT_END
 95
       16
302
GRIDFORMAT
  1
GRIDFORMAT_BEGIN
 90
        0
 91
        1
 62
     0
 92
       -2
340
0
 93
        0
 40
0.045
309
GRIDFORMAT_END
 95
       32
302
GRIDFORMAT
  1
GRIDFORMAT_BEGIN
 90
        0
 91
        1
 62
     0
 92
       -2
340
0
 93
        0
 40
0.045
309
GRIDFORMAT_END
309
TABLEFORMAT_END
  1
CELLSTYLE_BEGIN
 90
        3
 91
        2
300
_DATA
309
CELLSTYLE_END
  0
ENDSEC
  0
SECTION
  2
ACDSDATA
 70
     2
 71
     8
  0
ACDSSCHEMA
 90
        0
  1
AcDb_Thumbnail_Schema
  2
AcDbDs::ID
280
    10
 91
        8
  2
Thumbnail_Data
280
    15
 91
        0
101
ACDSRECORD
 95
        0
 90
        1
  2
AcDbDs::TreatedAsObjectData
280
     1
291
     1
101
ACDSRECORD
 95
        0
 90
        2
  2
AcDbDs::Legacy
280
     1
291
     1
101
ACDSRECORD
  1
AcDbDs::ID
 90
        3
  2
AcDs:Indexable
280
     1
291
     1
101
ACDSRECORD
  1
AcDbDs::ID
 90
        4
  2
AcDbDs::HandleAttribute
280
     7
282
     1
  0
ACDSSCHEMA
 90
        1
  1
AcDbDs::TreatedAsObjectDataSchema
  2
AcDbDs::TreatedAsObjectData
280
     1
 91
        0
  0
ACDSSCHEMA
 90
        2
  1
AcDbDs::LegacySchema
  2
AcDbDs::Legacy
280
     1
 91
        0
  0
ACDSSCHEMA
 90
        3
  1
AcDbDs::IndexedPropertySchema
  2
AcDs:Indexable
280
     1
 91
        0
  0
ACDSSCHEMA
 90
        4
  1
AcDbDs::HandleAttributeSchema
  2
AcDbDs::HandleAttribute
280
     7
 91
        1
284
     1
  0
ACDSRECORD
 90
        0
  2
AcDbDs::ID
280
    10
320
59
  2
Thumbnail_Data
280
    15
 94
     2115
310
89504E470D0A1A0A0000000D4948445200000100000000C508030000008CFEDCE700000300504C5445FFFFFFFFFFFFFFFFFF0000000000000000000000000000000000000000000000000000330000660000990000CC0000FF0033000033330033660033990033CC0033FF0066000066330066660066990066CC0066FF0099
310
000099330099660099990099CC0099FF00CC0000CC3300CC6600CC9900CCCC00CCFF00FF0000FF3300FF6600FF9900FFCC00FFFF3300003300333300663300993300CC3300FF3333003333333333663333993333CC3333FF3366003366333366663366993366CC3366FF3399003399333399663399993399CC3399FF33CC00
310
33CC3333CC6633CC9933CCCC33CCFF33FF0033FF3333FF6633FF9933FFCC33FFFF6600006600336600666600996600CC6600FF6633006633336633666633996633CC6633FF6666006666336666666666996666CC6666FF6699006699336699666699996699CC6699FF66CC0066CC3366CC6666CC9966CCCC66CCFF66FF0066
310
FF3366FF6666FF9966FFCC66FFFF9900009900339900669900999900CC9900FF9933009933339933669933999933CC9933FF9966009966339966669966999966CC9966FF9999009999339999669999999999CC9999FF99CC0099CC3399CC6699CC9999CCCC99CCFF99FF0099FF3399FF6699FF9999FFCC99FFFFCC0000CC00
310
33CC0066CC0099CC00CCCC00FFCC3300CC3333CC3366CC3399CC33CCCC33FFCC6600CC6633CC6666CC6699CC66CCCC66FFCC9900CC9933CC9966CC9999CC99CCCC99FFCCCC00CCCC33CCCC66CCCC99CCCCCCCCCCFFCCFF00CCFF33CCFF66CCFF99CCFFCCCCFFFFFF0000FF0033FF0066FF0099FF00CCFF00FFFF3300FF3333
310
FF3366FF3399FF33CCFF33FFFF6600FF6633FF6666FF6699FF66CCFF66FFFF9900FF9933FF9966FF9999FF99CCFF99FFFFCC00FFCC33FFCC66FFCC99FFCCCCFFCCFFFFFF00FFFF33FFFF66FFFF99FFFFCCFFFFFF0000000D0D0D1A1A1A2828283535354343435050505D5D5D6B6B6B787878868686939393A1A1A1AEAEAEBB
310
BBBBC9C9C9D6D6D6E4E4E4F1F1F1FFFFFF000000000000000000000000000000000000000000000000000000000000AD4AB4E4000004C54944415478DAED9D4972C3201045FBFEC7FCEB6CB8412A766C09310F2D317C164A956C61F1D4FD1B5A40E467F3225B170220000220805701F03A6C75B400D0050860B3B2BD0B1000
310
01300A300A300A5003088000180518051805A80104100680F94B2380459E74B50812C0B200B67701026014C80430BB01B48A2001AC0A607B17200002601460146014A0061040670091BE77C5AD8300DA9B7BB308F600000700C601806E0010F9E45DC7A7AA8C2AE1DC2E945C407F98EEFD8D6C6F7199F506A09EA8F17D9203
310
20C46C1300194E4100B78820017400D0A5B2395DA02174DCD513D4B600BC7A01B00F120490C16B2E005663AF2D71AFB2BE71FEFB5FD19416E03D1702709C0E3ACC64228870F71ACE170E247E755805C0D798FB0298C705D200FE3C7E7E00280570F8841B1FDE4A782B80D2200DAFAB233DD4F101105F809C0C00A2007C166D
310
07C15065CA22783C129C62512D80B00BC007E06C01C1CAEE037084DDDE00CEDEE107800A007D5CC0FBBC55004434004B00885EFAB600D8F12E39485201D096EEAB0520A7C1913D701084E5F7B17E40FD9762ECF0B676EB44B4FD2A22A89CEB880280D822F119F4C5EFA30B0067CCD9252DEE731B488200AECA00A90450E602
310
283108143FEB239D9F021625A207E0F4C2055D005CEAA97B9F96B64A050BC8695ED637902DFEC8EE5C29E60471CDC13401706A79024059144072CC5A00C0AD240520E1790726DC02407ABC1645A96CA601A00840BD0B48EA89C43F3B0F6EFBE759EE02D06E02930390A6FE8FDDB300A60450EB021805404B1468002004B0B9
310
0BC89422084D0B980200345D607C00500480C7001488204411804C00802248008A22282080DDC320C617C15200580D40910B245E8EF95D00EB680012AF2B3600201500C68F024FEDF33000004BA5145C40B9B48B602100C95811B43680C47CB161000C35162000022080BD1322044017200002D81A807995EA46C62E9F4104
310
3FF76E6A9B6FFF9D0E80719A52D5FE00C1E1274858775D05207EBDDE14992A00EE141931E7B488294EA4D897DF09A0D31C21234D008C7585C704C69E2576DCF2FFD9621530760AC2DC2282D20F80C08855A5A9F580C39E6E8802A202E075AAC60270B600E8BB40C7C9D227DDAAD5003BA95C6001A34C97375680AC8D02A20C
310
4073C18491A68E80B9B91FD07FC9CCB905C6DF71FA4F4C23D5112AEA099688A0CEA2298780311203106A8A89F6A4A75836F7BEF3C0FD1F4B01507EF9335B6AA2C2915B46C3EFEB75F301CA00C64F88E4FC103607209301E82D823866136D0AA0700B0D89487ECFB915376A40B568AE01A0A7D1A254759603D0716211014CB8
310
BDFE671D559FBD4A66FCFF023D67D6717BFDE90184770CDB0D40DDD6F58B59404700238BE09463018A2001EC08C0D1E573127D8CD480B6057CF7FEFE74602FF973C1C346A42D82D6AB027101A8AE061904808401C8F304EE70010F00FB4D12A3C0FC00A65A2846000A2248007481CD01702C9091B6B8542D9FB950CF0E09B4
310
0000626D27FFDDC235324776A9AEB07FCFDFF824E10501C8255F391380661728B5002C08E032F83B6D82FFDD81EB334092D500300C4E0FA053428400D67781E94B230099BD100001B4892001ECEE02BB4781750B01EC0E20530409802E4000044000144102A00B1000011000459000967681E3E5E62E47BA000110000110C0
310
1F809FCDCB2F731ABAD993E31F210000000049454E44AE4260820004D81540084000021020DE2748806D00B27B55D6D882790001084080ED01365FB607F80BC3923A71201E73E70000000049454E44AE426082
  0
ACDSRECORD
 90
        0
  2
AcDbDs::ID
280
    10
320
5E
  2
Thumbnail_Data
280
    15
 94
     2158
310
89504E470D0A1A0A0000000D4948445200000100000000C508030000008CFEDCE700000300504C5445FFFFFFFFFFFFFFFFFF0000000000000000000000000000000000000000000000000000330000660000990000CC0000FF0033000033330033660033990033CC0033FF0066000066330066660066990066CC0066FF0099
310
000099330099660099990099CC0099FF00CC0000CC3300CC6600CC9900CCCC00CCFF00FF0000FF3300FF6600FF9900FFCC00FFFF3300003300333300663300993300CC3300FF3333003333333333663333993333CC3333FF3366003366333366663366993366CC3366FF3399003399333399663399993399CC3399FF33CC00
310
33CC3333CC6633CC9933CCCC33CCFF33FF0033FF3333FF6633FF9933FFCC33FFFF6600006600336600666600996600CC6600FF6633006633336633666633996633CC6633FF6666006666336666666666996666CC6666FF6699006699336699666699996699CC6699FF66CC0066CC3366CC6666CC9966CCCC66CCFF66FF0066
310
FF3366FF6666FF9966FFCC66FFFF9900009900339900669900999900CC9900FF9933009933339933669933999933CC9933FF9966009966339966669966999966CC9966FF9999009999339999669999999999CC9999FF99CC0099CC3399CC6699CC9999CCCC99CCFF99FF0099FF3399FF6699FF9999FFCC99FFFFCC0000CC00
310
33CC0066CC0099CC00CCCC00FFCC3300CC3333CC3366CC3399CC33CCCC33FFCC6600CC6633CC6666CC6699CC66CCCC66FFCC9900CC9933CC9966CC9999CC99CCCC99FFCCCC00CCCC33CCCC66CCCC99CCCCCCCCCCFFCCFF00CCFF33CCFF66CCFF99CCFFCCCCFFFFFF0000FF0033FF0066FF0099FF00CCFF00FFFF3300FF3333
310
FF3366FF3399FF33CCFF33FFFF6600FF6633FF6666FF6699FF66CCFF66FFFF9900FF9933FF9966FF9999FF99CCFF99FFFFCC00FFCC33FFCC66FFCC99FFCCCCFFCCFFFFFF00FFFF33FFFF66FFFF99FFFFCCFFFFFF0000000D0D0D1A1A1A2828283535354343435050505D5D5D6B6B6B787878868686939393A1A1A1AEAEAEBB
310
BBBBC9C9C9D6D6D6E4E4E4F1F1F1FFFFFF000000000000000000000000000000000000000000000000000000000000AD4AB4E4000005294944415478DAED9D4B9A84200C8473FF63D67A36DC60BEE969150481F0508162E1A2555A7E930A4444F959BCC8D2850008800008E053007C364B6D1D0074010258AC2CEF02044000
310
8C028C028C02D4000220004601460146016A00015C03C0F8A512C02477BA580409605A00CBBB0001300A640218DD006A4590006605B0BC0B100001300A300A300A500308A031003404D6A6AEC500F8E7DC2C822D00C0AB0BEF0180660010D9F35FC95657469DF0FE1F9D5CA0FF303DF81FD9371E2EBB0E00BA276A427B7200
310
5C315B0440CC2908E04E116C01A049656302A84C70CEE002F80F827F4D454638C800361680FF767F11EC1BD100F8D6B1377D3C0057A60FFFAC53C3ED0DB6CEC0702E10FCED0AC0B68948C66051E04A1AF75DF00EC6573A2E2A9B00C0DEBF8D00801EC0382E100700B1DE007A1280761C8CF0E5A6005847381E8080DBDC0C40
310
691D08BA3AD2439DB0070402E4ED165007007100018B7683E055659D45D0CEDA1C31BC1480E8005CBB8055D97D008E8E576B005BCFEE1A4050026E7181E0ED6E0F20D81BC60167060089CBB086099E065C35B20B80BA745F3100ABA7EFDA855CB7FFB98E50F9413176DEE0761FF8459BF8C4C3D1F2EE62148027B0804090E8
310
9B3501E08E395BA5C5436E03491038758511B799762E008D41407DAF8F47202960E1EE5E770D70BA3B2D009CEA297CA096B6CAF61690D3BCAC23902DFEC8EE5CA964A5184049963E70401E00E907401705901CB32A00F895A42C20E579117BEF01405A3C16855636D300A00250EE0252150FDDF446F344D35D00E2F1376DAB
310
C303686701191EFE4E0B281441CF021E0350130512033EA4F48A002670816600861041F4B4802100A0A70BBC1F003A02C06300142208E908400600401124808E22282080D5C320DE2F825A00980D80CA0590DEEDBB00E6D1809CB7012607907A5E356614786A9D8717007054AA8305742EF522A804205A0D980E804015061F
310
03F0AAB10001100001AC9D102100BA000110C0D200CCA714373276FA0822B85D7B2901E356331C00E39150DEFE404DFD5DA0D90409E7AA4DF9FDBF3ABFDF14992200814952C64E8B187522C53DFD4E008DE608196908206002FD668955A6BFB65CA37192086A15306E0AC2DC26828D00088C9D47D29B8071738A26F0FAD030
310
003E3F9558006C0B407F17683859DAD2AD4A0D10B505BC65BABC7102642900E90CA0E70B1346AA3A02A9D3DFFFCA8C2DFC26DC71FACE25448A80D100D088609F97A6025D618901B86ACADE6CA3EA0AEBA2806E04AA1FCC45AE1FC9972622A73FB3A4A6FE94BAD170F4FC3100BC3F2192F347581C800C06A0B508E2984DB428
310
00E5121A1297FC66732B6ED48062D19C03404BA3855675A603D07062D1CC165007A06357780C0B782F806C04EFEA08BDB510C0F0002A27944E05405A0278B3080E3916A00610C08A00FCB59DECED2B5203FD0138796B2F7F2E78D8887A8BA0F3A84024FC00617200E2ACE4ED2C082F2F06D04804EDA6FAC3980500AC120570
310
7CFD48CE9FB081FD3D83D3AA975EDAEA767B680AE0B0F76D39C7FD37394460DB7B5E0A0E9BC31C078C2382C93531257E803C161DBA0390F00AA1DE01A738F93C00AD0B145BC01C00AC83EC7952F6E73FC47576F1BE09E02C8AFDBC06300CD60138E2A2580BFC2292D17D6860D4AB2B7CF2ED23DE45546232009ED05DF684DF
310
09A0DA0542AB3E3FB344C03300F60FA2C90980C01D12CA7E040743043061428400E67781E14B250019BD100001D4892001ACEE02AB4781790B01AC0E20530409802E4000044000144102A00B1000011000459000A67681E3E1E62A5BBA000110000110C01F809FC5CB2F3EE167CEB8CDEDB30000000049454E44AE426082
  0
ACDSRECORD
 90
        0
  2
AcDbDs::ID
280
    10
320
22
  2
Thumbnail_Data
280
    15
 94
     1427
310
89504E470D0A1A0A0000000D4948445200000100000000680803000000297CDED700000300504C5445212830FFFFFF2128300000000000000000000000000000000000000000000000000000330000660000990000CC0000FF0033000033330033660033990033CC0033FF0066000066330066660066990066CC0066FF0099
310
000099330099660099990099CC0099FF00CC0000CC3300CC6600CC9900CCCC00CCFF00FF0000FF3300FF6600FF9900FFCC00FFFF3300003300333300663300993300CC3300FF3333003333333333663333993333CC3333FF3366003366333366663366993366CC3366FF3399003399333399663399993399CC3399FF33CC00
310
33CC3333CC6633CC9933CCCC33CCFF33FF0033FF3333FF6633FF9933FFCC33FFFF6600006600336600666600996600CC6600FF6633006633336633666633996633CC6633FF6666006666336666666666996666CC6666FF6699006699336699666699996699CC6699FF66CC0066CC3366CC6666CC9966CCCC66CCFF66FF0066
310
FF3366FF6666FF9966FFCC66FFFF9900009900339900669900999900CC9900FF9933009933339933669933999933CC9933FF9966009966339966669966999966CC9966FF9999009999339999669999999999CC9999FF99CC0099CC3399CC6699CC9999CCCC99CCFF99FF0099FF3399FF6699FF9999FFCC99FFFFCC0000CC00
310
33CC0066CC0099CC00CCCC00FFCC3300CC3333CC3366CC3399CC33CCCC33FFCC6600CC6633CC6666CC6699CC66CCCC66FFCC9900CC9933CC9966CC9999CC99CCCC99FFCCCC00CCCC33CCCC66CCCC99CCCCCCCCCCFFCCFF00CCFF33CCFF66CCFF99CCFFCCCCFFFFFF0000FF0033FF0066FF0099FF00CCFF00FFFF3300FF3333
310
FF3366FF3399FF33CCFF33FFFF6600FF6633FF6666FF6699FF66CCFF66FFFF9900FF9933FF9966FF9999FF99CCFF99FFFFCC00FFCC33FFCC66FFCC99FFCCCCFFCCFFFFFF00FFFF33FFFF66FFFF99FFFFCCFFFFFF0000000D0D0D1A1A1A2828283535354343435050505D5D5D6B6B6B787878868686939393A1A1A1AEAEAEBB
310
BBBBC9C9C9D6D6D6E4E4E4F1F1F1FFFFFF0000000000000000000000000000000000000000000000000000000000002E4550F10000024E4944415478DAED9CC99283300C44F5FF7FEB43DF874A600063E385243472ABA65219472C7AD16613309348241249A3E066B91FC0D08717000110000110808FD7550168D0F005E065
310
D9FC82FCC1DE9FC12580428B77547006A0B45FACC3A3023884831B0055539DC70168296993EE19810C202200680580730F782920FE78F3C6002A0FB83A9547842302F0FE4B4162F68096E049025846E7B711B5A101801F4069BD0A7BD54C4A8800EC35C83D00384D8325003B0F485705560073B35E58B78C364878401C027B
310
00C421704855ED002C0A815CE1784419EC4882EBFE3611C10EA0B55744A967DA0148E55422007DD734B63E72EE3D69FBA90058ADAB1FBFF21A23C03E1780654F06569ADAA7ACAD348D0A40D6D4F4E0390020EF07B400AC6926D4D1440F0F803D047A005C4C647C006ACE717800E60C002E013001783A005C0100D8E039C014
310
020E0060F42A700A203B3648194CCE6BDC85C07D3FF76401D0EF019F5A911300DA3E00C53EC03900130001100001108033006192AA6385A3A603002F93AA08BC95820300DB45D1C5F450697FA4F9FC65F1B00C84D216ABA623009331CBBF251708FFFB770660D92C5439C0EC34A400DA2F8EFA02D075793C2C69B12A07182B
310
80FE1F488428C7DB1A49D196D455E0C23AD05CDD831D00C448A9FB800B1AC1452798F7F1EF9E23B507FCE2B61E7200DFBFC59F3E04AACDEF5C3D7775D758CFA50301F004C08607E0AD0A7CC21504604C00C387C0C301FCF2B14F022000024000E0C627C109800008005712FCF523200540000440932101B8F70C467FAEB044
310
229148241289E4F9F207EA97C069009B966C0000000049454E44AE426082
  0
ENDSEC
  0
EOF
