  0
SECTION
  2
HEADER
  9
$ACADVER
  1
AC1027
  9
$ACADMAINTVER
 70
   125
  9
$DWGCODEPAGE
  3
ANSI_1252
  9
$LASTSAVEDBY
  1
Josburn
  9
$REQUIREDVERSIONS
160
                 0
  9
$INSBASE
 10
0.0
 20
0.0
 30
0.0
  9
$EXTMIN
 10
13.70290353678444
 20
3.244394265200639
 30
-897.6258961736311
  9
$EXTMAX
 10
145.4982034615121
 20
95.47509057489447
 30
825.8200401985615
  9
$LIMMIN
 10
0.0
 20
0.0
  9
$LIMMAX
 10
12.0
 20
9.0
  9
$ORTHOMODE
 70
     1
  9
$REGENMODE
 70
     1
  9
$FILLMODE
 70
     1
  9
$QTEXTMODE
 70
     0
  9
$MIRRTEXT
 70
     0
  9
$LTSCALE
 40
1.0
  9
$ATTMODE
 70
     1
  9
$TEXTSIZE
 40
0.2
  9
$TRACEWID
 40
0.05
  9
$TEXTSTYLE
  7
Standard
  9
$CLAYER
  8
0
  9
$CELTYPE
  6
ByLayer
  9
$CECOLOR
 62
   256
  9
$CELTSCALE
 40
1.0
  9
$DISPSILH
 70
     0
  9
$DIMSCALE
 40
1.0
  9
$DIMASZ
 40
0.18
  9
$DIMEXO
 40
0.0625
  9
$DIMDLI
 40
0.38
  9
$DIMRND
 40
0.0
  9
$DIMDLE
 40
0.0
  9
$DIMEXE
 40
0.18
  9
$DIMTP
 40
0.0
  9
$DIMTM
 40
0.0
  9
$DIMTXT
 40
0.18
  9
$DIMCEN
 40
0.09
  9
$DIMTSZ
 40
0.0
  9
$DIMTOL
 70
     0
  9
$DIMLIM
 70
     0
  9
$DIMTIH
 70
     1
  9
$DIMTOH
 70
     1
  9
$DIMSE1
 70
     0
  9
$DIMSE2
 70
     0
  9
$DIMTAD
 70
     0
  9
$DIMZIN
 70
     0
  9
$DIMBLK
  1

  9
$DIMASO
 70
     1
  9
$DIMSHO
 70
     1
  9
$DIMPOST
  1

  9
$DIMAPOST
  1

  9
$DIMALT
 70
     0
  9
$DIMALTD
 70
     2
  9
$DIMALTF
 40
25.4
  9
$DIMLFAC
 40
1.0
  9
$DIMTOFL
 70
     0
  9
$DIMTVP
 40
0.0
  9
$DIMTIX
 70
     0
  9
$DIMSOXD
 70
     0
  9
$DIMSAH
 70
     0
  9
$DIMBLK1
  1

  9
$DIMBLK2
  1

  9
$DIMSTYLE
  2
Standard
  9
$DIMCLRD
 70
     0
  9
$DIMCLRE
 70
     0
  9
$DIMCLRT
 70
     0
  9
$DIMTFAC
 40
1.0
  9
$DIMGAP
 40
0.09
  9
$DIMJUST
 70
     0
  9
$DIMSD1
 70
     0
  9
$DIMSD2
 70
     0
  9
$DIMTOLJ
 70
     1
  9
$DIMTZIN
 70
     0
  9
$DIMALTZ
 70
     0
  9
$DIMALTTZ
 70
     0
  9
$DIMUPT
 70
     0
  9
$DIMDEC
 70
     4
  9
$DIMTDEC
 70
     4
  9
$DIMALTU
 70
     2
  9
$DIMALTTD
 70
     2
  9
$DIMTXSTY
  7
Standard
  9
$DIMAUNIT
 70
     0
  9
$DIMADEC
 70
     0
  9
$DIMALTRND
 40
0.0
  9
$DIMAZIN
 70
     0
  9
$DIMDSEP
 70
    46
  9
$DIMATFIT
 70
     3
  9
$DIMFRAC
 70
     0
  9
$DIMLDRBLK
  1

  9
$DIMLUNIT
 70
     2
  9
$DIMLWD
 70
    -2
  9
$DIMLWE
 70
    -2
  9
$DIMTMOVE
 70
     0
  9
$DIMFXL
 40
1.0
  9
$DIMFXLON
 70
     0
  9
$DIMJOGANG
 40
0.7853981633974483
  9
$DIMTFILL
 70
     0
  9
$DIMTFILLCLR
 70
     0
  9
$DIMARCSYM
 70
     0
  9
$DIMLTYPE
  6

  9
$DIMLTEX1
  6

  9
$DIMLTEX2
  6

  9
$DIMTXTDIRECTION
 70
     0
  9
$LUNITS
 70
     2
  9
$LUPREC
 70
     4
  9
$SKETCHINC
 40
0.1
  9
$FILLETRAD
 40
0.75
  9
$AUNITS
 70
     0
  9
$AUPREC
 70
     0
  9
$MENU
  1
.
  9
$ELEVATION
 40
0.0
  9
$PELEVATION
 40
0.0
  9
$THICKNESS
 40
0.0
  9
$LIMCHECK
 70
     0
  9
$CHAMFERA
 40
0.0
  9
$CHAMFERB
 40
0.0
  9
$CHAMFERC
 40
0.0
  9
$CHAMFERD
 40
0.0
  9
$SKPOLY
 70
     0
  9
$TDCREATE
 40
2458611.672094908
  9
$TDUCREATE
 40
2458611.838761574
  9
$TDUPDATE
 40
2458613.572743056
  9
$TDUUPDATE
 40
2458613.739409722
  9
$TDINDWG
 40
0.1872916667
  9
$TDUSRTIMER
 40
0.1872916667
  9
$USRTIMER
 70
     1
  9
$ANGBASE
 50
0.0
  9
$ANGDIR
 70
     0
  9
$PDMODE
 70
     0
  9
$PDSIZE
 40
0.0
  9
$PLINEWID
 40
0.0
  9
$SPLFRAME
 70
     0
  9
$SPLINETYPE
 70
     6
  9
$SPLINESEGS
 70
     8
  9
$HANDSEED
  5
195F
  9
$SURFTAB1
 70
     6
  9
$SURFTAB2
 70
     6
  9
$SURFTYPE
 70
     6
  9
$SURFU
 70
     6
  9
$SURFV
 70
     6
  9
$UCSBASE
  2

  9
$UCSNAME
  2

  9
$UCSORG
 10
0.0
 20
0.0
 30
0.0
  9
$UCSXDIR
 10
1.0
 20
0.0
 30
0.0
  9
$UCSYDIR
 10
0.0
 20
1.0
 30
0.0
  9
$UCSORTHOREF
  2

  9
$UCSORTHOVIEW
 70
     0
  9
$UCSORGTOP
 10
0.0
 20
0.0
 30
0.0
  9
$UCSORGBOTTOM
 10
0.0
 20
0.0
 30
0.0
  9
$UCSORGLEFT
 10
0.0
 20
0.0
 30
0.0
  9
$UCSORGRIGHT
 10
0.0
 20
0.0
 30
0.0
  9
$UCSORGFRONT
 10
0.0
 20
0.0
 30
0.0
  9
$UCSORGBACK
 10
0.0
 20
0.0
 30
0.0
  9
$PUCSBASE
  2

  9
$PUCSNAME
  2

  9
$PUCSORG
 10
0.0
 20
0.0
 30
0.0
  9
$PUCSXDIR
 10
1.0
 20
0.0
 30
0.0
  9
$PUCSYDIR
 10
0.0
 20
1.0
 30
0.0
  9
$PUCSORTHOREF
  2

  9
$PUCSORTHOVIEW
 70
     0
  9
$PUCSORGTOP
 10
0.0
 20
0.0
 30
0.0
  9
$PUCSORGBOTTOM
 10
0.0
 20
0.0
 30
0.0
  9
$PUCSORGLEFT
 10
0.0
 20
0.0
 30
0.0
  9
$PUCSORGRIGHT
 10
0.0
 20
0.0
 30
0.0
  9
$PUCSORGFRONT
 10
0.0
 20
0.0
 30
0.0
  9
$PUCSORGBACK
 10
0.0
 20
0.0
 30
0.0
  9
$USERI1
 70
     0
  9
$USERI2
 70
     0
  9
$USERI3
 70
     0
  9
$USERI4
 70
     0
  9
$USERI5
 70
     0
  9
$USERR1
 40
0.0
  9
$USERR2
 40
0.0
  9
$USERR3
 40
0.0
  9
$USERR4
 40
0.0
  9
$USERR5
 40
0.0
  9
$WORLDVIEW
 70
     1
  9
$SHADEDGE
 70
     3
  9
$SHADEDIF
 70
    70
  9
$TILEMODE
 70
     1
  9
$MAXACTVP
 70
    64
  9
$PINSBASE
 10
0.0
 20
0.0
 30
0.0
  9
$PLIMCHECK
 70
     0
  9
$PEXTMIN
 10
0.0
 20
0.0
 30
0.0
  9
$PEXTMAX
 10
0.0
 20
0.0
 30
0.0
  9
$PLIMMIN
 10
0.0
 20
0.0
  9
$PLIMMAX
 10
12.0
 20
9.0
  9
$UNITMODE
 70
     0
  9
$VISRETAIN
 70
     1
  9
$PLINEGEN
 70
     0
  9
$PSLTSCALE
 70
     1
  9
$TREEDEPTH
 70
  3020
  9
$CMLSTYLE
  2
Standard
  9
$CMLJUST
 70
     0
  9
$CMLSCALE
 40
1.0
  9
$PROXYGRAPHICS
 70
     1
  9
$MEASUREMENT
 70
     0
  9
$CELWEIGHT
370
    -1
  9
$ENDCAPS
280
     0
  9
$JOINSTYLE
280
     0
  9
$LWDISPLAY
290
     0
  9
$INSUNITS
 70
     1
  9
$HYPERLINKBASE
  1

  9
$STYLESHEET
  1

  9
$XEDIT
290
     1
  9
$CEPSNTYPE
380
     0
  9
$PSTYLEMODE
290
     1
  9
$FINGERPRINTGUID
  2
{9A6D4CDA-AE10-D94C-8AB5-1DDB46BBCFFD}
  9
$VERSIONGUID
  2
{03C63695-DC40-9442-9A59-3B3A92300B7E}
  9
$EXTNAMES
290
     1
  9
$PSVPSCALE
 40
0.0
  9
$OLESTARTUP
290
     0
  9
$SORTENTS
280
   127
  9
$INDEXCTL
280
     0
  9
$HIDETEXT
280
     1
  9
$XCLIPFRAME
280
     2
  9
$HALOGAP
280
     0
  9
$OBSCOLOR
 70
   257
  9
$OBSLTYPE
280
     0
  9
$INTERSECTIONDISPLAY
280
     0
  9
$INTERSECTIONCOLOR
 70
   257
  9
$DIMASSOC
280
     2
  9
$PROJECTNAME
  1

  9
$CAMERADISPLAY
290
     0
  9
$LENSLENGTH
 40
50.0
  9
$CAMERAHEIGHT
 40
0.0
  9
$STEPSPERSEC
 40
2.0
  9
$STEPSIZE
 40
6.0
  9
$3DDWFPREC
 40
2.0
  9
$PSOLWIDTH
 40
0.25
  9
$PSOLHEIGHT
 40
4.0
  9
$LOFTANG1
 40
1.570796326794896
  9
$LOFTANG2
 40
1.570796326794896
  9
$LOFTMAG1
 40
0.0
  9
$LOFTMAG2
 40
0.0
  9
$LOFTPARAM
 70
     7
  9
$LOFTNORMALS
280
     1
  9
$LATITUDE
 40
37.795
  9
$LONGITUDE
 40
-122.394
  9
$NORTHDIRECTION
 40
0.0
  9
$TIMEZONE
 70
 -8000
  9
$LIGHTGLYPHDISPLAY
280
     1
  9
$TILEMODELIGHTSYNCH
280
     1
  9
$CMATERIAL
347
96
  9
$SOLIDHIST
280
     0
  9
$SHOWHIST
280
     1
  9
$DWFFRAME
280
     2
  9
$DGNFRAME
280
     0
  9
$REALWORLDSCALE
290
     1
  9
$INTERFERECOLOR
 62
     1
  9
$INTERFEREOBJVS
345
A3
  9
$INTERFEREVPVS
346
A0
  9
$CSHADOW
280
     0
  9
$SHADOWPLANELOCATION
 40
0.0
  0
ENDSEC
  0
SECTION
  2
CLASSES
  0
CLASS
  1
ACDBDICTIONARYWDFLT
  2
AcDbDictionaryWithDefault
  3
ObjectDBX Classes
 90
        0
 91
        1
280
     0
281
     0
  0
CLASS
  1
DICTIONARYVAR
  2
AcDbDictionaryVar
  3
ObjectDBX Classes
 90
        0
 91
       18
280
     0
281
     0
  0
CLASS
  1
TABLESTYLE
  2
AcDbTableStyle
  3
ObjectDBX Classes
 90
     4095
 91
        1
280
     0
281
     0
  0
CLASS
  1
MATERIAL
  2
AcDbMaterial
  3
ObjectDBX Classes
 90
     1153
 91
        3
280
     0
281
     0
  0
CLASS
  1
VISUALSTYLE
  2
AcDbVisualStyle
  3
ObjectDBX Classes
 90
     4095
 91
       24
280
     0
281
     0
  0
CLASS
  1
SCALE
  2
AcDbScale
  3
ObjectDBX Classes
 90
     1153
 91
       33
280
     0
281
     0
  0
CLASS
  1
MLEADERSTYLE
  2
AcDbMLeaderStyle
  3
ACDB_MLEADERSTYLE_CLASS
 90
     4095
 91
        2
280
     0
281
     0
  0
CLASS
  1
CELLSTYLEMAP
  2
AcDbCellStyleMap
  3
ObjectDBX Classes
 90
     1152
 91
        1
280
     0
281
     0
  0
CLASS
  1
EXACXREFPANELOBJECT
  2
ExAcXREFPanelObject
  3
EXAC_ESW
 90
     1025
 91
        0
280
     0
281
     0
  0
CLASS
  1
NPOCOLLECTION
  2
AcDbImpNonPersistentObjectsCollection
  3
ObjectDBX Classes
 90
     1153
 91
        0
280
     0
281
     0
  0
CLASS
  1
LAYER_INDEX
  2
AcDbLayerIndex
  3
ObjectDBX Classes
 90
        0
 91
        0
280
     0
281
     0
  0
CLASS
  1
SPATIAL_INDEX
  2
AcDbSpatialIndex
  3
ObjectDBX Classes
 90
        0
 91
        0
280
     0
281
     0
  0
CLASS
  1
IDBUFFER
  2
AcDbIdBuffer
  3
ObjectDBX Classes
 90
        0
 91
        0
280
     0
281
     0
  0
CLASS
  1
ACDBSECTIONVIEWSTYLE
  2
AcDbSectionViewStyle
  3
ObjectDBX Classes
 90
     1025
 91
        1
280
     0
281
     0
  0
CLASS
  1
ACDBDETAILVIEWSTYLE
  2
AcDbDetailViewStyle
  3
ObjectDBX Classes
 90
     1025
 91
        1
280
     0
281
     0
  0
CLASS
  1
DIMASSOC
  2
AcDbDimAssoc
  3
"AcDbDimAssoc|Product Desc:     AcDim ARX App For Dimension|Company:          Autodesk, Inc.|WEB Address:      www.autodesk.com"
 90
        0
 91
        9
280
     0
281
     0
  0
CLASS
  1
SORTENTSTABLE
  2
AcDbSortentsTable
  3
ObjectDBX Classes
 90
        0
 91
        1
280
     0
281
     0
  0
CLASS
  1
PLOTSETTINGS
  2
AcDbPlotSettings
  3
ObjectDBX Classes
 90
        0
 91
        1
280
     0
281
     0
  0
ENDSEC
  0
SECTION
  2
TABLES
  0
TABLE
  2
VPORT
  5
8
330
0
100
AcDbSymbolTable
 70
     1
1001
ACAD
1000
DbSaveVer
1071
       51
  0
VPORT
  5
94
330
8
100
AcDbSymbolTableRecord
100
AcDbViewportTableRecord
  2
*Active
 70
     0
 10
0.0
 20
0.0
 11
1.0
 21
1.0
 12
93.2710425981287
 22
53.04332492982705
 13
0.0
 23
0.0
 14
0.5
 24
0.5
 15
0.5
 25
0.5
 16
0.0
 26
0.0
 36
1.0
 17
0.0
 27
0.0
 37
0.0
 40
136.5498090506777
 41
2.463414634146341
 42
50.0
 43
0.0
 44
0.0
 50
0.0
 51
0.0
 71
     0
 72
  1000
 73
     1
 74
     3
 75
     0
 76
     1
 77
     0
 78
     0
281
     0
 65
     1
110
0.0
120
0.0
130
0.0
111
1.0
121
0.0
131
0.0
112
0.0
122
1.0
132
0.0
 79
     0
146
0.0
348
9F
 60
     3
 61
     5
292
     1
282
     1
141
0.0
142
0.0
 63
   250
421
  3355443
1001
ACAD_NAV_VCDISPLAY
1070
     3
  0
ENDTAB
  0
TABLE
  2
LTYPE
  5
5
330
0
100
AcDbSymbolTable
 70
     2
  0
LTYPE
  5
14
330
5
100
AcDbSymbolTableRecord
100
AcDbLinetypeTableRecord
  2
ByBlock
 70
     0
  3

 72
    65
 73
     0
 40
0.0
  0
LTYPE
  5
15
330
5
100
AcDbSymbolTableRecord
100
AcDbLinetypeTableRecord
  2
ByLayer
 70
     0
  3

 72
    65
 73
     0
 40
0.0
  0
LTYPE
  5
16
330
5
100
AcDbSymbolTableRecord
100
AcDbLinetypeTableRecord
  2
Continuous
 70
     0
  3
Solid line
 72
    65
 73
     0
 40
0.0
  0
LTYPE
  5
297
330
5
100
AcDbSymbolTableRecord
100
AcDbLinetypeTableRecord
  2
PHANTOM
 70
     0
  3
Phantom ______  __  __  ______  __  __  ______
 72
    65
 73
     6
 40
0.5
 49
0.25
 74
     0
 49
-0.05
 74
     0
 49
0.05
 74
     0
 49
-0.05
 74
     0
 49
0.05
 74
     0
 49
-0.05
 74
     0
  0
ENDTAB
  0
TABLE
  2
LAYER
  5
2
102
{ACAD_XDICTIONARY
360
18E
102
}
330
0
100
AcDbSymbolTable
 70
     3
  0
LAYER
  5
10
102
{ACAD_XDICTIONARY
360
E6
102
}
330
2
100
AcDbSymbolTableRecord
100
AcDbLayerTableRecord
  2
0
 70
     0
 62
     7
  6
Continuous
370
    -3
390
F
347
98
348
0
  0
LAYER
  5
298
330
2
100
AcDbSymbolTableRecord
100
AcDbLayerTableRecord
  2
Defpoints
 70
     0
 62
     7
  6
Continuous
290
     0
370
    -3
390
F
347
98
348
0
  0
LAYER
  5
299
330
2
100
AcDbSymbolTableRecord
100
AcDbLayerTableRecord
  2
10-Title Block
 70
     0
 62
     7
  6
Continuous
370
    25
390
F
347
98
348
0
  0
ENDTAB
  0
TABLE
  2
STYLE
  5
3
330
0
100
AcDbSymbolTable
 70
     5
  0
STYLE
  5
11
330
3
100
AcDbSymbolTableRecord
100
AcDbTextStyleTableRecord
  2
Standard
 70
     0
 40
0.0
 41
1.0
 50
0.0
 71
     0
 42
0.2
  3
arial.ttf
  4

1001
ACAD
1000
Arial
1071
       34
  0
STYLE
  5
DC
330
3
100
AcDbSymbolTableRecord
100
AcDbTextStyleTableRecord
  2
Annotative
 70
     0
 40
0.0
 41
1.0
 50
0.0
 71
     0
 42
0.2
  3
arial.ttf
  4

1001
AcadAnnotative
1000
AnnotativeData
1002
{
1070
     1
1070
     1
1002
}
1001
ACAD
1000
Arial
1071
       34
  0
STYLE
  5
29A
330
3
100
AcDbSymbolTableRecord
100
AcDbTextStyleTableRecord
  2
SLDTEXTSTYLE0
 70
     0
 40
0.0
 41
0.75
 50
0.0
 71
     0
 42
0.1377952755905512
  3
TXT
  4

  0
STYLE
  5
29B
330
3
100
AcDbSymbolTableRecord
100
AcDbTextStyleTableRecord
  2
Dim
 70
     0
 40
0.0
 41
1.0
 50
0.0
 71
     0
 42
3.0
  3
arial.ttf
  4

1001
ACAD
1000
Arial
1071
       34
  0
ENDTAB
  0
TABLE
  2
VIEW
  5
6
330
0
100
AcDbSymbolTable
 70
     0
  0
ENDTAB
  0
TABLE
  2
UCS
  5
7
330
0
100
AcDbSymbolTable
 70
     0
  0
ENDTAB
  0
TABLE
  2
APPID
  5
9
330
0
100
AcDbSymbolTable
 70
    13
  0
APPID
  5
12
330
9
100
AcDbSymbolTableRecord
100
AcDbRegAppTableRecord
  2
ACAD
 70
     0
  0
APPID
  5
DD
330
9
100
AcDbSymbolTableRecord
100
AcDbRegAppTableRecord
  2
AcadAnnoPO
 70
     0
  0
APPID
  5
DE
330
9
100
AcDbSymbolTableRecord
100
AcDbRegAppTableRecord
  2
AcadAnnotative
 70
     0
  0
APPID
  5
DF
330
9
100
AcDbSymbolTableRecord
100
AcDbRegAppTableRecord
  2
ACAD_DSTYLE_DIMJAG
 70
     0
  0
APPID
  5
E0
330
9
100
AcDbSymbolTableRecord
100
AcDbRegAppTableRecord
  2
ACAD_DSTYLE_DIMTALN
 70
     0
  0
APPID
  5
107
330
9
100
AcDbSymbolTableRecord
100
AcDbRegAppTableRecord
  2
ACAD_MLEADERVER
 70
     0
  0
APPID
  5
1A6
330
9
100
AcDbSymbolTableRecord
100
AcDbRegAppTableRecord
  2
ACAD_NAV_VCDISPLAY
 70
     0
  0
APPID
  5
29E
330
9
100
AcDbSymbolTableRecord
100
AcDbRegAppTableRecord
  2
ACAD_PSEXT
 70
     0
  0
APPID
  5
8D8
330
9
100
AcDbSymbolTableRecord
100
AcDbRegAppTableRecord
  2
ACAD_EXEMPT_FROM_CAD_STANDARDS
 70
     0
  0
APPID
  5
8DA
330
9
100
AcDbSymbolTableRecord
100
AcDbRegAppTableRecord
  2
AcadAnnoMonitorAlertIconDisabled
 70
     0
  0
APPID
  5
D55
330
9
100
AcDbSymbolTableRecord
100
AcDbRegAppTableRecord
  2
GradientColor1ACI
 70
     0
  0
APPID
  5
D56
330
9
100
AcDbSymbolTableRecord
100
AcDbRegAppTableRecord
  2
GradientColor2ACI
 70
     0
  0
APPID
  5
16E7
330
9
100
AcDbSymbolTableRecord
100
AcDbRegAppTableRecord
  2
TCAD
 70
     0
  0
ENDTAB
  0
TABLE
  2
DIMSTYLE
  5
A
330
0
100
AcDbSymbolTable
 70
     5
100
AcDbDimStyleTable
 71
     3
340
27
340
29D
340
E1
  0
DIMSTYLE
105
27
330
A
100
AcDbSymbolTableRecord
100
AcDbDimStyleTableRecord
  2
Standard
 70
     0
340
11
  0
DIMSTYLE
105
E1
330
A
100
AcDbSymbolTableRecord
100
AcDbDimStyleTableRecord
  2
Annotative
 70
     0
 40
0.0
340
11
1001
AcadAnnotative
1000
AnnotativeData
1002
{
1070
     1
1070
     1
1002
}
1001
ACAD_DSTYLE_DIMJAG
1070
   388
1040
1.5
1001
ACAD_DSTYLE_DIMTALN
1070
   392
1070
     0
  0
DIMSTYLE
105
29C
330
A
100
AcDbSymbolTableRecord
100
AcDbDimStyleTableRecord
  2
SLDDIMSTYLE3
 70
     0
 41
0.156
 44
0.0
 45
0.000000001
 78
     4
 79
     1
140
0.1377952755905512
144
10.0
147
0.0344488188976378
172
     1
173
     1
271
     2
272
     2
276
     2
284
    12
289
     0
340
29A
  0
DIMSTYLE
105
29D
102
{ACAD_REACTORS
330
7E5
330
7E6
330
9F8
330
9C4
330
9AA
330
9DE
330
A5B
330
B73
330
BC5
330
1729
330
1740
330
1741
102
}
330
A
100
AcDbSymbolTableRecord
100
AcDbDimStyleTableRecord
  2
3_4 Scale
 70
     0
 40
16.0
 41
0.09
 42
0.08
 44
0.0625
 73
     0
 74
     0
 77
     1
140
0.1
141
0.0
146
0.75
179
     4
276
     1
277
     5
340
29B
  0
ENDTAB
  0
TABLE
  2
BLOCK_RECORD
  5
1
330
0
100
AcDbSymbolTable
 70
    30
  0
BLOCK_RECORD
  5
1F
102
{ACAD_XDICTIONARY
360
15D
102
}
330
1
100
AcDbSymbolTableRecord
100
AcDbBlockTableRecord
  2
*Model_Space
340
22
 70
     0
280
     1
281
     0
  0
BLOCK_RECORD
  5
58
330
1
100
AcDbSymbolTableRecord
100
AcDbBlockTableRecord
  2
*Paper_Space
340
59
 70
     0
280
     1
281
     0
  0
BLOCK_RECORD
  5
5D
330
1
100
AcDbSymbolTableRecord
100
AcDbBlockTableRecord
  2
*Paper_Space0
340
5E
 70
     0
280
     1
281
     0
  0
BLOCK_RECORD
  5
203
330
1
100
AcDbSymbolTableRecord
100
AcDbBlockTableRecord
  2
_D
340
0
 70
     0
280
     1
281
     0
  0
BLOCK_RECORD
  5
20F
330
1
100
AcDbSymbolTableRecord
100
AcDbBlockTableRecord
  2
_D_1
340
0
 70
     0
280
     1
281
     0
  0
BLOCK_RECORD
  5
21B
330
1
100
AcDbSymbolTableRecord
100
AcDbBlockTableRecord
  2
_D_3
340
0
 70
     0
280
     1
281
     0
  0
BLOCK_RECORD
  5
228
330
1
100
AcDbSymbolTableRecord
100
AcDbBlockTableRecord
  2
SW_CENTERMARKSYMBOL_0
340
0
 70
     0
280
     1
281
     0
  0
BLOCK_RECORD
  5
80D
330
1
100
AcDbSymbolTableRecord
100
AcDbBlockTableRecord
  2
*D5
340
0
 70
     0
280
     1
281
     0
  0
BLOCK_RECORD
  5
819
330
1
100
AcDbSymbolTableRecord
100
AcDbBlockTableRecord
  2
*D6
340
0
 70
     0
280
     1
281
     0
  0
BLOCK_RECORD
  5
832
330
1
100
AcDbSymbolTableRecord
100
AcDbBlockTableRecord
  2
*D7
340
0
 70
     0
280
     1
281
     0
  0
BLOCK_RECORD
  5
87D
330
1
100
AcDbSymbolTableRecord
100
AcDbBlockTableRecord
  2
*D9
340
0
 70
     0
280
     1
281
     0
  0
BLOCK_RECORD
  5
8C2
330
1
100
AcDbSymbolTableRecord
100
AcDbBlockTableRecord
  2
*D13
340
0
 70
     0
280
     1
281
     0
  0
BLOCK_RECORD
  5
9AB
330
1
100
AcDbSymbolTableRecord
100
AcDbBlockTableRecord
  2
*D14
340
0
 70
     0
280
     1
281
     0
  0
BLOCK_RECORD
  5
9C5
330
1
100
AcDbSymbolTableRecord
100
AcDbBlockTableRecord
  2
*D15
340
0
 70
     0
280
     1
281
     0
  0
BLOCK_RECORD
  5
9DF
330
1
100
AcDbSymbolTableRecord
100
AcDbBlockTableRecord
  2
*D16
340
0
 70
     0
280
     1
281
     0
  0
BLOCK_RECORD
  5
9F9
330
1
100
AcDbSymbolTableRecord
100
AcDbBlockTableRecord
  2
*D17
340
0
 70
     0
280
     1
281
     0
  0
BLOCK_RECORD
  5
A5C
330
1
100
AcDbSymbolTableRecord
100
AcDbBlockTableRecord
  2
*D18
340
0
 70
     0
280
     1
281
     0
  0
BLOCK_RECORD
  5
B74
330
1
100
AcDbSymbolTableRecord
100
AcDbBlockTableRecord
  2
*D19
340
0
 70
     0
280
     1
281
     0
  0
BLOCK_RECORD
  5
BC6
330
1
100
AcDbSymbolTableRecord
100
AcDbBlockTableRecord
  2
*D20
340
0
 70
     0
280
     1
281
     0
  0
BLOCK_RECORD
  5
1742
330
1
100
AcDbSymbolTableRecord
100
AcDbBlockTableRecord
  2
*D26
340
0
 70
     0
280
     1
281
     0
  0
BLOCK_RECORD
  5
174E
330
1
100
AcDbSymbolTableRecord
100
AcDbBlockTableRecord
  2
*D27
340
0
 70
     0
280
     1
281
     0
  0
BLOCK_RECORD
  5
175B
330
1
100
AcDbSymbolTableRecord
100
AcDbBlockTableRecord
  2
*D28
340
0
 70
     0
280
     1
281
     0
  0
ENDTAB
  0
ENDSEC
  0
SECTION
  2
BLOCKS
  0
BLOCK
  5
20
330
1F
100
AcDbEntity
  8
0
100
AcDbBlockBegin
  2
*Model_Space
 70
     0
 10
0.0
 20
0.0
 30
0.0
  3
*Model_Space
  1

  0
ENDBLK
  5
21
330
1F
100
AcDbEntity
  8
0
100
AcDbBlockEnd
  0
BLOCK
  5
5A
330
58
100
AcDbEntity
 67
     1
  8
0
100
AcDbBlockBegin
  2
*Paper_Space
 70
     0
 10
0.0
 20
0.0
 30
0.0
  3
*Paper_Space
  1

  0
ENDBLK
  5
5B
330
58
100
AcDbEntity
 67
     1
  8
0
100
AcDbBlockEnd
  0
BLOCK
  5
5F
330
5D
100
AcDbEntity
 67
     1
  8
0
100
AcDbBlockBegin
  2
*Paper_Space0
 70
     0
 10
0.0
 20
0.0
 30
0.0
  3
*Paper_Space0
  1

  0
ENDBLK
  5
60
330
5D
100
AcDbEntity
 67
     1
  8
0
100
AcDbBlockEnd
  0
BLOCK
  5
204
330
203
100
AcDbEntity
  8
0
100
AcDbBlockBegin
  2
_D
 70
     0
 10
0.0
 20
0.0
 30
0.0
  3
_D
  1

  0
LINE
  5
205
330
203
100
AcDbEntity
  8
0
  6
Continuous
 62
     0
440
 16777216
370
    -2
100
AcDbLine
 10
280.0526800170757
 20
67.06025417483457
 30
0.0
 11
280.0526800170757
 21
71.71726204885036
 31
0.0
  0
LINE
  5
206
330
203
100
AcDbEntity
  8
0
  6
Continuous
 62
     0
440
 16777216
370
    -2
100
AcDbLine
 10
218.5526800170758
 20
67.06025417483457
 30
0.0
 11
218.5526800170758
 21
71.71726204885036
 31
0.0
  0
LINE
  5
207
330
203
100
AcDbEntity
  8
0
  6
Continuous
 62
     0
440
 16777216
370
    -2
100
AcDbLine
 10
278.6126800170757
 20
70.71726204885036
 30
0.0
 11
219.9926800170758
 21
70.71726204885036
 31
0.0
  0
SOLID
  5
208
330
203
100
AcDbEntity
  8
0
  6
Continuous
 62
     0
440
 16777216
100
AcDbTrace
 10
278.6126800170757
 20
70.95726204885036
 30
0.0
 11
278.6126800170757
 21
70.47726204885035
 31
0.0
 12
280.0526800170757
 22
70.71726204885036
 32
0.0
 13
280.0526800170757
 23
70.71726204885036
 33
0.0
  0
SOLID
  5
209
330
203
100
AcDbEntity
  8
0
  6
Continuous
 62
     0
440
 16777216
100
AcDbTrace
 10
219.9926800170758
 20
70.95726204885036
 30
0.0
 11
219.9926800170758
 21
70.47726204885035
 31
0.0
 12
218.5526800170758
 22
70.71726204885036
 32
0.0
 13
218.5526800170758
 23
70.71726204885036
 33
0.0
  0
MTEXT
  5
20A
330
203
100
AcDbEntity
  8
0
  6
Continuous
 62
     0
440
 16777216
370
    18
100
AcDbMText
 10
252.695773635063
 20
74.59436982511229
 30
0.0
 40
1.6
 41
0.0
 46
0.0
 71
     2
 72
     1
  1
\A1;61{\H0.75x;\S1#2;}
  7
Dim
 73
     1
 44
1.0
  0
POINT
  5
20B
330
203
100
AcDbEntity
  8
Defpoints
  6
Continuous
 62
     0
440
 16777216
100
AcDbPoint
 10
280.0526800170757
 20
65.78025417483456
 30
0.0
  0
POINT
  5
20C
330
203
100
AcDbEntity
  8
Defpoints
  6
Continuous
 62
     0
440
 16777216
100
AcDbPoint
 10
218.5526800170758
 20
65.78025417483456
 30
0.0
  0
POINT
  5
20D
330
203
100
AcDbEntity
  8
Defpoints
  6
Continuous
 62
     0
440
 16777216
100
AcDbPoint
 10
218.5526800170758
 20
70.71726204885036
 30
0.0
  0
ENDBLK
  5
20E
330
203
100
AcDbEntity
  8
0
100
AcDbBlockEnd
  0
BLOCK
  5
210
330
20F
100
AcDbEntity
  8
0
100
AcDbBlockBegin
  2
_D_1
 70
     0
 10
0.0
 20
0.0
 30
0.0
  3
_D_1
  1

  0
LINE
  5
211
330
20F
100
AcDbEntity
  8
0
  6
Continuous
 62
     0
440
 16777216
370
    -2
100
AcDbLine
 10
278.7726800170759
 20
29.03025417483457
 30
0.0
 11
210.5164929517991
 21
29.03025417483456
 31
0.0
  0
LINE
  5
212
330
20F
100
AcDbEntity
  8
0
  6
Continuous
 62
     0
440
 16777216
370
    -2
100
AcDbLine
 10
218.1371685366253
 20
65.78025417483459
 30
0.0
 11
210.5164929517991
 21
65.78025417483459
 31
0.0
  0
LINE
  5
213
330
20F
100
AcDbEntity
  8
0
  6
Continuous
 62
     0
440
 16777216
370
    -2
100
AcDbLine
 10
211.5164929517991
 20
30.47025417483456
 30
0.0
 11
211.5164929517991
 21
64.3402541748346
 31
0.0
  0
SOLID
  5
214
330
20F
100
AcDbEntity
  8
0
  6
Continuous
 62
     0
440
 16777216
100
AcDbTrace
 10
211.2764929517991
 20
30.47025417483456
 30
0.0
 11
211.7564929517992
 21
30.47025417483456
 31
0.0
 12
211.5164929517991
 22
29.03025417483456
 32
0.0
 13
211.5164929517991
 23
29.03025417483456
 33
0.0
  0
SOLID
  5
215
330
20F
100
AcDbEntity
  8
0
  6
Continuous
 62
     0
440
 16777216
100
AcDbTrace
 10
211.2764929517991
 20
64.3402541748346
 30
0.0
 11
211.7564929517991
 21
64.3402541748346
 31
0.0
 12
211.5164929517991
 22
65.78025417483459
 32
0.0
 13
211.5164929517991
 23
65.78025417483459
 33
0.0
  0
MTEXT
  5
216
330
20F
100
AcDbEntity
  8
0
  6
Continuous
 62
     0
440
 16777216
370
    18
100
AcDbMText
 10
207.6219226925904
 20
49.26239874514436
 30
0.0
 40
1.6
 41
0.0
 46
0.0
 71
     2
 72
     1
  1
\A1;36{\H0.75x;\S3#4;}
  7
Dim
 11
0.0000000000000001
 21
1.0
 31
0.0
 73
     1
 44
1.0
  0
POINT
  5
217
330
20F
100
AcDbEntity
  8
Defpoints
  6
Continuous
 62
     0
440
 16777216
100
AcDbPoint
 10
280.0526800170758
 20
29.03025417483457
 30
0.0
  0
POINT
  5
218
330
20F
100
AcDbEntity
  8
Defpoints
  6
Continuous
 62
     0
440
 16777216
100
AcDbPoint
 10
219.4171685366253
 20
65.78025417483459
 30
0.0
  0
POINT
  5
219
330
20F
100
AcDbEntity
  8
Defpoints
  6
Continuous
 62
     0
440
 16777216
100
AcDbPoint
 10
211.5164929517991
 20
65.78025417483459
 30
0.0
  0
ENDBLK
  5
21A
330
20F
100
AcDbEntity
  8
0
100
AcDbBlockEnd
  0
BLOCK
  5
21C
330
21B
100
AcDbEntity
  8
0
100
AcDbBlockBegin
  2
_D_3
 70
     0
 10
0.0
 20
0.0
 30
0.0
  3
_D_3
  1

  0
LINE
  5
21D
330
21B
100
AcDbEntity
  8
0
  6
Continuous
 62
     0
440
 16777216
370
    -2
100
AcDbLine
 10
255.3026800170758
 20
31.44275417483456
 30
0.0
 11
255.3026800170758
 21
22.73104157640938
 31
0.0
  0
LINE
  5
21E
330
21B
100
AcDbEntity
  8
0
  6
Continuous
 62
     0
440
 16777216
370
    -2
100
AcDbLine
 10
243.3026800170758
 20
31.44275417483456
 30
0.0
 11
243.3026800170758
 21
22.73104157640938
 31
0.0
  0
LINE
  5
21F
330
21B
100
AcDbEntity
  8
0
  6
Continuous
 62
     0
440
 16777216
370
    -2
100
AcDbLine
 10
255.1466800170758
 20
22.73104157640938
 30
0.0
 11
249.8082116228437
 21
22.73104157640938
 31
0.0
  0
LINE
  5
220
330
21B
100
AcDbEntity
  8
0
  6
Continuous
 62
     0
440
 16777216
370
    -2
100
AcDbLine
 10
243.4586800170758
 20
22.73104157640938
 30
0.0
 11
249.3087037488279
 21
22.73104157640938
 31
0.0
  0
SOLID
  5
221
330
21B
100
AcDbEntity
  8
0
  6
Continuous
 62
     0
440
 16777216
100
AcDbTrace
 10
255.1466800170758
 20
22.75704157640938
 30
0.0
 11
255.1466800170758
 21
22.70504157640938
 31
0.0
 12
255.3026800170758
 22
22.73104157640938
 32
0.0
 13
255.3026800170758
 23
22.73104157640938
 33
0.0
  0
SOLID
  5
222
330
21B
100
AcDbEntity
  8
0
  6
Continuous
 62
     0
440
 16777216
100
AcDbTrace
 10
243.4586800170758
 20
22.75704157640938
 30
0.0
 11
243.4586800170758
 21
22.70504157640938
 31
0.0
 12
243.3026800170758
 22
22.73104157640938
 32
0.0
 13
243.3026800170758
 23
22.73104157640938
 33
0.0
  0
MTEXT
  5
223
330
21B
100
AcDbEntity
  8
0
  6
Continuous
 62
     0
440
 16777216
370
    18
100
AcDbMText
 10
249.5584576858358
 20
22.79993921420465
 30
0.0
 40
0.1377952755905512
 41
0.0
 46
0.0
 71
     2
 72
     1
  1
\A1;120.00
  7
SLDTEXTSTYLE0
 73
     1
 44
1.0
  0
POINT
  5
224
330
21B
100
AcDbEntity
  8
Defpoints
  6
Continuous
 62
     0
440
 16777216
100
AcDbPoint
 10
255.3026800170758
 20
31.50525417483456
 30
0.0
  0
POINT
  5
225
330
21B
100
AcDbEntity
  8
Defpoints
  6
Continuous
 62
     0
440
 16777216
100
AcDbPoint
 10
243.3026800170758
 20
31.50525417483456
 30
0.0
  0
POINT
  5
226
330
21B
100
AcDbEntity
  8
Defpoints
  6
Continuous
 62
     0
440
 16777216
100
AcDbPoint
 10
243.3026800170758
 20
22.73104157640938
 30
0.0
  0
ENDBLK
  5
227
330
21B
100
AcDbEntity
  8
0
100
AcDbBlockEnd
  0
BLOCK
  5
229
330
228
100
AcDbEntity
  8
0
100
AcDbBlockBegin
  2
SW_CENTERMARKSYMBOL_0
 70
     0
 10
0.0
 20
0.0
 30
0.0
  3
SW_CENTERMARKSYMBOL_0
  1

  0
LINE
  5
22A
330
228
100
AcDbEntity
  8
0
  6
Continuous
 62
     0
370
     0
100
AcDbLine
 10
0.0
 20
0.0
 30
0.0
 11
0.0
 21
0.0100000000000002
 31
0.0
  0
LINE
  5
22B
330
228
100
AcDbEntity
  8
0
  6
Continuous
 62
     0
370
     0
100
AcDbLine
 10
0.0
 20
0.0
 30
0.0
 11
-0.0100000000000002
 21
0.0
 31
0.0
  0
LINE
  5
22C
330
228
100
AcDbEntity
  8
0
  6
Continuous
 62
     0
370
     0
100
AcDbLine
 10
0.0
 20
0.0
 30
0.0
 11
0.0
 21
-0.0100000000000002
 31
0.0
  0
LINE
  5
22D
330
228
100
AcDbEntity
  8
0
  6
Continuous
 62
     0
370
     0
100
AcDbLine
 10
0.0
 20
0.0
 30
0.0
 11
0.0100000000000002
 21
0.0
 31
0.0
  0
LINE
  5
22E
330
228
100
AcDbEntity
  8
0
  6
Continuous
 62
     0
370
     0
100
AcDbLine
 10
0.0
 20
0.0199999999999998
 30
0.0
 11
0.0
 21
0.1822199653433561
 31
0.0
  0
LINE
  5
22F
330
228
100
AcDbEntity
  8
0
  6
Continuous
 62
     0
370
     0
100
AcDbLine
 10
-0.0199999999999998
 20
0.0
 30
0.0
 11
-0.1822199653433561
 21
0.0
 31
0.0
  0
LINE
  5
230
330
228
100
AcDbEntity
  8
0
  6
Continuous
 62
     0
370
     0
100
AcDbLine
 10
0.0
 20
-0.0200000000000003
 30
0.0
 11
0.0
 21
-0.1822199653433561
 31
0.0
  0
LINE
  5
231
330
228
100
AcDbEntity
  8
0
  6
Continuous
 62
     0
370
     0
100
AcDbLine
 10
0.0199999999999998
 20
0.0
 30
0.0
 11
0.1822199653433561
 21
0.0
 31
0.0
  0
ENDBLK
  5
232
330
228
100
AcDbEntity
  8
0
100
AcDbBlockEnd
  0
BLOCK
  5
80E
330
80D
100
AcDbEntity
  8
0
100
AcDbBlockBegin
  2
*D5
 70
     1
 10
0.0
 20
0.0
 30
0.0
  3
*D5
  1

  0
LINE
  5
C98
330
80D
100
AcDbEntity
  8
0
  6
Continuous
 62
     0
440
 16777216
370
    -2
100
AcDbLine
 10
252.6948227029291
 20
165.368356956046
 30
0.0
 11
252.6948227029291
 21
170.0253648300618
 31
0.0
  0
LINE
  5
C99
330
80D
100
AcDbEntity
  8
0
  6
Continuous
 62
     0
440
 16777216
370
    -2
100
AcDbLine
 10
191.1948227029292
 20
165.368356956046
 30
0.0
 11
191.1948227029292
 21
170.0253648300618
 31
0.0
  0
LINE
  5
C9A
330
80D
100
AcDbEntity
  8
0
  6
Continuous
 62
     0
440
 16777216
370
    -2
100
AcDbLine
 10
251.2548227029291
 20
169.0253648300618
 30
0.0
 11
192.6348227029292
 21
169.0253648300618
 31
0.0
  0
SOLID
  5
C9B
330
80D
100
AcDbEntity
  8
0
  6
Continuous
 62
     0
440
 16777216
100
AcDbTrace
 10
251.2548227029291
 20
169.2653648300618
 30
0.0
 11
251.2548227029291
 21
168.7853648300618
 31
0.0
 12
252.6948227029291
 22
169.0253648300618
 32
0.0
 13
252.6948227029291
 23
169.0253648300618
 33
0.0
  0
SOLID
  5
C9C
330
80D
100
AcDbEntity
  8
0
  6
Continuous
 62
     0
440
 16777216
100
AcDbTrace
 10
192.6348227029292
 20
169.2653648300618
 30
0.0
 11
192.6348227029292
 21
168.7853648300618
 31
0.0
 12
191.1948227029292
 22
169.0253648300618
 32
0.0
 13
191.1948227029292
 23
169.0253648300618
 33
0.0
  0
MTEXT
  5
C9D
330
80D
100
AcDbEntity
  8
0
  6
Continuous
 62
     0
440
 16777216
370
    18
100
AcDbMText
 10
225.3379163209164
 20
172.0991983907713
 30
0.0
 40
1.6
 41
0.0
 46
0.0
 71
     2
 72
     1
  1
\A1;60
  7
Dim
 73
     1
 44
1.0
  0
POINT
  5
C9E
330
80D
100
AcDbEntity
  8
Defpoints
  6
Continuous
 62
     0
440
 16777216
100
AcDbPoint
 10
252.6948227029291
 20
164.088356956046
 30
0.0
  0
POINT
  5
C9F
330
80D
100
AcDbEntity
  8
Defpoints
  6
Continuous
 62
     0
440
 16777216
100
AcDbPoint
 10
191.1948227029292
 20
164.088356956046
 30
0.0
  0
POINT
  5
CA0
330
80D
100
AcDbEntity
  8
Defpoints
  6
Continuous
 62
     0
440
 16777216
100
AcDbPoint
 10
191.1948227029292
 20
169.0253648300618
 30
0.0
  0
ENDBLK
  5
80F
330
80D
100
AcDbEntity
  8
0
100
AcDbBlockEnd
  0
BLOCK
  5
81A
330
819
100
AcDbEntity
  8
0
100
AcDbBlockBegin
  2
*D6
 70
     1
 10
0.0
 20
0.0
 30
0.0
  3
*D6
  1

  0
LINE
  5
CA1
330
819
100
AcDbEntity
  8
0
  6
Continuous
 62
     0
440
 16777216
370
    -2
100
AcDbLine
 10
251.4148227029292
 20
127.3383569560461
 30
0.0
 11
183.1586356376525
 21
127.3383569560461
 31
0.0
  0
LINE
  5
CA2
330
819
100
AcDbEntity
  8
0
  6
Continuous
 62
     0
440
 16777216
370
    -2
100
AcDbLine
 10
190.7793112224786
 20
164.0883569560461
 30
0.0
 11
183.1586356376525
 21
164.0883569560461
 31
0.0
  0
LINE
  5
CA3
330
819
100
AcDbEntity
  8
0
  6
Continuous
 62
     0
440
 16777216
370
    -2
100
AcDbLine
 10
184.1586356376525
 20
128.7783569560461
 30
0.0
 11
184.1586356376525
 21
162.6483569560461
 31
0.0
  0
SOLID
  5
CA4
330
819
100
AcDbEntity
  8
0
  6
Continuous
 62
     0
440
 16777216
100
AcDbTrace
 10
183.9186356376524
 20
128.7783569560461
 30
0.0
 11
184.3986356376525
 21
128.7783569560461
 31
0.0
 12
184.1586356376525
 22
127.3383569560461
 32
0.0
 13
184.1586356376525
 23
127.3383569560461
 33
0.0
  0
SOLID
  5
CA5
330
819
100
AcDbEntity
  8
0
  6
Continuous
 62
     0
440
 16777216
100
AcDbTrace
 10
183.9186356376524
 20
162.6483569560461
 30
0.0
 11
184.3986356376525
 21
162.6483569560461
 31
0.0
 12
184.1586356376525
 22
164.0883569560461
 32
0.0
 13
184.1586356376525
 23
164.0883569560461
 33
0.0
  0
MTEXT
  5
CA6
330
819
100
AcDbEntity
  8
0
  6
Continuous
 62
     0
440
 16777216
370
    18
100
AcDbMText
 10
181.0837106717589
 20
147.5705015263558
 30
0.0
 40
1.6
 41
0.0
 46
0.0
 71
     2
 72
     1
  1
\A1;36
  7
Dim
 11
0.0000000000000001
 21
1.0
 31
0.0
 73
     1
 44
1.0
  0
POINT
  5
CA7
330
819
100
AcDbEntity
  8
Defpoints
  6
Continuous
 62
     0
440
 16777216
100
AcDbPoint
 10
252.6948227029292
 20
127.3383569560461
 30
0.0
  0
POINT
  5
CA8
330
819
100
AcDbEntity
  8
Defpoints
  6
Continuous
 62
     0
440
 16777216
100
AcDbPoint
 10
192.0593112224787
 20
164.0883569560461
 30
0.0
  0
POINT
  5
CA9
330
819
100
AcDbEntity
  8
Defpoints
  6
Continuous
 62
     0
440
 16777216
100
AcDbPoint
 10
184.1586356376525
 20
164.0883569560461
 30
0.0
  0
ENDBLK
  5
81B
330
819
100
AcDbEntity
  8
0
100
AcDbBlockEnd
  0
BLOCK
  5
833
330
832
100
AcDbEntity
  8
0
100
AcDbBlockBegin
  2
*D7
 70
     1
 10
0.0
 20
0.0
 30
0.0
  3
*D7
  1

  0
LINE
  5
873
330
832
100
AcDbEntity
  8
0
  6
Continuous
 62
     0
440
 16777216
370
    -2
100
AcDbLine
 10
122.0144148670111
 20
75.36636050013406
 30
0.0
 11
125.641745471055
 21
75.36636050013406
 31
0.0
  0
LINE
  5
874
330
832
100
AcDbEntity
  8
0
  6
Continuous
 62
     0
440
 16777216
370
    -2
100
AcDbLine
 10
121.9589030234058
 20
77.36481852890621
 30
0.0
 11
125.641745471055
 21
77.36481852890621
 31
0.0
  0
LINE
  5
875
330
832
100
AcDbEntity
  8
0
  6
Continuous
 62
     0
440
 16777216
370
    -2
100
AcDbLine
 10
124.641745471055
 20
73.92636050013407
 30
0.0
 11
124.641745471055
 21
72.48636050013407
 31
0.0
  0
LINE
  5
876
330
832
100
AcDbEntity
  8
0
  6
Continuous
 62
     0
440
 16777216
370
    -2
100
AcDbLine
 10
124.641745471055
 20
78.80481852890621
 30
0.0
 11
124.641745471055
 21
80.24481852890621
 31
0.0
  0
SOLID
  5
877
330
832
100
AcDbEntity
  8
0
  6
Continuous
 62
     0
440
 16777216
100
AcDbTrace
 10
124.401745471055
 20
73.92636050013407
 30
0.0
 11
124.881745471055
 21
73.92636050013407
 31
0.0
 12
124.641745471055
 22
75.36636050013406
 32
0.0
 13
124.641745471055
 23
75.36636050013406
 33
0.0
  0
SOLID
  5
878
330
832
100
AcDbEntity
  8
0
  6
Continuous
 62
     0
440
 16777216
100
AcDbTrace
 10
124.401745471055
 20
78.80481852890621
 30
0.0
 11
124.881745471055
 21
78.80481852890621
 31
0.0
 12
124.641745471055
 22
77.36481852890621
 32
0.0
 13
124.641745471055
 23
77.36481852890621
 33
0.0
  0
MTEXT
  5
879
330
832
100
AcDbEntity
  8
0
  6
Continuous
 62
     0
440
 16777216
370
    18
100
AcDbMText
 10
122.3984712555025
 20
76.36558951452008
 30
0.0
 40
1.6
 41
0.0
 46
0.0
 71
     5
 72
     1
  1
\A1;1
  7
Dim
 11
0.0000000000000001
 21
1.0
 31
0.0
 73
     1
 44
1.0
  0
POINT
  5
87A
330
832
100
AcDbEntity
  8
Defpoints
  6
Continuous
 62
     0
440
 16777216
100
AcDbPoint
 10
120.7344148670111
 20
75.36636050013406
 30
0.0
  0
POINT
  5
87B
330
832
100
AcDbEntity
  8
Defpoints
  6
Continuous
 62
     0
440
 16777216
100
AcDbPoint
 10
120.6789030234058
 20
77.36481852890621
 30
0.0
  0
POINT
  5
87C
330
832
100
AcDbEntity
  8
Defpoints
  6
Continuous
 62
     0
440
 16777216
100
AcDbPoint
 10
124.641745471055
 20
77.36481852890621
 30
0.0
  0
ENDBLK
  5
834
330
832
100
AcDbEntity
  8
0
100
AcDbBlockEnd
  0
BLOCK
  5
87E
330
87D
100
AcDbEntity
  8
0
100
AcDbBlockBegin
  2
*D9
 70
     1
 10
0.0
 20
0.0
 30
0.0
  3
*D9
  1

  0
LINE
  5
190D
330
87D
100
AcDbEntity
  8
0
  6
Continuous
 62
     0
440
 16777216
370
    -2
100
AcDbLine
 10
118.4574422695441
 20
67.36636050013413
 30
0.0
 11
125.5754005112226
 21
67.36636050013413
 31
0.0
  0
LINE
  5
190E
330
87D
100
AcDbEntity
  8
0
  6
Continuous
 62
     0
440
 16777216
370
    -2
100
AcDbLine
 10
122.0144148670111
 20
75.36636050013406
 30
0.0
 11
125.5754005112226
 21
75.36636050013406
 31
0.0
  0
LINE
  5
190F
330
87D
100
AcDbEntity
  8
0
  6
Continuous
 62
     0
440
 16777216
370
    -2
100
AcDbLine
 10
124.5754005112226
 20
68.80636050013413
 30
0.0
 11
124.5754005112226
 21
73.92636050013407
 31
0.0
  0
SOLID
  5
1910
330
87D
100
AcDbEntity
  8
0
  6
Continuous
 62
     0
440
 16777216
100
AcDbTrace
 10
124.3354005112226
 20
68.80636050013413
 30
0.0
 11
124.8154005112226
 21
68.80636050013413
 31
0.0
 12
124.5754005112226
 22
67.36636050013413
 32
0.0
 13
124.5754005112226
 23
67.36636050013413
 33
0.0
  0
SOLID
  5
1911
330
87D
100
AcDbEntity
  8
0
  6
Continuous
 62
     0
440
 16777216
100
AcDbTrace
 10
124.3354005112226
 20
73.92636050013407
 30
0.0
 11
124.8154005112226
 21
73.92636050013407
 31
0.0
 12
124.5754005112226
 22
75.36636050013406
 32
0.0
 13
124.5754005112226
 23
75.36636050013406
 33
0.0
  0
MTEXT
  5
1912
330
87D
100
AcDbEntity
  8
0
  6
Continuous
 62
     0
440
 16777216
370
    18
100
AcDbMText
 10
122.3217579464204
 20
70.84818560427752
 30
0.0
 40
1.6
 41
0.0
 46
0.0
 71
     5
 72
     1
  1
\A1;5 
  7
Dim
 11
0.0000000000000001
 21
1.0
 31
0.0
 73
     1
 44
1.0
  0
POINT
  5
1913
330
87D
100
AcDbEntity
  8
Defpoints
  6
Continuous
 62
     0
440
 16777216
100
AcDbPoint
 10
117.1774422695441
 20
67.36636050013413
 30
0.0
  0
POINT
  5
1914
330
87D
100
AcDbEntity
  8
Defpoints
  6
Continuous
 62
     0
440
 16777216
100
AcDbPoint
 10
120.7344148670111
 20
75.36636050013406
 30
0.0
  0
POINT
  5
1915
330
87D
100
AcDbEntity
  8
Defpoints
  6
Continuous
 62
     0
440
 16777216
100
AcDbPoint
 10
124.5754005112226
 20
75.36636050013406
 30
0.0
  0
ENDBLK
  5
87F
330
87D
100
AcDbEntity
  8
0
100
AcDbBlockEnd
  0
BLOCK
  5
8C3
330
8C2
100
AcDbEntity
  8
0
100
AcDbBlockBegin
  2
*D13
 70
     1
 10
0.0
 20
0.0
 30
0.0
  3
*D13
  1

  0
LINE
  5
CAA
330
8C2
100
AcDbEntity
  8
0
  6
Continuous
 62
     0
440
 16777216
370
    -2
100
AcDbLine
 10
191.1948216628985
 20
126.0583569025427
 30
0.0
 11
191.1948216628985
 21
121.9854568434487
 31
0.0
  0
LINE
  5
CAB
330
8C2
100
AcDbEntity
  8
0
  6
Continuous
 62
     0
440
 16777216
370
    -2
100
AcDbLine
 10
221.8448227029292
 20
131.870856956046
 30
0.0
 11
221.8448227029292
 21
121.9854568434487
 31
0.0
  0
LINE
  5
CAC
330
8C2
100
AcDbEntity
  8
0
  6
Continuous
 62
     0
440
 16777216
370
    -2
100
AcDbLine
 10
192.6348216628985
 20
122.9854568434487
 30
0.0
 11
220.4048227029292
 21
122.9854568434487
 31
0.0
  0
SOLID
  5
CAD
330
8C2
100
AcDbEntity
  8
0
  6
Continuous
 62
     0
440
 16777216
100
AcDbTrace
 10
192.6348216628985
 20
123.2254568434487
 30
0.0
 11
192.6348216628985
 21
122.7454568434487
 31
0.0
 12
191.1948216628985
 22
122.9854568434487
 32
0.0
 13
191.1948216628985
 23
122.9854568434487
 33
0.0
  0
SOLID
  5
CAE
330
8C2
100
AcDbEntity
  8
0
  6
Continuous
 62
     0
440
 16777216
100
AcDbTrace
 10
220.4048227029292
 20
123.2254568434487
 30
0.0
 11
220.4048227029292
 21
122.7454568434487
 31
0.0
 12
221.8448227029292
 22
122.9854568434487
 32
0.0
 13
221.8448227029292
 23
122.9854568434487
 33
0.0
  0
MTEXT
  5
CAF
330
8C2
100
AcDbEntity
  8
0
  6
Continuous
 62
     0
440
 16777216
370
    18
100
AcDbMText
 10
206.5198221829139
 20
125.2429193263955
 30
0.0
 40
1.6
 41
0.0
 46
0.0
 71
     5
 72
     1
  1
\A1;30
  7
Dim
 73
     1
 44
1.0
  0
POINT
  5
CB0
330
8C2
100
AcDbEntity
  8
Defpoints
  6
Continuous
 62
     0
440
 16777216
100
AcDbPoint
 10
191.1948216628985
 20
127.3383569025426
 30
0.0
  0
POINT
  5
CB1
330
8C2
100
AcDbEntity
  8
Defpoints
  6
Continuous
 62
     0
440
 16777216
100
AcDbPoint
 10
221.8448227029292
 20
133.150856956046
 30
0.0
  0
POINT
  5
CB2
330
8C2
100
AcDbEntity
  8
Defpoints
  6
Continuous
 62
     0
440
 16777216
100
AcDbPoint
 10
221.8448227029292
 20
122.9854568434487
 30
0.0
  0
ENDBLK
  5
8C4
330
8C2
100
AcDbEntity
  8
0
100
AcDbBlockEnd
  0
BLOCK
  5
9AC
330
9AB
100
AcDbEntity
  8
0
100
AcDbBlockBegin
  2
*D14
 70
     1
 10
0.0
 20
0.0
 30
0.0
  3
*D14
  1

  0
LINE
  5
CB3
330
9AB
100
AcDbEntity
  8
0
  6
Continuous
 62
     0
440
 16777216
370
    -2
100
AcDbLine
 10
25.59925930108
 20
79.12275470218606
 30
0.0
 11
25.59925930108
 21
88.51992787907855
 31
0.0
  0
LINE
  5
CB4
330
9AB
100
AcDbEntity
  8
0
  6
Continuous
 62
     0
440
 16777216
370
    -2
100
AcDbLine
 10
85.59925930107999
 20
79.12275470218606
 30
0.0
 11
85.59925930107999
 21
88.51992787907855
 31
0.0
  0
LINE
  5
CB5
330
9AB
100
AcDbEntity
  8
0
  6
Continuous
 62
     0
440
 16777216
370
    -2
100
AcDbLine
 10
27.03925930108
 20
87.51992787907855
 30
0.0
 11
84.15925930108
 21
87.51992787907855
 31
0.0
  0
SOLID
  5
CB6
330
9AB
100
AcDbEntity
  8
0
  6
Continuous
 62
     0
440
 16777216
100
AcDbTrace
 10
27.03925930108
 20
87.75992787907854
 30
0.0
 11
27.03925930108
 21
87.27992787907856
 31
0.0
 12
25.59925930108
 22
87.51992787907855
 32
0.0
 13
25.59925930108
 23
87.51992787907855
 33
0.0
  0
SOLID
  5
CB7
330
9AB
100
AcDbEntity
  8
0
  6
Continuous
 62
     0
440
 16777216
100
AcDbTrace
 10
84.15925930108
 20
87.75992787907854
 30
0.0
 11
84.15925930108
 21
87.27992787907856
 31
0.0
 12
85.59925930107999
 22
87.51992787907855
 32
0.0
 13
85.59925930107999
 23
87.51992787907855
 33
0.0
  0
MTEXT
  5
CB8
330
9AB
100
AcDbEntity
  8
0
  6
Continuous
 62
     0
440
 16777216
370
    18
100
AcDbMText
 10
56.04835563484801
 20
89.77684465943324
 30
0.0
 40
1.6
 41
0.0
 46
0.0
 71
     5
 72
     1
  1
\A1;60
  7
Dim
 73
     1
 44
1.0
  0
POINT
  5
CB9
330
9AB
100
AcDbEntity
  8
Defpoints
  6
Continuous
 62
     0
440
 16777216
100
AcDbPoint
 10
25.59925930108
 20
77.84275470218606
 30
0.0
  0
POINT
  5
CBA
330
9AB
100
AcDbEntity
  8
Defpoints
  6
Continuous
 62
     0
440
 16777216
100
AcDbPoint
 10
85.59925930107999
 20
77.84275470218606
 30
0.0
  0
POINT
  5
CBB
330
9AB
100
AcDbEntity
  8
Defpoints
  6
Continuous
 62
     0
440
 16777216
100
AcDbPoint
 10
85.59925930107999
 20
87.51992787907855
 30
0.0
  0
ENDBLK
  5
9AD
330
9AB
100
AcDbEntity
  8
0
100
AcDbBlockEnd
  0
BLOCK
  5
9C6
330
9C5
100
AcDbEntity
  8
0
100
AcDbBlockBegin
  2
*D15
 70
     1
 10
0.0
 20
0.0
 30
0.0
  3
*D15
  1

  0
LINE
  5
CFF
330
9C5
100
AcDbEntity
  8
0
  6
Continuous
 62
     0
440
 16777216
370
    -2
100
AcDbLine
 10
24.31925930108001
 20
77.84275470218608
 30
0.0
 11
18.11988304566622
 21
77.84275470218608
 31
0.0
  0
LINE
  5
D00
330
9C5
100
AcDbEntity
  8
0
  6
Continuous
 62
     0
440
 16777216
370
    -2
100
AcDbLine
 10
24.31925930108001
 20
41.84275470218607
 30
0.0
 11
18.11988304566623
 21
41.84275470218607
 31
0.0
  0
LINE
  5
D01
330
9C5
100
AcDbEntity
  8
0
  6
Continuous
 62
     0
440
 16777216
370
    -2
100
AcDbLine
 10
19.11988304566622
 20
76.40275470218608
 30
0.0
 11
19.11988304566623
 21
43.28275470218606
 31
0.0
  0
SOLID
  5
D02
330
9C5
100
AcDbEntity
  8
0
  6
Continuous
 62
     0
440
 16777216
100
AcDbTrace
 10
18.87988304566622
 20
76.40275470218608
 30
0.0
 11
19.35988304566622
 21
76.40275470218608
 31
0.0
 12
19.11988304566622
 22
77.84275470218608
 32
0.0
 13
19.11988304566622
 23
77.84275470218608
 33
0.0
  0
SOLID
  5
D03
330
9C5
100
AcDbEntity
  8
0
  6
Continuous
 62
     0
440
 16777216
100
AcDbTrace
 10
18.87988304566623
 20
43.28275470218606
 30
0.0
 11
19.35988304566623
 21
43.28275470218606
 31
0.0
 12
19.11988304566623
 22
41.84275470218607
 32
0.0
 13
19.11988304566623
 23
41.84275470218607
 33
0.0
  0
MTEXT
  5
D04
330
9C5
100
AcDbEntity
  8
0
  6
Continuous
 62
     0
440
 16777216
370
    18
100
AcDbMText
 10
16.86242056271944
 20
59.67272388574961
 30
0.0
 40
1.6
 41
0.0
 46
0.0
 71
     5
 72
     1
  1
\A1;36
  7
Dim
 11
0.0000000000000001
 21
1.0
 31
0.0
 73
     1
 44
1.0
  0
POINT
  5
D05
330
9C5
100
AcDbEntity
  8
Defpoints
  6
Continuous
 62
     0
440
 16777216
100
AcDbPoint
 10
25.59925930108001
 20
77.84275470218608
 30
0.0
  0
POINT
  5
D06
330
9C5
100
AcDbEntity
  8
Defpoints
  6
Continuous
 62
     0
440
 16777216
100
AcDbPoint
 10
25.59925930108001
 20
41.84275470218607
 30
0.0
  0
POINT
  5
D07
330
9C5
100
AcDbEntity
  8
Defpoints
  6
Continuous
 62
     0
440
 16777216
100
AcDbPoint
 10
19.11988304566623
 20
41.84275470218607
 30
0.0
  0
ENDBLK
  5
9C7
330
9C5
100
AcDbEntity
  8
0
100
AcDbBlockEnd
  0
BLOCK
  5
9E0
330
9DF
100
AcDbEntity
  8
0
100
AcDbBlockBegin
  2
*D16
 70
     1
 10
0.0
 20
0.0
 30
0.0
  3
*D16
  1

  0
LINE
  5
CC5
330
9DF
100
AcDbEntity
  8
0
  6
Continuous
 62
     0
440
 16777216
370
    -2
100
AcDbLine
 10
76.59925930107999
 20
40.56275470218605
 30
0.0
 11
76.59925930107999
 21
33.91800678200465
 31
0.0
  0
LINE
  5
CC6
330
9DF
100
AcDbEntity
  8
0
  6
Continuous
 62
     0
440
 16777216
370
    -2
100
AcDbLine
 10
85.59925930107999
 20
40.56275470218605
 30
0.0
 11
85.59925930107999
 21
33.91800678200465
 31
0.0
  0
LINE
  5
CC7
330
9DF
100
AcDbEntity
  8
0
  6
Continuous
 62
     0
440
 16777216
370
    -2
100
AcDbLine
 10
78.03925930107999
 20
34.91800678200466
 30
0.0
 11
84.15925930108
 21
34.91800678200466
 31
0.0
  0
SOLID
  5
CC8
330
9DF
100
AcDbEntity
  8
0
  6
Continuous
 62
     0
440
 16777216
100
AcDbTrace
 10
78.03925930107999
 20
35.15800678200466
 30
0.0
 11
78.03925930107999
 21
34.67800678200465
 31
0.0
 12
76.59925930107999
 22
34.91800678200466
 32
0.0
 13
76.59925930107999
 23
34.91800678200466
 33
0.0
  0
SOLID
  5
CC9
330
9DF
100
AcDbEntity
  8
0
  6
Continuous
 62
     0
440
 16777216
100
AcDbTrace
 10
84.15925930108
 20
35.15800678200466
 30
0.0
 11
84.15925930108
 21
34.67800678200465
 31
0.0
 12
85.59925930107999
 22
34.91800678200466
 32
0.0
 13
85.59925930107999
 23
34.91800678200466
 33
0.0
  0
MTEXT
  5
CCA
330
9DF
100
AcDbEntity
  8
0
  6
Continuous
 62
     0
440
 16777216
370
    18
100
AcDbMText
 10
81.09925930108
 20
37.17492356235936
 30
0.0
 40
1.6
 41
0.0
 46
0.0
 71
     5
 72
     1
  1
\A1;9
  7
Dim
 73
     1
 44
1.0
  0
POINT
  5
CCB
330
9DF
100
AcDbEntity
  8
Defpoints
  6
Continuous
 62
     0
440
 16777216
100
AcDbPoint
 10
76.59925930107999
 20
41.84275470218605
 30
0.0
  0
POINT
  5
CCC
330
9DF
100
AcDbEntity
  8
Defpoints
  6
Continuous
 62
     0
440
 16777216
100
AcDbPoint
 10
85.59925930107999
 20
41.84275470218605
 30
0.0
  0
POINT
  5
CCD
330
9DF
100
AcDbEntity
  8
Defpoints
  6
Continuous
 62
     0
440
 16777216
100
AcDbPoint
 10
85.59925930107999
 20
34.91800678200466
 30
0.0
  0
ENDBLK
  5
9E1
330
9DF
100
AcDbEntity
  8
0
100
AcDbBlockEnd
  0
BLOCK
  5
9FA
330
9F9
100
AcDbEntity
  8
0
100
AcDbBlockBegin
  2
*D17
 70
     1
 10
0.0
 20
0.0
 30
0.0
  3
*D17
  1

  0
LINE
  5
1936
330
9F9
100
AcDbEntity
  8
0
  6
Continuous
 62
     0
440
 16777216
370
    -2
100
AcDbLine
 10
26.87925930108001
 20
77.84275470218608
 30
0.0
 11
91.43017891447199
 21
77.84275470218609
 31
0.0
  0
LINE
  5
1937
330
9F9
100
AcDbEntity
  8
0
  6
Continuous
 62
     0
440
 16777216
370
    -2
100
AcDbLine
 10
84.81198162394724
 20
64.30385301837322
 30
0.0
 11
91.43017891447199
 21
64.30385301837322
 31
0.0
  0
LINE
  5
1938
330
9F9
100
AcDbEntity
  8
0
  6
Continuous
 62
     0
440
 16777216
370
    -2
100
AcDbLine
 10
90.43017891447197
 20
76.4027547021861
 30
0.0
 11
90.43017891447197
 21
65.74385301837321
 31
0.0
  0
SOLID
  5
1939
330
9F9
100
AcDbEntity
  8
0
  6
Continuous
 62
     0
440
 16777216
100
AcDbTrace
 10
90.19017891447198
 20
76.4027547021861
 30
0.0
 11
90.67017891447198
 21
76.4027547021861
 31
0.0
 12
90.43017891447197
 22
77.84275470218609
 32
0.0
 13
90.43017891447197
 23
77.84275470218609
 33
0.0
  0
SOLID
  5
193A
330
9F9
100
AcDbEntity
  8
0
  6
Continuous
 62
     0
440
 16777216
100
AcDbTrace
 10
90.19017891447198
 20
65.74385301837321
 30
0.0
 11
90.67017891447198
 21
65.74385301837321
 31
0.0
 12
90.43017891447197
 22
64.30385301837322
 32
0.0
 13
90.43017891447197
 23
64.30385301837322
 33
0.0
  0
MTEXT
  5
193B
330
9F9
100
AcDbEntity
  8
0
  6
Continuous
 62
     0
440
 16777216
370
    18
100
AcDbMText
 10
88.17326213411728
 20
70.7626463619081
 30
0.0
 40
1.6
 41
0.0
 46
0.0
 71
     5
 72
     1
  1
\A1;18
  7
Dim
 11
0.0000000000000001
 21
1.0
 31
0.0
 73
     1
 44
1.0
  0
POINT
  5
193C
330
9F9
100
AcDbEntity
  8
Defpoints
  6
Continuous
 62
     0
440
 16777216
100
AcDbPoint
 10
25.59925930108001
 20
77.84275470218608
 30
0.0
  0
POINT
  5
193D
330
9F9
100
AcDbEntity
  8
Defpoints
  6
Continuous
 62
     0
440
 16777216
100
AcDbPoint
 10
83.53198162394724
 20
64.30385301837322
 30
0.0
  0
POINT
  5
193E
330
9F9
100
AcDbEntity
  8
Defpoints
  6
Continuous
 62
     0
440
 16777216
100
AcDbPoint
 10
90.43017891447197
 20
64.30385301837322
 30
0.0
  0
ENDBLK
  5
9FB
330
9F9
100
AcDbEntity
  8
0
100
AcDbBlockEnd
  0
BLOCK
  5
A5D
330
A5C
100
AcDbEntity
  8
0
100
AcDbBlockBegin
  2
*D18
 70
     1
 10
0.0
 20
0.0
 30
0.0
  3
*D18
  1

  0
LINE
  5
CD7
330
A5C
100
AcDbEntity
  8
0
  6
Continuous
 62
     0
440
 16777216
370
    -2
100
AcDbLine
 10
85.59925930107999
 20
79.12275470218606
 30
0.0
 11
85.59925930107999
 21
80.86514189091563
 31
0.0
  0
LINE
  5
CD8
330
A5C
100
AcDbEntity
  8
0
  6
Continuous
 62
     0
440
 16777216
370
    -2
100
AcDbLine
 10
83.53198162394722
 20
65.54322352993597
 30
0.0
 11
83.53198162394722
 21
80.86514189091563
 31
0.0
  0
LINE
  5
CD9
330
A5C
100
AcDbEntity
  8
0
  6
Continuous
 62
     0
440
 16777216
370
    -2
100
AcDbLine
 10
87.03925930107999
 20
79.86514189091562
 30
0.0
 11
88.47925930107999
 21
79.86514189091562
 31
0.0
  0
LINE
  5
CDA
330
A5C
100
AcDbEntity
  8
0
  6
Continuous
 62
     0
440
 16777216
370
    -2
100
AcDbLine
 10
82.09198162394722
 20
79.86514189091562
 30
0.0
 11
80.65198162394722
 21
79.86514189091562
 31
0.0
  0
SOLID
  5
CDB
330
A5C
100
AcDbEntity
  8
0
  6
Continuous
 62
     0
440
 16777216
100
AcDbTrace
 10
87.03925930107999
 20
80.10514189091562
 30
0.0
 11
87.03925930107999
 21
79.62514189091563
 31
0.0
 12
85.59925930107999
 22
79.86514189091562
 32
0.0
 13
85.59925930107999
 23
79.86514189091562
 33
0.0
  0
SOLID
  5
CDC
330
A5C
100
AcDbEntity
  8
0
  6
Continuous
 62
     0
440
 16777216
100
AcDbTrace
 10
82.09198162394722
 20
80.10514189091562
 30
0.0
 11
82.09198162394722
 21
79.62514189091563
 31
0.0
 12
83.53198162394722
 22
79.86514189091562
 32
0.0
 13
83.53198162394722
 23
79.86514189091562
 33
0.0
  0
MTEXT
  5
CDD
330
A5C
100
AcDbEntity
  8
0
  6
Continuous
 62
     0
440
 16777216
370
    18
100
AcDbMText
 10
84.56562046251361
 20
82.12260437386241
 30
0.0
 40
1.6
 41
0.0
 46
0.0
 71
     5
 72
     1
  1
\A1;3
  7
Dim
 73
     1
 44
1.0
  0
POINT
  5
CDE
330
A5C
100
AcDbEntity
  8
Defpoints
  6
Continuous
 62
     0
440
 16777216
100
AcDbPoint
 10
85.59925930107999
 20
77.84275470218606
 30
0.0
  0
POINT
  5
CDF
330
A5C
100
AcDbEntity
  8
Defpoints
  6
Continuous
 62
     0
440
 16777216
100
AcDbPoint
 10
83.53198162394722
 20
64.26322352993597
 30
0.0
  0
POINT
  5
CE0
330
A5C
100
AcDbEntity
  8
Defpoints
  6
Continuous
 62
     0
440
 16777216
100
AcDbPoint
 10
83.53198162394722
 20
79.86514189091562
 30
0.0
  0
ENDBLK
  5
A5E
330
A5C
100
AcDbEntity
  8
0
100
AcDbBlockEnd
  0
BLOCK
  5
B75
330
B74
100
AcDbEntity
  8
0
100
AcDbBlockBegin
  2
*D19
 70
     1
 10
0.0
 20
0.0
 30
0.0
  3
*D19
  1

  0
LINE
  5
CE1
330
B74
100
AcDbEntity
  8
0
  6
Continuous
 62
     0
440
 16777216
370
    -2
100
AcDbLine
 10
85.59925930107999
 20
79.12275470218606
 30
0.0
 11
85.59925930107999
 21
84.98609014501246
 31
0.0
  0
LINE
  5
CE2
330
B74
100
AcDbEntity
  8
0
  6
Continuous
 62
     0
440
 16777216
370
    -2
100
AcDbLine
 10
78.8778950572499
 20
65.54322352993597
 30
0.0
 11
78.8778950572499
 21
84.98609014501246
 31
0.0
  0
LINE
  5
CE3
330
B74
100
AcDbEntity
  8
0
  6
Continuous
 62
     0
440
 16777216
370
    -2
100
AcDbLine
 10
84.15925930108
 20
83.98609014501246
 30
0.0
 11
80.3178950572499
 21
83.98609014501246
 31
0.0
  0
SOLID
  5
CE4
330
B74
100
AcDbEntity
  8
0
  6
Continuous
 62
     0
440
 16777216
100
AcDbTrace
 10
84.15925930108
 20
84.22609014501245
 30
0.0
 11
84.15925930108
 21
83.74609014501247
 31
0.0
 12
85.59925930107999
 22
83.98609014501246
 32
0.0
 13
85.59925930107999
 23
83.98609014501246
 33
0.0
  0
SOLID
  5
CE5
330
B74
100
AcDbEntity
  8
0
  6
Continuous
 62
     0
440
 16777216
100
AcDbTrace
 10
80.3178950572499
 20
84.22609014501245
 30
0.0
 11
80.3178950572499
 21
83.74609014501247
 31
0.0
 12
78.8778950572499
 22
83.98609014501246
 32
0.0
 13
78.8778950572499
 23
83.98609014501246
 33
0.0
  0
MTEXT
  5
CE6
330
B74
100
AcDbEntity
  8
0
  6
Continuous
 62
     0
440
 16777216
370
    18
100
AcDbMText
 10
82.23857717916494
 20
86.24300692536717
 30
0.0
 40
1.6
 41
0.0
 46
0.0
 71
     5
 72
     1
  1
\A1;6
  7
Dim
 73
     1
 44
1.0
  0
POINT
  5
CE7
330
B74
100
AcDbEntity
  8
Defpoints
  6
Continuous
 62
     0
440
 16777216
100
AcDbPoint
 10
85.59925930107999
 20
77.84275470218606
 30
0.0
  0
POINT
  5
CE8
330
B74
100
AcDbEntity
  8
Defpoints
  6
Continuous
 62
     0
440
 16777216
100
AcDbPoint
 10
78.8778950572499
 20
64.26322352993597
 30
0.0
  0
POINT
  5
CE9
330
B74
100
AcDbEntity
  8
Defpoints
  6
Continuous
 62
     0
440
 16777216
100
AcDbPoint
 10
78.8778950572499
 20
83.98609014501246
 30
0.0
  0
ENDBLK
  5
B76
330
B74
100
AcDbEntity
  8
0
100
AcDbBlockEnd
  0
BLOCK
  5
BC7
330
BC6
100
AcDbEntity
  8
0
100
AcDbBlockBegin
  2
*D20
 70
     1
 10
0.0
 20
0.0
 30
0.0
  3
*D20
  1

  0
LINE
  5
193F
330
BC6
100
AcDbEntity
  8
0
  6
Continuous
 62
     0
440
 16777216
370
    -2
100
AcDbLine
 10
26.87925930108001
 20
77.84275470218608
 30
0.0
 11
99.52418032071321
 21
77.84275470218611
 31
0.0
  0
LINE
  5
1940
330
BC6
100
AcDbEntity
  8
0
  6
Continuous
 62
     0
440
 16777216
370
    -2
100
AcDbLine
 10
84.81198162394724
 20
54.55982661480092
 30
0.0
 11
99.52418032071321
 21
54.55982661480092
 31
0.0
  0
LINE
  5
1941
330
BC6
100
AcDbEntity
  8
0
  6
Continuous
 62
     0
440
 16777216
370
    -2
100
AcDbLine
 10
98.52418032071319
 20
76.40275470218611
 30
0.0
 11
98.52418032071319
 21
55.99982661480092
 31
0.0
  0
SOLID
  5
1942
330
BC6
100
AcDbEntity
  8
0
  6
Continuous
 62
     0
440
 16777216
100
AcDbTrace
 10
98.2841803207132
 20
76.40275470218611
 30
0.0
 11
98.7641803207132
 21
76.40275470218611
 31
0.0
 12
98.52418032071319
 22
77.84275470218611
 32
0.0
 13
98.52418032071319
 23
77.84275470218611
 33
0.0
  0
SOLID
  5
1943
330
BC6
100
AcDbEntity
  8
0
  6
Continuous
 62
     0
440
 16777216
100
AcDbTrace
 10
98.2841803207132
 20
55.99982661480092
 30
0.0
 11
98.7641803207132
 21
55.99982661480092
 31
0.0
 12
98.52418032071319
 22
54.55982661480092
 32
0.0
 13
98.52418032071319
 23
54.55982661480092
 33
0.0
  0
MTEXT
  5
1944
330
BC6
100
AcDbEntity
  8
0
  6
Continuous
 62
     0
440
 16777216
370
    18
100
AcDbMText
 10
96.28090610516068
 20
65.97695063074173
 30
0.0
 40
1.6
 41
0.0
 46
0.0
 71
     5
 72
     1
  1
\A1;22
  7
Dim
 11
0.0000000000000001
 21
1.0
 31
0.0
 73
     1
 44
1.0
  0
POINT
  5
1945
330
BC6
100
AcDbEntity
  8
Defpoints
  6
Continuous
 62
     0
440
 16777216
100
AcDbPoint
 10
25.59925930108001
 20
77.84275470218608
 30
0.0
  0
POINT
  5
1946
330
BC6
100
AcDbEntity
  8
Defpoints
  6
Continuous
 62
     0
440
 16777216
100
AcDbPoint
 10
83.53198162394724
 20
54.55982661480092
 30
0.0
  0
POINT
  5
1947
330
BC6
100
AcDbEntity
  8
Defpoints
  6
Continuous
 62
     0
440
 16777216
100
AcDbPoint
 10
98.52418032071319
 20
54.55982661480092
 30
0.0
  0
ENDBLK
  5
BC8
330
BC6
100
AcDbEntity
  8
0
100
AcDbBlockEnd
  0
BLOCK
  5
1743
330
1742
100
AcDbEntity
  8
0
100
AcDbBlockBegin
  2
*D26
 70
     1
 10
0.0
 20
0.0
 30
0.0
  3
*D26
  1

  0
LINE
  5
178C
330
1742
100
AcDbEntity
  8
0
  6
Continuous
 62
     0
440
 16777216
370
    -2
100
AcDbLine
 10
111.0545182766335
 20
53.95525776521051
 30
0.0
 11
106.2674298058056
 21
53.95525776521051
 31
0.0
  0
LINE
  5
178D
330
1742
100
AcDbEntity
  8
0
  6
Continuous
 62
     0
440
 16777216
370
    -2
100
AcDbLine
 10
110.2537242766336
 20
44.91391376521046
 30
0.0
 11
106.2674298058056
 21
44.91391376521046
 31
0.0
  0
LINE
  5
178E
330
1742
100
AcDbEntity
  8
0
  6
Continuous
 62
     0
440
 16777216
370
    -2
100
AcDbLine
 10
107.2674298058056
 20
52.51525776521051
 30
0.0
 11
107.2674298058056
 21
46.35391376521046
 31
0.0
  0
SOLID
  5
178F
330
1742
100
AcDbEntity
  8
0
  6
Continuous
 62
     0
440
 16777216
100
AcDbTrace
 10
107.0274298058056
 20
52.51525776521051
 30
0.0
 11
107.5074298058056
 21
52.51525776521051
 31
0.0
 12
107.2674298058056
 22
53.95525776521051
 32
0.0
 13
107.2674298058056
 23
53.95525776521051
 33
0.0
  0
SOLID
  5
1790
330
1742
100
AcDbEntity
  8
0
  6
Continuous
 62
     0
440
 16777216
100
AcDbTrace
 10
107.0274298058056
 20
46.35391376521046
 30
0.0
 11
107.5074298058056
 21
46.35391376521046
 31
0.0
 12
107.2674298058056
 22
44.91391376521046
 32
0.0
 13
107.2674298058056
 23
44.91391376521046
 33
0.0
  0
MTEXT
  5
1791
330
1742
100
AcDbEntity
  8
0
  6
Continuous
 62
     0
440
 16777216
370
    18
100
AcDbMText
 10
105.0137872410034
 20
49.43458576521033
 30
0.0
 40
1.6
 41
0.0
 46
0.0
 71
     5
 72
     1
  1
\A1;5
  7
Dim
 11
0.0000000000000001
 21
1.0
 31
0.0
 73
     1
 44
1.0
  0
POINT
  5
1792
330
1742
100
AcDbEntity
  8
Defpoints
  6
Continuous
 62
     0
440
 16777216
100
AcDbPoint
 10
112.3345182766334
 20
53.95525776521052
 30
0.0
  0
POINT
  5
1793
330
1742
100
AcDbEntity
  8
Defpoints
  6
Continuous
 62
     0
440
 16777216
100
AcDbPoint
 10
111.5337242766336
 20
44.91391376521046
 30
0.0
  0
POINT
  5
1794
330
1742
100
AcDbEntity
  8
Defpoints
  6
Continuous
 62
     0
440
 16777216
100
AcDbPoint
 10
107.2674298058056
 20
44.91391376521046
 30
0.0
  0
ENDBLK
  5
1744
330
1742
100
AcDbEntity
  8
0
100
AcDbBlockEnd
  0
BLOCK
  5
174F
330
174E
100
AcDbEntity
  8
0
100
AcDbBlockBegin
  2
*D27
 70
     1
 10
0.0
 20
0.0
 30
0.0
  3
*D27
  1

  0
LINE
  5
179F
330
174E
100
AcDbEntity
  8
0
  6
Continuous
 62
     0
440
 16777216
370
    -2
100
AcDbLine
 10
110.8821482766334
 20
55.96444576521051
 30
0.0
 11
106.2674298058056
 21
55.96444576521051
 31
0.0
  0
LINE
  5
17A0
330
174E
100
AcDbEntity
  8
0
  6
Continuous
 62
     0
440
 16777216
370
    -2
100
AcDbLine
 10
111.0928422766338
 20
53.95525776521051
 30
0.0
 11
106.2674298058056
 21
53.95525776521051
 31
0.0
  0
LINE
  5
17A1
330
174E
100
AcDbEntity
  8
0
  6
Continuous
 62
     0
440
 16777216
370
    -2
100
AcDbLine
 10
107.2674298058056
 20
57.4044457652105
 30
0.0
 11
107.2674298058056
 21
58.84444576521051
 31
0.0
  0
LINE
  5
17A2
330
174E
100
AcDbEntity
  8
0
  6
Continuous
 62
     0
440
 16777216
370
    -2
100
AcDbLine
 10
107.2674298058056
 20
52.51525776521051
 30
0.0
 11
107.2674298058056
 21
51.0752577652105
 31
0.0
  0
SOLID
  5
17A3
330
174E
100
AcDbEntity
  8
0
  6
Continuous
 62
     0
440
 16777216
100
AcDbTrace
 10
107.0274298058056
 20
57.4044457652105
 30
0.0
 11
107.5074298058056
 21
57.4044457652105
 31
0.0
 12
107.2674298058056
 22
55.96444576521051
 32
0.0
 13
107.2674298058056
 23
55.96444576521051
 33
0.0
  0
SOLID
  5
17A4
330
174E
100
AcDbEntity
  8
0
  6
Continuous
 62
     0
440
 16777216
100
AcDbTrace
 10
107.0274298058056
 20
52.51525776521051
 30
0.0
 11
107.5074298058056
 21
52.51525776521051
 31
0.0
 12
107.2674298058056
 22
53.95525776521051
 32
0.0
 13
107.2674298058056
 23
53.95525776521051
 33
0.0
  0
MTEXT
  5
17A5
330
174E
100
AcDbEntity
  8
0
  6
Continuous
 62
     0
440
 16777216
370
    18
100
AcDbMText
 10
105.0241555902531
 20
54.95985176521046
 30
0.0
 40
1.6
 41
0.0
 46
0.0
 71
     5
 72
     1
  1
\A1;1
  7
Dim
 11
0.0000000000000001
 21
1.0
 31
0.0
 73
     1
 44
1.0
  0
POINT
  5
17A6
330
174E
100
AcDbEntity
  8
Defpoints
  6
Continuous
 62
     0
440
 16777216
100
AcDbPoint
 10
112.1621482766334
 20
55.96444576521051
 30
-71.805864
  0
POINT
  5
17A7
330
174E
100
AcDbEntity
  8
Defpoints
  6
Continuous
 62
     0
440
 16777216
100
AcDbPoint
 10
112.3728422766337
 20
53.95525776521052
 30
0.0
  0
POINT
  5
17A8
330
174E
100
AcDbEntity
  8
Defpoints
  6
Continuous
 62
     0
440
 16777216
100
AcDbPoint
 10
107.2674298058056
 20
53.95525776521051
 30
0.0
  0
ENDBLK
  5
1750
330
174E
100
AcDbEntity
  8
0
100
AcDbBlockEnd
  0
BLOCK
  5
175C
330
175B
100
AcDbEntity
  8
0
100
AcDbBlockBegin
  2
*D28
 70
     1
 10
0.0
 20
0.0
 30
0.0
  3
*D28
  1

  0
LINE
  5
18E3
330
175B
100
AcDbEntity
  8
0
  6
Continuous
 62
     0
440
 16777216
370
    -2
100
AcDbLine
 10
118.7795942766335
 20
54.33268376521048
 30
0.0
 11
118.7795942766335
 21
58.74347550404434
 31
0.0
  0
LINE
  5
18E4
330
175B
100
AcDbEntity
  8
0
  6
Continuous
 62
     0
440
 16777216
370
    -2
100
AcDbLine
 10
111.7335022766335
 20
51.91480176521046
 30
0.0
 11
111.7335022766335
 21
58.74347550404434
 31
0.0
  0
LINE
  5
18E5
330
175B
100
AcDbEntity
  8
0
  6
Continuous
 62
     0
440
 16777216
370
    -2
100
AcDbLine
 10
117.3395942766335
 20
57.74347550404434
 30
0.0
 11
113.1735022766335
 21
57.74347550404434
 31
0.0
  0
SOLID
  5
18E6
330
175B
100
AcDbEntity
  8
0
  6
Continuous
 62
     0
440
 16777216
100
AcDbTrace
 10
117.3395942766335
 20
57.98347550404434
 30
0.0
 11
117.3395942766335
 21
57.50347550404434
 31
0.0
 12
118.7795942766335
 22
57.74347550404434
 32
0.0
 13
118.7795942766335
 23
57.74347550404434
 33
0.0
  0
SOLID
  5
18E7
330
175B
100
AcDbEntity
  8
0
  6
Continuous
 62
     0
440
 16777216
100
AcDbTrace
 10
113.1735022766335
 20
57.98347550404434
 30
0.0
 11
113.1735022766335
 21
57.50347550404434
 31
0.0
 12
111.7335022766335
 22
57.74347550404434
 32
0.0
 13
111.7335022766335
 23
57.74347550404434
 33
0.0
  0
MTEXT
  5
18E8
330
175B
100
AcDbEntity
  8
0
  6
Continuous
 62
     0
440
 16777216
370
    18
100
AcDbMText
 10
115.2565482766335
 20
60.32224767321214
 30
0.0
 40
1.6
 41
4.123968660308634
 46
0.0
 71
     5
 72
     1
  1
\A1;3 {\H0.7x;\S1#2;}   
  7
Dim
 73
     1
 44
1.0
  0
POINT
  5
18E9
330
175B
100
AcDbEntity
  8
Defpoints
  6
Continuous
 62
     0
440
 16777216
100
AcDbPoint
 10
118.7795942766335
 20
53.05268376521047
 30
825.7674439999998
  0
POINT
  5
18EA
330
175B
100
AcDbEntity
  8
Defpoints
  6
Continuous
 62
     0
440
 16777216
100
AcDbPoint
 10
111.7335022766335
 20
50.63480176521045
 30
0.0
  0
POINT
  5
18EB
330
175B
100
AcDbEntity
  8
Defpoints
  6
Continuous
 62
     0
440
 16777216
100
AcDbPoint
 10
111.7335022766335
 20
57.74347550404434
 30
0.0
  0
ENDBLK
  5
175D
330
175B
100
AcDbEntity
  8
0
100
AcDbBlockEnd
  0
ENDSEC
  0
SECTION
  2
ENTITIES
  0
ARC
  5
64D
330
1F
100
AcDbEntity
  8
0
  6
Continuous
 62
     7
370
    25
100
AcDbCircle
 10
129.7677806013942
 20
10.86481290316934
 30
0.0
 40
0.0999999999999979
100
AcDbArc
 50
0.000000000000007
 51
90.00000000003257
  0
LINE
  5
64E
330
1F
100
AcDbEntity
  8
0
  6
Continuous
 62
     7
370
    25
100
AcDbLine
 10
129.5927806013941
 20
10.9648129031693
 30
0.0
 11
129.7677806013942
 21
10.9648129031693
 31
0.0
  0
ARC
  5
64F
330
1F
100
AcDbEntity
  8
0
  6
Continuous
 62
     7
370
    25
100
AcDbCircle
 10
129.5927806013941
 20
11.06481290316932
 30
0.0
 40
0.0999999999999979
100
AcDbArc
 50
180.0
 51
269.9999999999707
  0
LINE
  5
650
330
1F
100
AcDbEntity
  8
0
  6
Continuous
 62
     7
370
    25
100
AcDbLine
 10
129.4927806013941
 20
11.24200042341567
 30
0.0
 11
129.4927806013941
 21
11.06481290316932
 31
0.0
  0
ARC
  5
651
330
1F
100
AcDbEntity
  8
0
  6
Continuous
 62
     7
370
    25
100
AcDbCircle
 10
129.3927806013942
 20
11.24200042341567
 30
0.0
 40
0.1000000000000012
100
AcDbArc
 50
0.000000000000007
 51
88.73283456051963
  0
LINE
  5
652
330
1F
100
AcDbEntity
  8
0
  6
Continuous
 62
     7
370
    25
100
AcDbLine
 10
80.21861417260845
 20
11.88228294399039
 30
0.0
 11
129.3949920420133
 21
11.34197596807729
 31
0.0
  0
ARC
  5
653
330
1F
100
AcDbEntity
  8
0
  6
Continuous
 62
     7
370
    25
100
AcDbCircle
 10
80.22967137570464
 20
12.3821606672985
 30
0.0
 40
0.5000000000000068
100
AcDbArc
 50
184.0000000000013
 51
268.7328345605196
  0
LINE
  5
654
330
1F
100
AcDbEntity
  8
0
  6
Continuous
 62
     7
370
    25
100
AcDbLine
 10
79.73088935057467
 20
12.34728243042642
 30
0.0
 11
79.64145891881997
 21
13.62619718814445
 31
0.0
  0
ARC
  5
655
330
1F
100
AcDbEntity
  8
0
  6
Continuous
 62
     7
370
    25
100
AcDbCircle
 10
79.39206790625502
 20
13.60875806970844
 30
0.0
 40
0.2499999999999981
100
AcDbArc
 50
3.99999999999814
 51
86.59355624500689
  0
LINE
  5
656
330
1F
100
AcDbEntity
  8
0
  6
Continuous
 62
     7
370
    25
100
AcDbLine
 10
79.40692256625101
 20
13.85831635764213
 30
0.0
 11
77.6177806013942
 21
13.96481290316932
 31
0.0
  0
LINE
  5
657
330
1F
100
AcDbEntity
  8
0
  6
Continuous
 62
     7
370
    25
100
AcDbLine
 10
77.6177806013942
 20
13.4648129031693
 30
0.0
 11
77.6177806013942
 21
13.96481290316932
 31
0.0
  0
LINE
  5
658
330
1F
100
AcDbEntity
  8
0
  6
Continuous
 62
     7
370
    25
100
AcDbLine
 10
78.82910747799911
 20
13.39271011289522
 30
0.0
 11
77.6177806013942
 21
13.4648129031693
 31
0.0
  0
ARC
  5
659
330
1F
100
AcDbEntity
  8
0
  6
Continuous
 62
     7
370
    25
100
AcDbCircle
 10
78.80682548800502
 20
13.01837268099467
 30
0.0
 40
0.3750000000000022
100
AcDbArc
 50
3.999999999999752
 51
86.59355624500689
  0
LINE
  5
65A
330
1F
100
AcDbEntity
  8
0
  6
Continuous
 62
     7
370
    25
100
AcDbLine
 10
79.39626690012767
 20
9.964812903169331
 30
0.0
 11
79.18091200685245
 21
13.04453135864872
 31
0.0
  0
LINE
  5
65F
330
1F
100
AcDbEntity
  8
0
  6
Continuous
 62
     7
370
    25
100
AcDbLine
 10
138.0469602081443
 20
11.33981290316933
 30
0.0
 11
137.2177806013942
 21
11.33981290316933
 31
0.0
  0
ARC
  5
660
330
1F
100
AcDbEntity
  8
0
  6
Continuous
 62
     7
370
    25
100
AcDbCircle
 10
137.2177806013942
 20
11.23981290316933
 30
0.0
 40
0.1000000000000156
100
AcDbArc
 50
90.0
 51
180.0
  0
LINE
  5
661
330
1F
100
AcDbEntity
  8
0
  6
Continuous
 62
     7
370
    25
100
AcDbLine
 10
137.1177806013942
 20
11.06481290316932
 30
0.0
 11
137.1177806013942
 21
11.23981290316933
 31
0.0
  0
ARC
  5
662
330
1F
100
AcDbEntity
  8
0
  6
Continuous
 62
     7
370
    25
100
AcDbCircle
 10
137.0177806013942
 20
11.06481290316932
 30
0.0
 40
0.1000000000000023
100
AcDbArc
 50
269.9999999999707
 51
0.000000000000007
  0
LINE
  5
663
330
1F
100
AcDbEntity
  8
0
  6
Continuous
 62
     7
370
    25
100
AcDbLine
 10
136.8427806013941
 20
10.9648129031693
 30
0.0
 11
137.0177806013942
 21
10.9648129031693
 31
0.0
  0
ARC
  5
664
330
1F
100
AcDbEntity
  8
0
  6
Continuous
 62
     7
370
    25
100
AcDbCircle
 10
136.8427806013941
 20
10.86481290316934
 30
0.0
 40
0.1000000000000023
100
AcDbArc
 50
90.00000000003257
 51
180.0
  0
LINE
  5
665
330
1F
100
AcDbEntity
  8
0
  6
Continuous
 62
     7
370
    25
100
AcDbLine
 10
136.7427806013942
 20
10.81481290316932
 30
0.0
 11
136.7427806013942
 21
10.86481290316934
 31
0.0
  0
ARC
  5
666
330
1F
100
AcDbEntity
  8
0
  6
Continuous
 62
     7
370
    25
100
AcDbCircle
 10
136.6427806013942
 20
10.81481290316932
 30
0.0
 40
0.1000000000000023
100
AcDbArc
 50
270.0
 51
0.000000000000007
  0
LINE
  5
667
330
1F
100
AcDbEntity
  8
0
  6
Continuous
 62
     7
370
    25
100
AcDbLine
 10
129.9677806013941
 20
10.7148129031693
 30
0.0
 11
136.6427806013942
 21
10.7148129031693
 31
0.0
  0
ARC
  5
668
330
1F
100
AcDbEntity
  8
0
  6
Continuous
 62
     7
370
    25
100
AcDbCircle
 10
129.9677806013941
 20
10.81481290316932
 30
0.0
 40
0.0999999999999979
100
AcDbArc
 50
180.0
 51
270.0
  0
LINE
  5
669
330
1F
100
AcDbEntity
  8
0
  6
Continuous
 62
     7
370
    25
100
AcDbLine
 10
129.8677806013941
 20
10.86481290316934
 30
0.0
 11
129.8677806013941
 21
10.81481290316932
 31
0.0
  0
LINE
  5
66B
330
1F
100
AcDbEntity
  8
0
  6
Continuous
 62
     7
370
    25
100
AcDbLine
 10
129.9677806013941
 20
10.7148129031693
 30
0.0
 11
129.9677806013941
 21
10.76481827200857
 31
0.0
  0
ARC
  5
66C
330
1F
100
AcDbEntity
  8
0
  6
Continuous
 62
     7
370
    25
100
AcDbCircle
 10
129.9677779170466
 20
10.86481558766101
 30
0.0
 40
0.0999973156884743
100
AcDbArc
 50
180.0015381417375
 51
270.0015380591477
  0
ARC
  5
66D
330
1F
100
AcDbEntity
  8
0
  6
Continuous
 62
     7
370
    25
100
AcDbCircle
 10
136.6427832857417
 20
10.86481558766101
 30
0.0
 40
0.0999973156884427
100
AcDbArc
 50
269.9984619408393
 51
359.9984618582839
  0
LINE
  5
66E
330
1F
100
AcDbEntity
  8
0
  6
Continuous
 62
     7
370
    25
100
AcDbLine
 10
136.6427806013942
 20
10.76481827200857
 30
0.0
 11
136.6427806013942
 21
10.7148129031693
 31
0.0
  0
SPLINE
  5
66F
330
1F
100
AcDbEntity
  8
0
  6
Continuous
 62
     7
370
    25
100
AcDbSpline
210
0.0
220
0.0
230
1.0
 70
     8
 71
     3
 72
     8
 73
     4
 74
     0
 42
0.000000001
 43
0.0000000001
 40
0.0
 40
0.0
 40
0.0
 40
0.0
 40
0.0000105020772605
 40
0.0000105020772605
 40
0.0000105020772605
 40
0.0000105020772605
 10
129.8499064676522
 20
10.94717874494984
 30
0.0
 10
129.8499032973154
 20
10.94718017270807
 30
0.0
 10
129.8499028934622
 20
10.94718160141622
 30
0.0
 10
129.8499052688078
 20
10.94718302934023
 30
0.0
  0
ARC
  5
670
330
1F
100
AcDbEntity
  8
0
  6
Continuous
 62
     7
370
    25
100
AcDbCircle
 10
129.7677806013942
 20
10.76481827200857
 30
0.0
 40
0.2000000000000054
100
AcDbArc
 50
0.000000000000007
 51
65.75562545962663
  0
ARC
  5
671
330
1F
100
AcDbEntity
  8
0
  6
Continuous
 62
     7
370
    25
100
AcDbCircle
 10
136.8427806013941
 20
10.76481827200857
 30
0.0
 40
0.2000000000000072
100
AcDbArc
 50
114.2443745403733
 51
180.0
  0
SPLINE
  5
672
330
1F
100
AcDbEntity
  8
0
  6
Continuous
 62
     7
370
    25
100
AcDbSpline
210
0.0
220
0.0
230
1.0
 70
     8
 71
     3
 72
     8
 73
     4
 74
     0
 42
0.000000001
 43
0.0000000001
 40
0.0
 40
0.0
 40
0.0
 40
0.0
 40
0.0000105020772605
 40
0.0000105020772605
 40
0.0000105020772605
 40
0.0000105020772605
 10
136.7606559339805
 20
10.94718302934023
 30
0.0
 10
136.7606583093261
 20
10.94718160141622
 30
0.0
 10
136.760657905473
 20
10.94718017270807
 30
0.0
 10
136.7606547351361
 20
10.94717874494984
 30
0.0
  0
LINE
  5
673
330
1F
100
AcDbEntity
  8
0
  6
Continuous
 62
     7
370
    25
100
AcDbLine
 10
129.8499052688078
 20
10.94718302934023
 30
0.0
 11
136.7606559339805
 21
10.94718302934023
 31
0.0
  0
ARC
  5
674
330
1F
100
AcDbEntity
  8
0
  6
Continuous
 62
     7
370
    25
100
AcDbCircle
 10
129.8498819491095
 20
11.04712006175535
 30
0.0
 40
0.0999413198130788
100
AcDbArc
 50
245.7558912544461
 51
270.0140563386383
  0
ARC
  5
675
330
1F
100
AcDbEntity
  8
0
  6
Continuous
 62
     7
370
    25
100
AcDbCircle
 10
136.7606792536788
 20
11.04712006175535
 30
0.0
 40
0.0999413198130589
100
AcDbArc
 50
269.9859436613551
 51
294.2441087455539
  0
ELLIPSE
  5
676
330
1F
100
AcDbEntity
  8
0
  6
Continuous
 62
     7
370
    25
100
AcDbEllipse
 10
81.23366622107591
 20
12.35995248638706
 30
0.0
 11
-1.502778802152135
 21
-0.0126207219822308
 31
0.0
210
0.0
220
0.0
230
-0.9999999999999998
 40
0.0231084577899923
 41
4.715833970647291
 42
6.281764312610902
  0
LINE
  5
677
330
1F
100
AcDbEntity
  8
0
  6
Continuous
 62
     7
370
    25
100
AcDbLine
 10
81.22878081666646
 20
12.32518231375999
 30
0.0
 11
81.13780499420972
 21
13.62619718814445
 31
0.0
  0
ELLIPSE
  5
678
330
1F
100
AcDbEntity
  8
0
  6
Continuous
 62
     7
370
    25
100
AcDbEllipse
 10
81.15367357721078
 20
13.50390058929439
 30
0.0
 11
-1.504941481820923
 21
0.0187665508475907
 31
0.0
210
0.0
220
0.0
230
-1.0
 40
0.0811246739015064
 41
0.7762750262521175
 42
1.559240197233694
  0
ELLIPSE
  5
679
330
1F
100
AcDbEntity
  8
0
  6
Continuous
 62
     7
370
    25
100
AcDbEllipse
 10
81.15367357721078
 20
13.50390058929439
 30
0.0
 11
-1.512214509403504
 21
0.1223262603480177
 31
0.0
210
0.0
220
0.0
230
-1.0
 40
0.011337109763585
 41
6.281465731076888
 42
7.064430902056881
  0
SPLINE
  5
67A
330
1F
100
AcDbEntity
  8
0
  6
Continuous
 62
     7
370
    25
100
AcDbSpline
210
0.0
220
0.0
230
1.0
 70
     8
 71
     3
 72
    26
 73
    22
 74
     0
 42
0.000000001
 43
0.0000000001
 40
0.0
 40
0.0
 40
0.0
 40
0.0
 40
0.1249999999999793
 40
0.1249999999999793
 40
0.2499999999999586
 40
0.2499999999999586
 40
0.3749999999999379
 40
0.3749999999999379
 40
0.4374999999999277
 40
0.4374999999999277
 40
0.4999999999999173
 40
0.4999999999999173
 40
0.6249999999999373
 40
0.6249999999999373
 40
0.7499999999999572
 40
0.7499999999999572
 40
0.874999999999977
 40
0.874999999999977
 40
0.9374999999999886
 40
0.9374999999999886
 40
1.0
 40
1.0
 40
1.0
 40
1.0
 10
79.91242208911433
 20
13.82822710032885
 30
0.0
 10
79.92304872185099
 20
13.82759456266594
 30
0.0
 10
79.93347312156004
 20
13.82562532624413
 30
0.0
 10
79.95393441548481
 20
13.81912556003791
 30
0.0
 10
79.96402809683019
 20
13.81456012835357
 30
0.0
 10
79.9835560626438
 20
13.80288174569367
 30
0.0
 10
79.99282144202135
 20
13.79588756083933
 30
0.0
 10
80.00599518041019
 20
13.78371840285202
 30
0.0
 10
80.01026497020365
 20
13.77938066850313
 30
0.0
 10
80.01855675343568
 20
13.77013119026014
 30
0.0
 10
80.02259486824483
 20
13.76519499019385
 30
0.0
 10
80.03411256361363
 20
13.74978266617236
 30
0.0
 10
80.0410572969074
 20
13.73865906547959
 30
0.0
 10
80.05351002854235
 20
13.71474996890353
 30
0.0
 10
80.05906069674882
 20
13.70182170612056
 30
0.0
 10
80.06834430437947
 20
13.67503892132364
 30
0.0
 10
80.0721025206513
 20
13.66119343441553
 30
0.0
 10
80.07642786640445
 20
13.6397509502025
 30
0.0
 10
80.07764971039103
 20
13.63249042466457
 30
0.0
 10
80.07963967307398
 20
13.61773619447199
 30
0.0
 10
80.08040597228699
 20
13.61020715036801
 30
0.0
 10
80.08092189916482
 20
13.60282905253953
 30
0.0
  0
LINE
  5
67B
330
1F
100
AcDbEntity
  8
0
  6
Continuous
 62
     7
370
    25
100
AcDbLine
 10
79.91242208911433
 20
13.82822710032885
 30
0.0
 11
79.40692256625101
 21
13.85831635764213
 31
0.0
  0
ELLIPSE
  5
67C
330
1F
100
AcDbEntity
  8
0
  6
Continuous
 62
     7
370
    25
100
AcDbEllipse
 10
129.3927806013942
 20
11.84214719133854
 30
0.0
 11
0.002211441887452
 21
-0.5001712232724565
 31
0.0
210
0.0
220
0.0
230
-0.9999999999999996
 40
0.0003090598598162
 41
0.0000082036129402
 42
1.501008461160806
  0
LINE
  5
67D
330
1F
100
AcDbEntity
  8
0
  6
Continuous
 62
     7
370
    25
100
AcDbLine
 10
129.3927806013942
 20
11.80726895446648
 30
0.0
 11
81.22878081666646
 21
12.32518231375999
 31
0.0
  0
SPLINE
  5
67E
330
1F
100
AcDbEntity
  8
0
  6
Continuous
 62
     7
370
    25
100
AcDbSpline
210
0.0
220
0.0
230
1.0
 70
     8
 71
     3
 72
    20
 73
    16
 74
     0
 42
0.000000001
 43
0.0000000001
 40
0.0
 40
0.0
 40
0.0
 40
0.0
 40
0.1249999999999988
 40
0.1249999999999988
 40
0.2499999999999977
 40
0.2499999999999977
 40
0.4999999999999939
 40
0.4999999999999939
 40
0.6249999999999955
 40
0.6249999999999955
 40
0.7499999999999969
 40
0.7499999999999969
 40
0.8749999999999984
 40
0.8749999999999984
 40
1.0
 40
1.0
 40
1.0
 40
1.0
 10
129.4927806013941
 20
11.34863975102419
 30
0.0
 10
129.4927806013941
 20
11.3673797973714
 30
0.0
 10
129.4912796250011
 20
11.38591872056307
 30
0.0
 10
129.4866222255145
 20
11.42290330276128
 30
0.0
 10
129.4834455722167
 20
11.44136874357724
 30
0.0
 10
129.4725105220004
 20
11.49684899065286
 30
0.0
 10
129.4634499482961
 20
11.53388606446285
 30
0.0
 10
129.4491218114038
 20
11.59058592596841
 30
0.0
 10
129.4441977095174
 20
11.60966814124785
 30
0.0
 10
129.4341685201108
 20
11.64830052507486
 30
0.0
 10
129.4290565084679
 20
11.66787221853215
 30
0.0
 10
129.4187841763182
 20
11.70722497301204
 30
0.0
 10
129.4136138891211
 20
11.72704087803012
 30
0.0
 10
129.4032235185723
 20
11.76697280317322
 30
0.0
 10
129.3979801439282
 20
11.78717632242953
 30
0.0
 10
129.3927806013942
 20
11.80726895446648
 30
0.0
  0
LINE
  5
67F
330
1F
100
AcDbEntity
  8
0
  6
Continuous
 62
     7
370
    25
100
AcDbLine
 10
129.4927806013941
 20
11.24200042341567
 30
0.0
 11
129.4927806013941
 21
11.34863975102419
 31
0.0
  0
ELLIPSE
  5
680
330
1F
100
AcDbEntity
  8
0
  6
Continuous
 62
     7
370
    25
100
AcDbEllipse
 10
81.15367357721078
 20
13.75345887722809
 30
0.0
 11
-1.754324322475519
 21
0.0009518792776927
 31
0.0
210
0.0
220
0.0
230
-1.0
 40
0.0597684011322821
 41
0.7847554176587783
 42
1.561718363562944
  0
LINE
  5
681
330
1F
100
AcDbEntity
  8
0
  6
Continuous
 62
     7
370
    25
100
AcDbLine
 10
81.13780499420972
 20
13.85831635764213
 30
0.0
 11
81.13780499420972
 21
13.62619718814445
 31
0.0
  0
SPLINE
  5
682
330
1F
100
AcDbEntity
  8
0
  6
Continuous
 62
     7
370
    25
100
AcDbSpline
210
0.0
220
0.0
230
1.0
 70
     8
 71
     3
 72
    22
 73
    18
 74
     0
 42
0.000000001
 43
0.0000000001
 40
0.0
 40
0.0
 40
0.0
 40
0.0
 40
0.125
 40
0.125
 40
0.25
 40
0.25
 40
0.375
 40
0.375
 40
0.5
 40
0.5
 40
0.625
 40
0.625
 40
0.75
 40
0.75
 40
0.875
 40
0.875
 40
1.0
 40
1.0
 40
1.0
 40
1.0
 10
136.8016633121238
 20
10.95598738553192
 30
0.0
 10
136.8014175662997
 20
10.95601869373101
 30
0.0
 10
136.8008906890925
 20
10.95672135861164
 30
0.0
 10
136.7993033849663
 20
10.95941798204811
 30
0.0
 10
136.7982300651538
 20
10.96143802170684
 30
0.0
 10
136.7955905100063
 20
10.96673060254991
 30
0.0
 10
136.7940409618567
 20
10.96996730154765
 30
0.0
 10
136.7905056106553
 20
10.97760671040029
 30
0.0
 10
136.7884970231815
 20
10.98206234967332
 30
0.0
 10
136.7841935197194
 20
10.99185490808389
 30
0.0
 10
136.7818917102744
 20
10.99720438333017
 30
0.0
 10
136.777001085167
 20
11.00881986623284
 30
0.0
 10
136.774407541154
 20
11.01510069357053
 30
0.0
 10
136.7691536140839
 20
11.02807934476601
 30
0.0
 10
136.7664676418505
 20
11.03483694764256
 30
0.0
 10
136.7609805181355
 20
11.04890485873284
 30
0.0
 10
136.7581715561491
 20
11.0562421571077
 30
0.0
 10
136.7554569844912
 20
11.06345675907315
 30
0.0
  0
SPLINE
  5
683
330
1F
100
AcDbEntity
  8
0
  6
Continuous
 62
     7
370
    25
100
AcDbSpline
210
0.0
220
0.0
230
1.0
 70
     8
 71
     3
 72
    22
 73
    18
 74
     0
 42
0.000000001
 43
0.0000000001
 40
0.0
 40
0.0
 40
0.0
 40
0.0
 40
0.125
 40
0.125
 40
0.25
 40
0.25
 40
0.375
 40
0.375
 40
0.5
 40
0.5
 40
0.625
 40
0.625
 40
0.75
 40
0.75
 40
0.875
 40
0.875
 40
1.0
 40
1.0
 40
1.0
 40
1.0
 10
136.7606559339805
 20
10.94718302934023
 30
0.0
 10
136.7606289261403
 20
10.94726420730498
 30
0.0
 10
136.7605710194157
 20
10.94807401535476
 30
0.0
 10
136.7603962830439
 20
10.95109197295866
 30
0.0
 10
136.7602780289043
 20
10.95332883226476
 30
0.0
 10
136.7599865198812
 20
10.95915075282792
 30
0.0
 10
136.7598151061997
 20
10.96269663795132
 30
0.0
 10
136.759422836612
 20
10.97103523231558
 30
0.0
 10
136.7591994348912
 20
10.97588520428692
 30
0.0
 10
136.7587190660002
 20
10.98651419154655
 30
0.0
 10
136.7584613463344
 20
10.9923072325989
 30
0.0
 10
136.7579116160628
 20
11.00485492622564
 30
0.0
 10
136.7576190415021
 20
11.01162512558548
 30
0.0
 10
136.7570238633788
 20
11.02558495216476
 30
0.0
 10
136.7567183998378
 20
11.03283914726219
 30
0.0
 10
136.7560917366074
 20
11.04791044859584
 30
0.0
 10
136.755769554532
 20
11.05575585187176
 30
0.0
 10
136.7554569844912
 20
11.06345675907315
 30
0.0
  0
ARC
  5
684
330
1F
100
AcDbEntity
  8
0
  6
Continuous
 62
     7
370
    25
100
AcDbCircle
 10
136.7606371920631
 20
11.04717096858277
 30
0.0
 40
0.0999879409990477
100
AcDbArc
 50
270.01073962284
 51
294.2243527241922
  0
SPLINE
  5
685
330
1F
100
AcDbEntity
  8
0
  6
Continuous
 62
     7
370
    25
100
AcDbSpline
210
0.0
220
0.0
230
1.0
 70
     8
 71
     3
 72
    22
 73
    18
 74
     0
 42
0.000000001
 43
0.0000000001
 40
0.0
 40
0.0
 40
0.0
 40
0.0
 40
0.125
 40
0.125
 40
0.25
 40
0.25
 40
0.375
 40
0.375
 40
0.5
 40
0.5
 40
0.625
 40
0.625
 40
0.75
 40
0.75
 40
0.875
 40
0.875
 40
1.0
 40
1.0
 40
1.0
 40
1.0
 10
129.8499052688078
 20
10.94718302934023
 30
0.0
 10
129.849932276648
 20
10.94726420730498
 30
0.0
 10
129.8499901833725
 20
10.94807401535476
 30
0.0
 10
129.8501649197445
 20
10.95109197295866
 30
0.0
 10
129.850283173884
 20
10.95332883226476
 30
0.0
 10
129.850574682907
 20
10.95915075282795
 30
0.0
 10
129.8507460965887
 20
10.96269663795132
 30
0.0
 10
129.8511383661763
 20
10.97103523231558
 30
0.0
 10
129.851361767897
 20
10.97588520428692
 30
0.0
 10
129.8518421367882
 20
10.98651419154655
 30
0.0
 10
129.8520998564539
 20
10.99230723259893
 30
0.0
 10
129.8526495867256
 20
11.00485492622564
 30
0.0
 10
129.8529421612863
 20
11.01162512558548
 30
0.0
 10
129.8535373394095
 20
11.02558495216476
 30
0.0
 10
129.8538428029505
 20
11.03283914726219
 30
0.0
 10
129.8544694661809
 20
11.04791044859587
 30
0.0
 10
129.8547916482543
 20
11.05575585187185
 30
0.0
 10
129.855104218297
 20
11.06345675907315
 30
0.0
  0
SPLINE
  5
686
330
1F
100
AcDbEntity
  8
0
  6
Continuous
 62
     7
370
    25
100
AcDbSpline
210
0.0
220
0.0
230
1.0
 70
     8
 71
     3
 72
    22
 73
    18
 74
     0
 42
0.000000001
 43
0.0000000001
 40
0.0
 40
0.0
 40
0.0
 40
0.0
 40
0.125
 40
0.125
 40
0.25
 40
0.25
 40
0.375
 40
0.375
 40
0.5
 40
0.5
 40
0.625
 40
0.625
 40
0.75
 40
0.75
 40
0.875
 40
0.875
 40
1.0
 40
1.0
 40
1.0
 40
1.0
 10
129.8088978906645
 20
10.95598738553192
 30
0.0
 10
129.8091436364885
 20
10.95601869373101
 30
0.0
 10
129.8096705136959
 20
10.95672135861164
 30
0.0
 10
129.8112578178219
 20
10.95941798204811
 30
0.0
 10
129.8123311376346
 20
10.96143802170684
 30
0.0
 10
129.8149706927821
 20
10.96673060254991
 30
0.0
 10
129.8165202409316
 20
10.96996730154765
 30
0.0
 10
129.8200555921331
 20
10.97760671040029
 30
0.0
 10
129.8220641796069
 20
10.98206234967332
 30
0.0
 10
129.826367683069
 20
10.99185490808389
 30
0.0
 10
129.828669492514
 20
10.99720438333017
 30
0.0
 10
129.8335601176213
 20
11.00881986623284
 30
0.0
 10
129.8361536616343
 20
11.01510069357053
 30
0.0
 10
129.8414075887045
 20
11.02807934476601
 30
0.0
 10
129.8440935609379
 20
11.03483694764256
 30
0.0
 10
129.8495806846529
 20
11.04890485873284
 30
0.0
 10
129.8523896466393
 20
11.0562421571077
 30
0.0
 10
129.855104218297
 20
11.06345675907315
 30
0.0
  0
ARC
  5
687
330
1F
100
AcDbEntity
  8
0
  6
Continuous
 62
     7
370
    25
100
AcDbCircle
 10
129.8499240107252
 20
11.04717096858272
 30
0.0
 40
0.0999879409989766
100
AcDbArc
 50
245.7756472758006
 51
269.989260377173
  0
LINE
  5
688
330
1F
100
AcDbEntity
  8
0
  6
Continuous
 62
     7
370
    25
100
AcDbLine
 10
136.7554569844912
 20
11.06345675907315
 30
0.0
 11
129.855104218297
 21
11.06345675907315
 31
0.0
  0
ARC
  5
689
330
1F
100
AcDbEntity
  8
0
  6
Continuous
 62
     7
370
    25
100
AcDbCircle
 10
129.7677806013942
 20
10.8560933439513
 30
0.0
 40
0.2250000000000087
100
AcDbArc
 50
67.16336398959832
 51
90.0
  0
LINE
  5
68A
330
1F
100
AcDbEntity
  8
0
  6
Continuous
 62
     7
370
    25
100
AcDbLine
 10
129.7677806013942
 20
10.9648129031693
 30
0.0
 11
129.7677806013942
 21
11.08109334395132
 31
0.0
  0
SPLINE
  5
68B
330
1F
100
AcDbEntity
  8
0
  6
Continuous
 62
     7
370
    25
100
AcDbSpline
210
0.0
220
0.0
230
1.0
 70
     8
 71
     3
 72
     8
 73
     4
 74
     0
 42
0.000000001
 43
0.0000000001
 40
0.0
 40
0.0
 40
0.0
 40
0.0
 40
0.0000524774465426
 40
0.0000524774465426
 40
0.0000524774465426
 40
0.0000524774465426
 10
129.8088435345232
 20
10.95599313963996
 30
0.0
 10
129.8088581656154
 20
10.95598655054144
 30
0.0
 10
129.808876284156
 20
10.95598463284679
 30
0.0
 10
129.8088978906645
 20
10.95598738553192
 30
0.0
  0
SPLINE
  5
68C
330
1F
100
AcDbEntity
  8
0
  6
Continuous
 62
     7
370
    25
100
AcDbSpline
210
0.0
220
0.0
230
1.0
 70
     8
 71
     3
 72
     8
 73
     4
 74
     0
 42
0.000000001
 43
0.0000000001
 40
0.0
 40
0.0
 40
0.0
 40
0.0
 40
0.0000524774465426
 40
0.0000524774465426
 40
0.0000524774465426
 40
0.0000524774465426
 10
136.8017176682651
 20
10.95599313963996
 30
0.0
 10
136.8017030371729
 20
10.95598655054144
 30
0.0
 10
136.8016849186324
 20
10.95598463284679
 30
0.0
 10
136.8016633121238
 20
10.95598738553192
 30
0.0
  0
LINE
  5
68D
330
1F
100
AcDbEntity
  8
0
  6
Continuous
 62
     7
370
    25
100
AcDbLine
 10
136.8427806013941
 20
10.9648129031693
 30
0.0
 11
136.8427806013941
 21
11.08109334395132
 31
0.0
  0
ARC
  5
68E
330
1F
100
AcDbEntity
  8
0
  6
Continuous
 62
     7
370
    25
100
AcDbCircle
 10
136.8427806013941
 20
10.8560933439513
 30
0.0
 40
0.2250000000000084
100
AcDbArc
 50
90.0
 51
112.8366360104016
  0
ARC
  5
68F
330
1F
100
AcDbEntity
  8
0
  6
Continuous
 62
     7
370
    25
100
AcDbCircle
 10
129.58668266282
 20
11.79444695578738
 30
0.0
 40
0.4555893556250025
100
AcDbArc
 50
258.1054455751353
 51
273.9139789944057
  0
SPLINE
  5
690
330
1F
100
AcDbEntity
  8
0
  6
Continuous
 62
     7
370
    25
100
AcDbSpline
210
0.0
220
0.0
230
1.0
 70
     8
 71
     3
 72
    20
 73
    16
 74
     0
 42
0.000000001
 43
0.0000000001
 40
0.0
 40
0.0
 40
0.0
 40
0.0
 40
0.2499999999999995
 40
0.2499999999999995
 40
0.3749999999999996
 40
0.3749999999999996
 40
0.4999999999999998
 40
0.4999999999999998
 40
0.75
 40
0.75
 40
0.8749999999999984
 40
0.8749999999999984
 40
0.9374999999999992
 40
0.9374999999999992
 40
1.0
 40
1.0
 40
1.0
 40
1.0
 10
129.6177806013941
 20
11.33992019180616
 30
0.0
 10
129.6177806013941
 20
11.38448036394774
 30
0.0
 10
129.6099174711796
 20
11.42767225128736
 30
0.0
 10
129.5900750183278
 20
11.49105966999045
 30
0.0
 10
129.5821267809448
 20
11.51177355846405
 30
0.0
 10
129.5643521329222
 20
11.55195127431082
 30
0.0
 10
129.554489610138
 20
11.571521295622
 30
0.0
 10
129.5226353437502
 20
11.62902540446001
 30
0.0
 10
129.4983430647495
 20
11.66580039131568
 30
0.0
 10
129.4597658825467
 20
11.71960604369727
 30
0.0
 10
129.4465691326325
 20
11.73728908006888
 30
0.0
 10
129.4265231986918
 20
11.76362633426842
 30
0.0
 10
129.4197993343865
 20
11.77237413893775
 30
0.0
 10
129.4063098047099
 20
11.78983853188308
 30
0.0
 10
129.3995157286083
 20
11.79859170448404
 30
0.0
 10
129.3927806013942
 20
11.8072689544665
 30
0.0
  0
ARC
  5
691
330
1F
100
AcDbEntity
  8
0
  6
Continuous
 62
     7
370
    25
100
AcDbCircle
 10
129.5929620618978
 20
11.06469046104763
 30
0.0
 40
0.099877630643076
100
AcDbArc
 50
180.2089012190837
 51
269.930838550476
  0
ELLIPSE
  5
692
330
1F
100
AcDbEntity
  8
0
  6
Continuous
 62
     7
370
    25
100
AcDbEllipse
 10
129.6177806013941
 20
11.06481290316932
 30
0.0
 11
-0.1250000000000017
 21
0.0
 31
0.0
210
0.0
220
0.0
230
-1.0
 40
0.0558051789951711
 41
6.21337213710032
 42
6.283185307179585
  0
ELLIPSE
  5
693
330
1F
100
AcDbEntity
  8
0
  6
Continuous
 62
     7
370
    25
100
AcDbEllipse
 10
129.6177806013941
 20
11.08981290316933
 30
0.0
 11
-0.1249887034745799
 21
-0.02505407162122
 31
0.0
210
0.0
220
0.0
230
-1.0
 40
0.0670740174386803
 41
4.725833203276464
 42
6.226816359991463
  0
LINE
  5
694
330
1F
100
AcDbEntity
  8
0
  6
Continuous
 62
     7
370
    25
100
AcDbLine
 10
129.6177806013941
 20
11.08109334395132
 30
0.0
 11
129.6177806013941
 21
11.33992019180616
 31
0.0
  0
ELLIPSE
  5
695
330
1F
100
AcDbEntity
  8
0
  6
Continuous
 62
     7
370
    25
100
AcDbEllipse
 10
136.9927806013941
 20
11.06481290316932
 30
0.0
 11
-0.1249999999999973
 21
0.0
 31
0.0
210
0.0
220
0.0
230
-1.0
 40
0.0558051789953152
 41
3.14159265358979
 42
3.211405823669386
  0
ARC
  5
696
330
1F
100
AcDbEntity
  8
0
  6
Continuous
 62
     7
370
    25
100
AcDbCircle
 10
137.0238785399683
 20
11.68562010793417
 30
0.0
 40
0.4555893556266304
100
AcDbArc
 50
266.0860210056139
 51
281.8945544248281
  0
LINE
  5
697
330
1F
100
AcDbEntity
  8
0
  6
Continuous
 62
     7
370
    25
100
AcDbLine
 10
136.9927806013941
 20
11.2310933439513
 30
0.0
 11
136.9927806013941
 21
11.08109334395132
 31
0.0
  0
ELLIPSE
  5
698
330
1F
100
AcDbEntity
  8
0
  6
Continuous
 62
     7
370
    25
100
AcDbEllipse
 10
136.9927806013941
 20
11.0898129031693
 30
0.0
 11
-0.1249887034745755
 21
0.02505407162122
 31
0.0
210
0.0
220
0.0
230
-1.0
 40
0.0670740174387099
 41
3.197961600776274
 42
4.698944757492909
  0
ARC
  5
699
330
1F
100
AcDbEntity
  8
0
  6
Continuous
 62
     7
370
    25
100
AcDbCircle
 10
137.0175991408905
 20
11.06469046104763
 30
0.0
 40
0.0998776306430702
100
AcDbArc
 50
270.0691614495207
 51
359.7910987809166
  0
ELLIPSE
  5
69A
330
1F
100
AcDbEntity
  8
0
  6
Continuous
 62
     7
370
    25
100
AcDbEllipse
 10
136.9927806013941
 20
11.0898129031693
 30
0.0
 11
0.0249436809833581
 21
-0.1249995519767388
 31
0.0
210
0.0
220
0.0
230
-1.0
 40
0.0134171213931961
 41
0.0026773823627591
 42
1.503660539080226
  0
ELLIPSE
  5
69B
330
1F
100
AcDbEntity
  8
0
  6
Continuous
 62
     7
370
    25
100
AcDbEllipse
 10
129.6177806013941
 20
11.08981290316933
 30
0.0
 11
-0.0249436809833536
 21
-0.1249995519767566
 31
0.0
210
0.0
220
0.0
230
-1.0
 40
0.0134171213932217
 41
4.779524768099512
 42
6.280507924817882
  0
LINE
  5
69C
330
1F
100
AcDbEntity
  8
0
  6
Continuous
 62
     7
370
    25
100
AcDbLine
 10
136.9927806013941
 20
11.08109334395132
 30
0.0
 11
136.8427806013941
 21
11.08109334395132
 31
0.0
  0
LINE
  5
69D
330
1F
100
AcDbEntity
  8
0
  6
Continuous
 62
     7
370
    25
100
AcDbLine
 10
129.7677806013942
 20
11.08109334395132
 30
0.0
 11
129.6177806013941
 21
11.08109334395132
 31
0.0
  0
LINE
  5
6A3
330
1F
100
AcDbEntity
  8
0
  6
Continuous
 62
     7
370
    25
100
AcDbLine
 10
137.2177806013942
 20
11.33981290316933
 30
0.0
 11
137.2177806013942
 21
11.45609334395132
 31
0.0
  0
ARC
  5
6A4
330
1F
100
AcDbEntity
  8
0
  6
Continuous
 62
     7
370
    25
100
AcDbCircle
 10
137.2177806013942
 20
11.2310933439513
 30
0.0
 40
0.2250000000000084
100
AcDbArc
 50
90.0
 51
180.0
  0
LINE
  5
6A6
330
1F
100
AcDbEntity
  8
0
  6
Continuous
 62
     7
370
    25
100
AcDbLine
 10
138.0469602081443
 20
11.33981290316933
 30
0.0
 11
138.0469602081443
 21
11.45609334395132
 31
0.0
  0
LINE
  5
6A7
330
1F
100
AcDbEntity
  8
0
  6
Continuous
 62
     7
370
    25
100
AcDbLine
 10
138.0469602081443
 20
11.45609334395132
 30
0.0
 11
137.2177806013942
 21
11.45609334395132
 31
0.0
  0
LINE
  5
6A9
330
1F
100
AcDbEntity
  8
0
  6
Continuous
 62
     7
370
    25
100
AcDbLine
 10
77.6177806013942
 20
13.96481290316932
 30
0.0
 11
134.7393015965693
 21
13.9720364723398
 31
0.0
  0
LINE
  5
6AA
330
1F
100
AcDbEntity
  8
0
  6
Continuous
 62
     7
370
    25
100
AcDbLine
 10
134.7393015965693
 20
13.86380671183628
 30
0.0
 11
81.13780499420972
 21
13.85831635764213
 31
0.0
  0
LINE
  5
6AC
330
1F
100
AcDbEntity
  8
0
  6
Continuous
 62
     7
370
    25
100
AcDbLine
 10
81.13780499420972
 20
13.62619718814445
 30
0.0
 11
138.7403788461182
 21
13.62619718814445
 31
0.0
  0
ARC
  5
6AE
330
1F
100
AcDbEntity
  8
0
  6
Continuous
 62
     7
370
    25
100
AcDbCircle
 10
138.8339261605288
 20
12.72223752189526
 30
0.0
 40
0.9087872018458471
100
AcDbArc
 50
80.09658072482391
 51
95.90828870849433
  0
LINE
  5
6B4
330
1F
100
AcDbEntity
  8
0
  6
Continuous
 62
     7
370
    25
100
AcDbLine
 10
80.96887304569429
 20
11.88569224827839
 30
0.0
 11
128.6456177451751
 21
11.37855688165393
 31
0.0
  0
LINE
  5
6B5
330
1F
100
AcDbEntity
  8
0
  6
Continuous
 62
     7
370
    25
100
AcDbLine
 10
128.6460600332988
 20
11.39855199058627
 30
0.0
 11
128.6456177451751
 21
11.37855688165393
 31
0.0
  0
LINE
  5
6B6
330
1F
100
AcDbEntity
  8
0
  6
Continuous
 62
     7
370
    25
100
AcDbLine
 10
80.9693153338182
 20
11.90568735721072
 30
0.0
 11
128.6460600332988
 21
11.39855199058627
 31
0.0
  0
LINE
  5
6B7
330
1F
100
AcDbEntity
  8
0
  6
Continuous
 62
     7
370
    25
100
AcDbLine
 10
80.96887304569429
 20
11.88569224827839
 30
0.0
 11
80.9693153338182
 21
11.90568735721072
 31
0.0
  0
LWPOLYLINE
  5
6B8
330
1F
100
AcDbEntity
  8
0
  6
Continuous
 62
     7
370
    25
100
AcDbPolyline
 90
        3
 70
   128
 43
0.0
 10
81.21772361357034
 20
11.86018282732397
 10
81.21800535786144
 20
11.86711589831142
 10
81.21838234308013
 20
11.88017314861284
  0
ARC
  5
6B9
330
1F
100
AcDbEntity
  8
0
  6
Continuous
 62
     7
370
    25
100
AcDbCircle
 10
-78.30085354937546
 20
15.81713857156932
 30
0.0
 40
159.5678476368893
100
AcDbArc
 50
358.5933975708688
 51
358.7460485833235
  0
POINT
  5
6BC
330
1F
100
AcDbEntity
  8
0
  6
Continuous
 62
     7
370
     0
100
AcDbPoint
 10
79.6177806013942
 20
13.96481290316921
 30
0.0
 50
270.0
  0
POINT
  5
6BD
330
1F
100
AcDbEntity
  8
0
  6
Continuous
 62
     7
370
     0
100
AcDbPoint
 10
79.76270008881414
 20
11.89236767948446
 30
0.0
 50
270.0
  0
MTEXT
  5
740
330
1F
100
AcDbEntity
  8
10-Title Block
100
AcDbMText
 10
43.30401408566376
 20
21.73290454000505
 30
0.0
 40
2.5
 41
69.87074302402563
 46
0.0
 71
     5
 72
     5
  1
Tower Industries\PMeridian Solid Surface Shower Base\PModel #: MSB6036STVR\PModel #: MSB6036STVL
  7
Dim
 73
     1
 44
1.0
  0
MTEXT
  5
741
330
1F
100
AcDbEntity
  8
0
  6
Continuous
 62
     0
370
     0
100
AcDbMText
 10
116.9737949423893
 20
64.49140761284937
 30
0.0
 40
1.101673228346456
 41
0.0
 46
1.101673228346456
 71
     2
 72
     1
  1
DETAIL C
  7
SLDTEXTSTYLE0
 73
     1
 44
1.0
  0
MTEXT
  5
742
330
1F
100
AcDbEntity
  8
0
  6
Continuous
 62
     0
370
     0
100
AcDbMText
 10
116.7848692949101
 20
41.74031033093249
 30
0.0
 40
1.101673228346456
 41
0.0
 46
0.0
 71
     2
 72
     1
  1
DETAIL D
  7
SLDTEXTSTYLE0
 73
     1
 44
1.0
  0
MTEXT
  5
743
330
1F
100
AcDbEntity
  8
0
  6
Continuous
 62
     0
370
     0
100
AcDbMText
 10
98.00038297093912
 20
8.590002054461017
 30
0.0
 40
1.101673228346456
 41
0.0
 46
0.0
 71
     2
 72
     1
  1
SECTION B-B
  7
SLDTEXTSTYLE0
 73
     1
 44
1.0
  0
MTEXT
  5
744
330
1F
100
AcDbEntity
  8
0
  6
Continuous
 62
     7
370
    18
100
AcDbMText
 10
94.39839092206776
 20
25.23506521224141
 30
0.0
 40
1.99875
 41
0.0
 46
0.0
 71
     1
 72
     1
  1
D
  7
SLDTEXTSTYLE0
 73
     1
 44
1.0
  0
CIRCLE
  5
745
330
1F
100
AcDbEntity
  8
0
 62
   252
420
  9672088
100
AcDbCircle
 10
98.37437291053703
 20
23.83228445943281
 30
0.0
 40
5.0
  0
MTEXT
  5
746
330
1F
100
AcDbEntity
  8
0
  6
Continuous
 62
     7
370
    18
100
AcDbMText
 10
140.3074054097086
 20
22.6629787522466
 30
825.7674439999997
 40
1.99875
 41
0.0
 46
0.0
 71
     1
 72
     1
  1
C
  7
SLDTEXTSTYLE0
 73
     1
 44
1.0
  0
CIRCLE
  5
747
330
1F
100
AcDbEntity
  8
0
 62
   252
420
  9672088
100
AcDbCircle
 10
137.7194222385868
 20
23.5246826227067
 30
825.7674439999997
 40
5.0
  0
LINE
  5
7A8
330
1F
100
AcDbEntity
  8
0
  6
Continuous
 62
     7
370
    25
100
AcDbLine
 10
114.0067643544323
 20
71.18600478415979
 30
0.0
 11
114.0067643544323
 21
71.22599500202446
 31
0.0
  0
ARC
  5
7A9
330
1F
100
AcDbEntity
  8
0
  6
Continuous
 62
     7
370
    25
100
AcDbCircle
 10
113.2468693680228
 20
59.50292843385315
 30
0.0
 40
11.7476349338114
100
AcDbArc
 50
86.29124274286796
 51
91.1711261011124
  0
LINE
  5
7AA
330
1F
100
AcDbEntity
  8
0
  6
Continuous
 62
     7
370
    25
100
AcDbLine
 10
113.939703219098
 20
70.26695898807557
 30
0.0
 11
114.0067631587735
 21
71.2259608045704
 31
0.0
  0
ARC
  5
7AB
330
1F
100
AcDbEntity
  8
0
  6
Continuous
 62
     7
370
    25
100
AcDbCircle
 10
112.8492319431685
 20
85.67016997671762
 30
0.0
 40
15.44176273500697
100
AcDbArc
 50
268.4802955091516
 51
274.0495019894008
  0
LINE
  5
7AC
330
1F
100
AcDbEntity
  8
0
  6
Continuous
 62
     7
370
    25
100
AcDbLine
 10
105.8667649343735
 20
70.23383867496793
 30
0.0
 11
112.4397050125861
 21
70.23383867496793
 31
0.0
  0
LINE
  5
7AD
330
1F
100
AcDbEntity
  8
0
  6
Continuous
 62
     7
370
    25
100
AcDbLine
 10
113.0067643544323
 20
71.24810940821681
 30
0.0
 11
105.8667649343735
 21
71.24810940821681
 31
0.0
  0
LINE
  5
7AE
330
1F
100
AcDbEntity
  8
0
  6
Continuous
 62
     7
370
    25
100
AcDbLine
 10
112.4397050125861
 20
70.23383867496793
 30
0.0
 11
112.4397050125861
 21
70.19384845710331
 31
0.0
  0
LINE
  5
7AF
330
1F
100
AcDbEntity
  8
0
  6
Continuous
 62
     7
370
    25
100
AcDbLine
 10
105.8667649343735
 20
70.19384845710331
 30
0.0
 11
112.4397050125861
 21
70.19384845710331
 31
0.0
  0
LINE
  5
7B0
330
1F
100
AcDbEntity
  8
0
  6
Continuous
 62
     7
370
    25
100
AcDbLine
 10
113.939703219098
 20
70.26695898807557
 30
0.0
 11
113.939703219098
 21
70.22696877021096
 31
0.0
  0
ARC
  5
7B1
330
1F
100
AcDbEntity
  8
0
  6
Continuous
 62
     7
370
    25
100
AcDbCircle
 10
112.8492319431693
 20
85.6301797588412
 30
0.0
 40
15.4417627349952
100
AcDbArc
 50
268.4802955091484
 51
274.0495019894025
  0
LINE
  5
7B2
330
1F
100
AcDbEntity
  8
0
  6
Continuous
 62
     7
370
    25
100
AcDbLine
 10
114.0067631587735
 20
71.2259608045704
 30
0.0
 11
114.0067631587735
 21
71.18597058670579
 31
0.0
  0
LINE
  5
7B3
330
1F
100
AcDbEntity
  8
0
  6
Continuous
 62
     7
370
    25
100
AcDbLine
 10
113.939703219098
 20
70.22696877021096
 30
0.0
 11
114.0067631587735
 21
71.18597058670579
 31
0.0
  0
LINE
  5
7B4
330
1F
100
AcDbEntity
  8
0
  6
Continuous
 62
     7
370
    25
100
AcDbLine
 10
116.0818492179933
 20
69.33110075247586
 30
0.0
 11
105.8667649343735
 21
69.2252449567907
 31
0.0
  0
ARC
  5
7B5
330
1F
100
AcDbEntity
  8
0
  6
Continuous
 62
     7
370
    25
100
AcDbCircle
 10
116.0792586835072
 20
69.5810873303777
 30
0.0
 40
0.2500000000000027
100
AcDbArc
 50
270.5937173962147
 51
355.9999999999978
  0
LINE
  5
7B6
330
1F
100
AcDbEntity
  8
0
  6
Continuous
 62
     7
370
    25
100
AcDbLine
 10
116.3286496960723
 20
69.56364821194168
 30
0.0
 11
116.6870582321596
 21
74.68912907008436
 31
0.0
  0
ARC
  5
7B7
330
1F
100
AcDbEntity
  8
0
  6
Continuous
 62
     7
370
    25
100
AcDbCircle
 10
117.1858402572895
 20
74.65425083321227
 30
0.0
 40
0.5000000000000317
100
AcDbArc
 50
93.40644375499474
 51
176.000000000001
  0
LINE
  5
7B8
330
1F
100
AcDbEntity
  8
0
  6
Continuous
 62
     7
370
    25
100
AcDbLine
 10
120.7344148670109
 20
75.36636050013403
 30
0.0
 11
117.1561309372975
 21
75.15336740907972
 31
0.0
  0
LINE
  5
7B9
330
1F
100
AcDbEntity
  8
0
  6
Continuous
 62
     7
370
    25
100
AcDbLine
 10
120.7344148670109
 20
74.36636050013411
 30
0.0
 11
120.7344148670109
 21
75.36636050013403
 31
0.0
  0
LINE
  5
7BA
330
1F
100
AcDbEntity
  8
0
  6
Continuous
 62
     7
370
    25
100
AcDbLine
 10
118.3117611138012
 20
74.2221549195859
 30
0.0
 11
120.7344148670109
 21
74.36636050013411
 31
0.0
  0
ARC
  5
7BB
330
1F
100
AcDbEntity
  8
0
  6
Continuous
 62
     7
370
    25
100
AcDbCircle
 10
118.3563250937894
 20
73.47348005578479
 30
0.0
 40
0.7500000000000045
100
AcDbArc
 50
93.40644375499474
 51
175.9999999999994
  0
LINE
  5
7BC
330
1F
100
AcDbEntity
  8
0
  6
Continuous
 62
     7
370
    25
100
AcDbLine
 10
117.177442269544
 20
67.36636050013411
 30
0.0
 11
117.6081520560945
 21
73.52579741109289
 31
0.0
  0
LINE
  5
7BD
102
{ACAD_REACTORS
330
7E8
102
}
330
1F
100
AcDbEntity
  8
0
  6
Continuous
 62
     7
370
    25
100
AcDbLine
 10
105.8667649343735
 20
67.36636050013411
 30
0.0
 11
117.177442269544
 21
67.36636050013411
 31
0.0
  0
LINE
  5
7BE
330
1F
100
AcDbEntity
  8
0
  6
Continuous
 62
     7
370
    25
100
AcDbLine
 10
105.8667649343735
 20
69.29580809758994
 30
0.0
 11
116.0789499030598
 21
69.34872097307536
 31
0.0
  0
ARC
  5
7BF
330
1F
100
AcDbEntity
  8
0
  6
Continuous
 62
     7
370
    25
100
AcDbCircle
 10
116.1441377379037
 20
69.34744819604609
 30
0.0
 40
0.0652002589947987
100
AcDbArc
 50
178.8814556024665
 51
194.5282952506067
  0
LINE
  5
7C0
330
1F
100
AcDbEntity
  8
0
  6
Continuous
 62
     7
370
    25
100
AcDbLine
 10
116.0789499030598
 20
69.34872097307536
 30
0.0
 11
116.0817252238155
 21
69.36636050013411
 31
0.0
  0
LINE
  5
7C1
330
1F
100
AcDbEntity
  8
0
  6
Continuous
 62
     7
370
    25
100
AcDbLine
 10
105.8667649343735
 20
69.36636050013411
 30
0.0
 11
116.0817252238155
 21
69.36636050013411
 31
0.0
  0
SPLINE
  5
7C2
330
1F
100
AcDbEntity
  8
0
  6
Continuous
 62
     7
370
    25
100
AcDbSpline
210
0.0
220
0.0
230
1.0
 70
     8
 71
     3
 72
     8
 73
     4
 74
     0
 42
0.000000001
 43
0.0000000001
 40
0.0
 40
0.0
 40
0.0
 40
0.0
 40
0.0000524774465429
 40
0.0000524774465429
 40
0.0000524774465429
 40
0.0000524774465429
 10
116.0789499030598
 20
69.34872097307536
 30
0.0
 10
116.0803268899289
 20
69.34870779487832
 30
0.0
 10
116.0817038673638
 20
69.34870395948903
 30
0.0
 10
116.0830805391128
 20
69.34870946485924
 30
0.0
  0
ARC
  5
7C3
330
1F
100
AcDbEntity
  8
0
  6
Continuous
 62
     7
370
    25
100
AcDbCircle
 10
116.0817252238155
 20
69.61636050013403
 30
0.0
 40
0.2500000000000082
100
AcDbArc
 50
270.0
 51
355.9999999999978
  0
ARC
  5
7C4
330
1F
100
AcDbEntity
  8
0
  6
Continuous
 62
     7
370
    25
100
AcDbCircle
 10
115.9975991578008
 20
69.34583949796323
 30
0.0
 40
0.085529546128779
100
AcDbArc
 50
350.0770637548137
 51
1.922936244981715
  0
LINE
  5
7C5
330
1F
100
AcDbEntity
  8
0
  6
Continuous
 62
     7
370
    25
100
AcDbLine
 10
116.1179230964473
 20
70.13401419584377
 30
0.0
 11
116.3673141090123
 21
70.11657507740776
 31
0.0
  0
SPLINE
  5
7C6
330
1F
100
AcDbEntity
  8
0
  6
Continuous
 62
     7
370
    25
100
AcDbSpline
210
0.0
220
0.0
230
1.0
 70
     8
 71
     3
 72
    20
 73
    16
 74
     0
 42
0.000000001
 43
0.0000000001
 40
0.0
 40
0.0
 40
0.0
 40
0.0
 40
0.1249999999999986
 40
0.1249999999999986
 40
0.2499999999999973
 40
0.2499999999999973
 40
0.4999999999999931
 40
0.4999999999999931
 40
0.6249999999999948
 40
0.6249999999999948
 40
0.7499999999999965
 40
0.7499999999999965
 40
0.8749999999999982
 40
0.8749999999999982
 40
1.0
 40
1.0
 40
1.0
 40
1.0
 10
116.1179230964473
 20
70.13401419584377
 30
0.0
 10
116.13643208726
 20
70.17149428853824
 30
0.0
 10
116.1550932087613
 20
70.20857213492153
 30
0.0
 10
116.1920657412168
 20
70.28254129931801
 30
0.0
 10
116.2103922628223
 20
70.31947218094993
 30
0.0
 10
116.2636715349847
 20
70.43043267510111
 30
0.0
 10
116.2967828256009
 20
70.50450682272106
 30
0.0
 10
116.3397562084171
 20
70.61790654573226
 30
0.0
 10
116.3529772440853
 20
70.65607097629109
 30
0.0
 10
116.3768285322607
 20
70.7333357439451
 30
0.0
 10
116.387463346935
 20
70.77247913085975
 30
0.0
 10
116.4056908741512
 20
70.85118463981953
 30
0.0
 10
116.4133094271153
 20
70.89081644985563
 30
0.0
 10
116.4253923854995
 20
70.97068030014182
 30
0.0
 10
116.4298644996861
 20
71.01108733866013
 30
0.0
 10
116.4326745270893
 20
71.05127260272841
 30
0.0
  0
ELLIPSE
  5
7C7
330
1F
100
AcDbEntity
  8
0
  6
Continuous
 62
     7
370
    25
100
AcDbEllipse
 10
116.0817252238155
 20
69.61636050013403
 30
0.0
 11
0.2493910125649632
 21
-0.0174391184360445
 31
0.0
210
0.0
220
0.0
230
1.0
 40
0.2000000000000821
 41
4.782202150464472
 42
6.283185307179585
  0
ARC
  5
7C8
330
1F
100
AcDbEntity
  8
0
  6
Continuous
 62
     7
370
    25
100
AcDbCircle
 10
115.3713529204968
 20
69.51603457059807
 30
0.0
 40
0.7259691017470678
100
AcDbArc
 50
348.1019193599562
 51
3.898080640053056
  0
LINE
  5
7C9
330
1F
100
AcDbEntity
  8
0
  6
Continuous
 62
     7
370
    25
100
AcDbLine
 10
116.0782288832183
 20
69.56636050013409
 30
0.0
 11
116.0956425339115
 21
69.56538730700825
 31
0.0
  0
LINE
  5
7CA
330
1F
100
AcDbEntity
  8
0
  6
Continuous
 62
     7
370
    25
100
AcDbLine
 10
116.0782288832183
 20
69.56636050013409
 30
0.0
 11
116.1179230964473
 21
70.13401419584377
 31
0.0
  0
LINE
  5
7CB
330
1F
100
AcDbEntity
  8
0
  6
Continuous
 62
     7
370
    25
100
AcDbLine
 10
116.0782288832183
 20
69.36636050013411
 30
0.0
 11
116.0782288832183
 21
69.56636050013409
 31
0.0
  0
LINE
  5
7CC
330
1F
100
AcDbEntity
  8
0
  6
Continuous
 62
     7
370
    25
100
AcDbLine
 10
105.8667649343735
 20
69.56636050013409
 30
0.0
 11
116.0782288832183
 21
69.56636050013409
 31
0.0
  0
LINE
  5
7CD
330
1F
100
AcDbEntity
  8
0
  6
Continuous
 62
     7
370
    25
100
AcDbLine
 10
115.4350694297975
 20
70.12068662995003
 30
0.0
 11
115.4350694297975
 21
69.92073554062679
 31
0.0
  0
ELLIPSE
  5
7CE
330
1F
100
AcDbEntity
  8
0
  6
Continuous
 62
     7
370
    25
100
AcDbEllipse
 10
115.4351104768295
 20
71.12102907647252
 30
0.0
 11
0.0697804783934331
 21
0.9979073327379591
 31
0.0
210
0.0
220
0.0
230
0.9999999999999998
 40
0.9996559976393809
 41
3.211388722841332
 42
4.712388980384702
  0
ELLIPSE
  5
7CF
330
1F
100
AcDbEntity
  8
0
  6
Continuous
 62
     7
370
    25
100
AcDbEllipse
 10
115.4351104768295
 20
71.12102907647252
 30
0.0
 11
-0.0837283446290193
 21
-1.197371112766239
 31
0.0
210
0.0
220
0.0
230
0.9999999999999998
 40
0.9997542512498243
 41
0.069796069251532
 42
0.6751315329370354
  0
LINE
  5
7D0
330
1F
100
AcDbEntity
  8
0
  6
Continuous
 62
     7
370
    25
100
AcDbLine
 10
115.4350694297975
 20
69.92073554062679
 30
0.0
 11
105.8667649343735
 21
69.92073554062679
 31
0.0
  0
LINE
  5
7D1
330
1F
100
AcDbEntity
  8
0
  6
Continuous
 62
     7
370
    25
100
AcDbLine
 10
105.8667649343735
 20
70.12068662995003
 30
0.0
 11
115.4350694297975
 21
70.12068662995003
 31
0.0
  0
ELLIPSE
  5
7D2
330
1F
100
AcDbEntity
  8
0
  6
Continuous
 62
     7
370
    25
100
AcDbEllipse
 10
113.5026436276477
 20
71.15688421995336
 30
0.0
 11
2.004901315022776
 21
0.0002850741534033
 31
0.0
210
0.0
220
0.0
230
1.0
 40
0.0221534330122769
 41
0.5996284146121141
 42
1.316621111920988
  0
LINE
  5
7D3
330
1F
100
AcDbEntity
  8
0
  6
Continuous
 62
     7
370
    25
100
AcDbLine
 10
115.4350694297975
 20
70.12068662995003
 30
0.0
 11
115.5075425369864
 21
71.15710034844332
 31
0.0
  0
ARC
  5
7D4
330
1F
100
AcDbEntity
  8
0
  6
Continuous
 62
     7
370
    25
100
AcDbCircle
 10
115.507697842566
 20
72.15695213518481
 30
0.0
 40
0.9998517988031579
100
AcDbArc
 50
269.9911003267717
 51
355.9938719375693
  0
ELLIPSE
  5
7D5
330
1F
100
AcDbEntity
  8
0
  6
Continuous
 62
     7
370
    25
100
AcDbEllipse
 10
113.5026436276477
 20
72.15663966656953
 30
0.0
 11
3.002463412665698
 21
-0.0695306080875468
 31
0.0
210
0.0
220
0.0
230
1.0
 40
0.0083361859386233
 41
4.716865720827951
 42
6.28279606279173
  0
LINE
  5
7D6
330
1F
100
AcDbEntity
  8
0
  6
Continuous
 62
     7
370
    25
100
AcDbLine
 10
113.5155052178708
 20
72.13129955464828
 30
0.0
 11
113.6943660813802
 21
74.68912907008436
 31
0.0
  0
ELLIPSE
  5
7D7
330
1F
100
AcDbEntity
  8
0
  6
Continuous
 62
     7
370
    25
100
AcDbEllipse
 10
113.6626289153779
 20
74.44453587238419
 30
0.0
 11
3.009882963641848
 21
0.0375331016952174
 31
0.0
210
0.0
220
0.0
230
1.0
 40
0.0811246739015183
 41
0.7762750262520736
 42
1.559240197233691
  0
ELLIPSE
  5
7D8
330
1F
100
AcDbEntity
  8
0
  6
Continuous
 62
     7
370
    25
100
AcDbEllipse
 10
113.6626289153779
 20
74.44453587238419
 30
0.0
 11
3.024429018807061
 21
0.2446525206960358
 31
0.0
210
0.0
220
0.0
230
1.0
 40
0.0113371097635848
 41
6.281465731076967
 42
7.064430902057678
  0
SPLINE
  5
7D9
330
1F
100
AcDbEntity
  8
0
  6
Continuous
 62
     7
370
    25
100
AcDbSpline
210
0.0
220
0.0
230
1.0
 70
     8
 71
     3
 72
    26
 73
    22
 74
     0
 42
0.000000001
 43
0.0000000001
 40
0.0
 40
0.0
 40
0.0
 40
0.0
 40
0.1250000000000375
 40
0.1250000000000375
 40
0.2500000000000751
 40
0.2500000000000751
 40
0.3750000000001127
 40
0.3750000000001127
 40
0.4375000000001096
 40
0.4375000000001096
 40
0.5000000000001066
 40
0.5000000000001066
 40
0.6250000000000818
 40
0.6250000000000818
 40
0.750000000000057
 40
0.750000000000057
 40
0.8750000000000321
 40
0.8750000000000321
 40
0.9375000000000159
 40
0.9375000000000159
 40
1.0
 40
1.0
 40
1.0
 40
1.0
 10
116.1451318915709
 20
75.0931888944531
 30
0.0
 10
116.1238786260975
 20
75.09192381912733
 30
0.0
 10
116.1030298266795
 20
75.08798534628372
 30
0.0
 10
116.06210723883
 20
75.07498581387122
 30
0.0
 10
116.0419198761392
 20
75.06585495050265
 30
0.0
 10
116.0028639445118
 20
75.04249818518272
 30
0.0
 10
115.984333185757
 20
75.0285098154741
 30
0.0
 10
115.957985708979
 20
75.00417149949945
 30
0.0
 10
115.9494461293923
 20
74.9954960308016
 30
0.0
 10
115.9328625629283
 20
74.97699707431568
 30
0.0
 10
115.9247863333099
 20
74.96712467418316
 30
0.0
 10
115.9017509425723
 20
74.93630002614017
 30
0.0
 10
115.8878614759848
 20
74.91405282475458
 30
0.0
 10
115.862956012715
 20
74.86623463160239
 30
0.0
 10
115.851854676302
 20
74.84037810603652
 30
0.0
 10
115.8332874610404
 20
74.78681253644261
 30
0.0
 10
115.8257710284968
 20
74.75912156262641
 30
0.0
 10
115.8171203369905
 20
74.71623659420036
 30
0.0
 10
115.8146766490173
 20
74.70171554312449
 30
0.0
 10
115.8106967236512
 20
74.67220708273933
 30
0.0
 10
115.8091641251909
 20
74.65714899453129
 30
0.0
 10
115.8081322714699
 20
74.64239279887434
 30
0.0
  0
LINE
  5
7DA
330
1F
100
AcDbEntity
  8
0
  6
Continuous
 62
     7
370
    25
100
AcDbLine
 10
116.1451318915709
 20
75.0931888944531
 30
0.0
 11
117.1561309372975
 21
75.15336740907972
 31
0.0
  0
LINE
  5
7DB
330
1F
100
AcDbEntity
  8
0
  6
Continuous
 62
     7
370
    25
100
AcDbLine
 10
105.8667649343735
 20
72.13129955464828
 30
0.0
 11
113.5155052178708
 21
72.13129955464828
 31
0.0
  0
ELLIPSE
  5
7DC
330
1F
100
AcDbEntity
  8
0
  6
Continuous
 62
     7
370
    25
100
AcDbEllipse
 10
113.6626289153779
 20
74.94365244825164
 30
0.0
 11
3.50864864495104
 21
0.001903758555386
 31
0.0
210
0.0
220
0.0
230
1.0
 40
0.0597684011322821
 41
0.7847554176586585
 42
1.561718363562944
  0
LINE
  5
7DD
330
1F
100
AcDbEntity
  8
0
  6
Continuous
 62
     7
370
    25
100
AcDbLine
 10
113.6943660813802
 20
75.15336740907972
 30
0.0
 11
113.6943660813802
 21
74.68912907008436
 31
0.0
  0
LINE
  5
7DE
330
1F
100
AcDbEntity
  8
0
  6
Continuous
 62
     7
370
    25
100
AcDbLine
 10
120.7344148670109
 20
75.36636050013403
 30
0.0
 11
105.8667649343735
 21
75.36636050013403
 31
0.0
  0
LINE
  5
7DF
330
1F
100
AcDbEntity
  8
0
  6
Continuous
 62
     7
370
    25
100
AcDbLine
 10
105.8667649343735
 20
75.15336740907972
 30
0.0
 11
113.6943660813802
 21
75.15336740907972
 31
0.0
  0
LINE
  5
7E0
330
1F
100
AcDbEntity
  8
0
  6
Continuous
 62
     7
370
    25
100
AcDbLine
 10
113.6943660813802
 20
74.68912907008436
 30
0.0
 11
105.8667649343735
 21
74.68912907008436
 31
0.0
  0
ELLIPSE
  5
7E1
330
1F
100
AcDbEntity
  8
0
  6
Continuous
 62
     7
370
    25
100
AcDbEllipse
 10
113.5026436276477
 20
71.15688421995336
 30
0.0
 11
2.004901315022776
 21
0.0002850741534033
 31
0.0
210
0.0
220
0.0
230
1.0
 40
0.0221534330122769
 41
6.281633024082255
 42
6.882813721791683
  0
LINE
  5
7E2
330
1F
100
AcDbEntity
  8
0
  6
Continuous
 62
     7
370
    25
100
AcDbLine
 10
113.5155052178708
 20
71.24503373002093
 30
0.0
 11
113.5155052178708
 21
72.13129955464828
 31
0.0
  0
HATCH
  5
7E3
330
1F
100
AcDbEntity
  8
0
  6
Continuous
 62
     7
370
    18
100
AcDbHatch
 10
0.0
 20
0.0
 30
0.0
210
0.0
220
0.0
230
1.0
  2
ANSI31
 70
     0
 71
     0
 91
        1
 92
        1
 93
       11
 72
     1
 10
105.8667649343735
 20
69.22524495679067
 11
105.8667649343735
 21
67.36636050013411
 72
     1
 10
105.8667649343735
 20
67.36636050013411
 11
117.177442269544
 21
67.36636050013411
 72
     1
 10
117.177442269544
 20
67.36636050013411
 11
117.6081520560945
 21
73.52579741109289
 72
     2
 10
118.3563250937894
 20
73.47348005578488
 40
0.7499999999999384
 50
183.999999999994
 51
266.5935562450065
 73
     0
 72
     1
 10
118.3117611138012
 20
74.22215491958593
 11
120.7344148670109
 21
74.36636050013411
 72
     1
 10
120.7344148670109
 20
74.36636050013411
 11
120.7344148670109
 21
75.36636050013403
 72
     1
 10
120.7344148670109
 20
75.36636050013403
 11
117.1561309372975
 21
75.15336740907968
 72
     2
 10
117.1858402572897
 20
74.65425083321219
 40
0.5000000000000764
 50
93.40644375499911
 51
175.9999999999885
 73
     1
 72
     1
 10
116.6870582321596
 20
74.68912907008436
 11
116.3286496960723
 21
69.56364821194165
 72
     2
 10
116.0792586835072
 20
69.58108733037781
 40
0.2500000000001215
 50
4.00000000002382
 51
89.40628260377069
 73
     0
 72
     1
 10
116.0818492179933
 20
69.33110075247583
 11
105.8667649343735
 21
69.22524495679069
 97
        0
 75
     0
 76
     1
 52
0.0
 41
19.99999999999999
 77
     0
 78
     1
 53
45.0
 43
-19.07674715170863
 44
-110.587751210049
 45
-1.767766952966367
 46
1.767766952966368
 79
     0
 98
        1
 10
-19.07674715170863
 20
-110.587751210049
  0
POINT
  5
7E4
330
1F
100
AcDbEntity
  8
0
  6
Continuous
 62
     7
370
     0
100
AcDbPoint
 10
117.3157243948735
 20
69.34388702373886
 30
0.0
  0
DIMENSION
  5
7E5
330
1F
100
AcDbEntity
  8
0
  6
Continuous
 62
     7
370
    18
100
AcDbDimension
280
     0
  2
*D7
 10
124.641745471055
 20
77.36481852890621
 30
0.0
 11
124.641745471055
 21
76.36558951452008
 31
0.0
 70
   160
  1
1
 71
     5
 42
1.998458028772148
 73
     0
 74
     0
 75
     0
  3
3_4 Scale
100
AcDbAlignedDimension
 13
120.734414867011
 23
75.36636050013403
 33
0.0
 14
120.6789030234058
 24
77.36481852890618
 34
0.0
 50
90.0
100
AcDbRotatedDimension
  0
DIMENSION
  5
7E6
102
{ACAD_XDICTIONARY
360
7E7
102
}
102
{ACAD_REACTORS
330
7E8
102
}
330
1F
100
AcDbEntity
  8
0
  6
Continuous
 62
     7
370
    18
100
AcDbDimension
280
     0
  2
*D9
 10
124.5754005112226
 20
75.36636050013406
 30
0.0
 11
124.5754005112226
 21
70.84818560427752
 31
0.0
 70
   160
  1
5 
 71
     5
 42
7.999999999999928
 73
     0
 74
     0
 75
     0
  3
3_4 Scale
100
AcDbAlignedDimension
 13
117.177442269544
 23
67.36636050013411
 33
0.0
 14
120.734414867011
 24
75.36636050013403
 34
0.0
 50
90.0
100
AcDbRotatedDimension
  0
LINE
  5
7F4
330
1F
100
AcDbEntity
  8
0
100
AcDbLine
 10
120.7344148670109
 20
75.36636050013403
 30
0.0
 11
120.6789030234058
 21
77.23981852890617
 31
0.0
  0
ARC
  5
7F5
330
1F
100
AcDbEntity
  8
0
100
AcDbCircle
 10
120.5539030234058
 20
77.23981852890617
 30
0.0
 40
0.125
100
AcDbArc
 50
0.0
 51
90.0
  0
LINE
  5
7F6
330
1F
100
AcDbEntity
  8
0
100
AcDbLine
 10
120.3039030234058
 20
77.36481852890618
 30
0.0
 11
105.8967532231758
 21
77.36481852890618
 31
0.0
  0
LINE
  5
7F7
330
1F
100
AcDbEntity
  8
0
100
AcDbLine
 10
120.5539030234058
 20
77.36481852890618
 30
0.0
 11
120.1789030234058
 21
77.36481852890618
 31
0.0
  0
LINE
  5
7F8
330
1F
100
AcDbEntity
  8
0
100
AcDbLine
 10
120.1789030234058
 20
77.36481852890618
 30
0.0
 11
120.234414867011
 21
75.36636050013403
 31
0.0
  0
LINE
  5
802
330
1F
100
AcDbEntity
  8
0
100
AcDbLine
 10
77.6177806013942
 20
13.96481290316932
 30
0.0
 11
77.6177806013942
 21
14.06481290316932
 31
0.0
  0
LINE
  5
803
330
1F
100
AcDbEntity
  8
0
100
AcDbLine
 10
77.6177806013942
 20
14.06481290316932
 30
0.0
 11
77.6177806013942
 21
14.93981290316932
 31
0.0
  0
ARC
  5
804
330
1F
100
AcDbEntity
  8
0
100
AcDbCircle
 10
77.7427806013942
 20
14.93981290316932
 30
0.0
 40
0.125
100
AcDbArc
 50
90.0
 51
180.0
  0
LINE
  5
805
330
1F
100
AcDbEntity
  8
0
100
AcDbLine
 10
77.7427806013942
 20
15.06481290316932
 30
0.0
 11
134.7545397683754
 21
14.98752778597669
 31
0.0
  0
LINE
  5
808
330
1F
100
AcDbEntity
  8
0
100
AcDbLine
 10
77.6177806013942
 20
13.96481290316932
 30
0.0
 11
78.1177806013942
 21
13.96481290316932
 31
0.0
  0
LINE
  5
809
330
1F
100
AcDbEntity
  8
0
100
AcDbLine
 10
78.1177806013942
 20
13.96481290316932
 30
0.0
 11
78.1177806013942
 21
15.06481290316932
 31
0.0
  0
LINE
  5
91F
330
1F
100
AcDbEntity
  8
0
100
AcDbLine
 10
13.72842330299863
 20
95.46153412804931
 30
0.0
 11
13.72842330299863
 21
3.262010133797616
 31
0.0
  0
LINE
  5
920
330
1F
100
AcDbEntity
  8
0
100
AcDbLine
 10
13.72842330299863
 20
3.262010133797616
 30
0.0
 11
145.4702740041595
 21
3.262010133797616
 31
0.0
  0
LINE
  5
921
330
1F
100
AcDbEntity
  8
0
100
AcDbLine
 10
145.4702740041595
 20
3.262010133797616
 30
0.0
 11
145.4702740041595
 21
95.46153412804931
 31
0.0
  0
LINE
  5
922
330
1F
100
AcDbEntity
  8
0
100
AcDbLine
 10
145.4702740041595
 20
95.46153412804931
 30
0.0
 11
13.72842330299863
 21
95.46153412804931
 31
0.0
  0
LINE
  5
998
330
1F
100
AcDbEntity
  8
0
  6
Continuous
 62
     7
370
    18
100
AcDbLine
 10
25.59925930108
 20
77.84275470218606
 30
0.0
 11
25.59925930108
 21
41.84275470218605
 31
0.0
  0
LINE
  5
999
102
{ACAD_REACTORS
330
9DD
330
9F7
102
}
330
1F
100
AcDbEntity
  8
0
  6
Continuous
 62
     7
370
    18
100
AcDbLine
 10
25.59925930108
 20
41.84275470218605
 30
0.0
 11
85.59925930107999
 21
41.84275470218605
 31
0.0
  0
LINE
  5
99A
102
{ACAD_REACTORS
330
9F7
102
}
330
1F
100
AcDbEntity
  8
0
  6
Continuous
 62
     7
370
    18
100
AcDbLine
 10
85.59925930107999
 20
41.84275470218605
 30
0.0
 11
85.59925930107999
 21
77.84275470218606
 31
0.0
  0
LINE
  5
99B
102
{ACAD_REACTORS
330
9C3
330
A11
330
BDE
102
}
330
1F
100
AcDbEntity
  8
0
  6
Continuous
 62
     7
370
    18
100
AcDbLine
 10
85.59925930107999
 20
77.84275470218606
 30
0.0
 11
25.59925930108
 21
77.84275470218606
 31
0.0
  0
LINE
  5
99C
330
1F
100
AcDbEntity
  8
0
  6
Continuous
 62
     7
370
    18
100
AcDbLine
 10
84.34925930107999
 20
77.34275470218607
 30
0.0
 11
26.84925930108
 21
77.34275470218605
 31
0.0
  0
LINE
  5
99E
330
1F
100
AcDbEntity
  8
0
  6
Continuous
 62
     7
370
    18
100
AcDbLine
 10
85.09925930108
 20
46.09275470218605
 30
0.0
 11
85.09925930108
 21
76.59275470218606
 31
0.0
  0
LINE
  5
9A0
330
1F
100
AcDbEntity
  8
0
  6
Continuous
 62
     7
370
    18
100
AcDbLine
 10
26.09925930108
 20
76.59275470218606
 30
0.0
 11
26.09925930108
 21
46.09275470218605
 31
0.0
  0
ARC
  5
9A4
330
1F
100
AcDbEntity
  8
0
100
AcDbCircle
 10
84.34925930107999
 20
76.59275470218607
 30
0.0
 40
0.75
100
AcDbArc
 50
0.0
 51
90.0
  0
ARC
  5
9A7
330
1F
100
AcDbEntity
  8
0
  6
Continuous
 62
     7
370
    18
100
AcDbCircle
 10
26.84925930108
 20
76.59275470218606
 30
0.0
 40
0.75
100
AcDbArc
 50
90.0
 51
180.0
  0
LINE
  5
9A9
102
{ACAD_REACTORS
330
9F7
102
}
330
1F
100
AcDbEntity
  8
0
  6
Continuous
 62
     7
370
    18
100
AcDbLine
 10
76.59925930107999
 20
45.34275470218605
 30
0.0
 11
76.59925930107999
 21
77.34275470218609
 31
0.0
  0
DIMENSION
  5
9AA
102
{ACAD_XDICTIONARY
360
9B8
102
}
102
{ACAD_REACTORS
330
9C3
102
}
330
1F
100
AcDbEntity
  8
0
  6
Continuous
 62
     7
370
    18
100
AcDbDimension
280
     0
  2
*D14
 10
85.59925930107999
 20
87.51992787907855
 30
0.0
 11
56.04835563484801
 21
87.51992787907855
 31
0.0
 70
   160
 71
     5
 42
60.0
 73
     0
 74
     0
 75
     0
  3
3_4 Scale
100
AcDbAlignedDimension
 13
25.59925930108
 23
77.84275470218606
 33
0.0
 14
85.59925930107999
 24
77.84275470218606
 34
0.0
100
AcDbRotatedDimension
  0
DIMENSION
  5
9C4
102
{ACAD_XDICTIONARY
360
9D2
102
}
102
{ACAD_REACTORS
330
9DD
102
}
330
1F
100
AcDbEntity
  8
0
  6
Continuous
 62
     7
370
    18
100
AcDbDimension
280
     0
  2
*D15
 10
19.11988304566623
 20
41.84275470218607
 30
0.0
 11
19.11988304566624
 21
59.67272388574961
 31
0.0
 70
   160
 71
     5
 42
36.00000000000001
 73
     0
 74
     0
 75
     0
  3
3_4 Scale
100
AcDbAlignedDimension
 13
25.59925930108
 23
77.84275470218606
 33
0.0
 14
25.59925930108
 24
41.84275470218605
 34
0.0
 50
90.0
100
AcDbRotatedDimension
  0
DIMENSION
  5
9DE
102
{ACAD_XDICTIONARY
360
9EC
102
}
102
{ACAD_REACTORS
330
9F7
102
}
330
1F
100
AcDbEntity
  8
0
  6
Continuous
 62
     7
370
    18
100
AcDbDimension
280
     0
  2
*D16
 10
85.59925930107999
 20
34.91800678200466
 30
0.0
 11
81.09925930108
 21
34.91800678200466
 31
0.0
 70
   160
 71
     5
 42
9.0
 73
     0
 74
     0
 75
     0
  3
3_4 Scale
100
AcDbAlignedDimension
 13
76.59925930107999
 23
41.84275470218605
 33
0.0
 14
85.59925930107999
 24
41.84275470218605
 34
0.0
100
AcDbRotatedDimension
  0
DIMENSION
  5
9F8
102
{ACAD_XDICTIONARY
360
A06
102
}
102
{ACAD_REACTORS
330
A11
102
}
330
1F
100
AcDbEntity
  8
0
  6
Continuous
 62
     7
370
    18
100
AcDbDimension
280
     0
  2
*D17
 10
90.43017891447197
 20
64.30385301837322
 30
0.0
 11
90.43017891447197
 21
70.7626463619081
 31
0.0
 70
   160
  1
18
 71
     5
 42
13.53890168381288
 73
     0
 74
     0
 75
     0
  3
3_4 Scale
100
AcDbAlignedDimension
 13
25.59925930108
 23
77.84275470218606
 33
0.0
 14
83.53198162394722
 24
64.30385301837318
 34
0.0
 50
90.0
100
AcDbRotatedDimension
  0
LINE
  5
A5A
102
{ACAD_REACTORS
330
A74
330
B8C
102
}
330
1F
100
AcDbEntity
  8
0
100
AcDbLine
 10
85.59925930107999
 20
77.84275470218606
 30
0.0
 11
82.59925930108
 21
77.84275470218606
 31
0.0
  0
DIMENSION
  5
A5B
102
{ACAD_XDICTIONARY
360
A69
102
}
102
{ACAD_REACTORS
330
A74
102
}
330
1F
100
AcDbEntity
  8
0
  6
Continuous
 62
     7
370
    18
100
AcDbDimension
280
     0
  2
*D18
 10
83.53198162394722
 20
79.86514189091562
 30
0.0
 11
84.56562046251361
 21
79.86514189091562
 31
0.0
 70
   160
  1
3
 71
     5
 42
2.067277677132778
 73
     0
 74
     0
 75
     0
  3
3_4 Scale
100
AcDbAlignedDimension
 13
85.59925930107999
 23
77.84275470218606
 33
0.0
 14
83.53198162394722
 24
64.26322352993597
 34
0.0
100
AcDbRotatedDimension
  0
LINE
  5
B06
330
1F
100
AcDbEntity
  8
0
  6
Continuous
 62
     7
370
    25
100
AcDbLine
 10
83.53198162394722
 20
64.26322352993597
 30
0.0
 11
78.87789505724993
 21
64.26322352993597
 31
0.0
  0
LINE
  5
B07
330
1F
100
AcDbEntity
  8
0
  6
Continuous
 62
     7
370
    25
100
AcDbLine
 10
83.53198162394722
 20
54.55982661480087
 30
0.0
 11
78.87789505724993
 21
54.55982661480087
 31
0.0
  0
LINE
  5
B08
330
1F
100
AcDbEntity
  8
0
  6
Continuous
 62
     7
370
    25
100
AcDbLine
 10
83.53198162394722
 20
54.55982661480087
 30
0.0
 11
83.53198162394722
 21
64.26322352993597
 31
0.0
  0
LINE
  5
B09
330
1F
100
AcDbEntity
  8
0
  6
Continuous
 62
     7
370
    25
100
AcDbLine
 10
78.87789505724993
 20
64.26322352993597
 30
0.0
 11
78.87789505724993
 21
54.55982661480087
 31
0.0
  0
DIMENSION
  5
B73
102
{ACAD_XDICTIONARY
360
B81
102
}
102
{ACAD_REACTORS
330
B8C
102
}
330
1F
100
AcDbEntity
  8
0
  6
Continuous
 62
     7
370
    18
100
AcDbDimension
280
     0
  2
*D19
 10
78.8778950572499
 20
83.98609014501246
 30
0.0
 11
82.23857717916494
 21
86.24300692536717
 31
0.0
 70
    32
  1
6
 71
     5
 42
6.721364243830095
 73
     0
 74
     0
 75
     0
  3
3_4 Scale
100
AcDbAlignedDimension
 13
85.59925930107999
 23
77.84275470218606
 33
0.0
 14
78.8778950572499
 24
64.26322352993597
 34
0.0
100
AcDbRotatedDimension
  0
DIMENSION
  5
BC5
102
{ACAD_XDICTIONARY
360
BD3
102
}
102
{ACAD_REACTORS
330
BDE
102
}
330
1F
100
AcDbEntity
  8
0
  6
Continuous
 62
     7
370
    18
100
AcDbDimension
280
     0
  2
*D20
 10
98.52418032071319
 20
54.55982661480092
 30
0.0
 11
98.52418032071319
 21
65.97695063074173
 31
0.0
 70
   160
  1
22
 71
     5
 42
23.28292808738518
 73
     0
 74
     0
 75
     0
  3
3_4 Scale
100
AcDbAlignedDimension
 13
25.59925930108
 23
77.84275470218606
 33
0.0
 14
83.53198162394722
 24
54.55982661480089
 34
0.0
 50
90.0
100
AcDbRotatedDimension
  0
LINE
  5
C54
330
1F
100
AcDbEntity
  8
0
  6
PHANTOM
 62
     7
370
    30
100
AcDbLine
 10
55.432527507896
 20
82.78752308686202
 30
0.0
 11
55.432527507896
 21
37.29746816362186
 31
0.0
  0
LINE
  5
C55
330
1F
100
AcDbEntity
  8
0
  6
Continuous
 62
     7
370
    30
100
AcDbLine
 10
55.432527507896
 20
82.78752308686202
 30
0.0
 11
49.79252750789601
 21
82.78752308686202
 31
0.0
  0
SOLID
  5
C56
330
1F
100
AcDbEntity
  8
0
  6
Continuous
 62
     7
370
    30
100
AcDbTrace
 10
49.79252750789601
 20
82.78752308686202
 30
0.0
 11
52.67252750789612
 21
82.06752308686205
 31
0.0
 12
52.67252750789612
 22
83.50752308686205
 32
0.0
 13
52.67252750789612
 23
83.50752308686205
 33
0.0
  0
LINE
  5
C57
330
1F
100
AcDbEntity
  8
0
  6
Continuous
 62
     7
370
    30
100
AcDbLine
 10
55.432527507896
 20
37.29746816362186
 30
0.0
 11
49.79252750789601
 21
37.29746816362186
 31
0.0
  0
SOLID
  5
C58
330
1F
100
AcDbEntity
  8
0
  6
Continuous
 62
     7
370
    30
100
AcDbTrace
 10
49.79252750789601
 20
37.29746816362186
 30
0.0
 11
52.67252750789612
 21
36.57746816362183
 31
0.0
 12
52.67252750789612
 22
38.01746816362182
 32
0.0
 13
52.67252750789612
 23
38.01746816362182
 33
0.0
  0
MTEXT
  5
C59
330
1F
100
AcDbEntity
  8
0
  6
Continuous
 62
     7
100
AcDbMText
 10
47.445126679824
 20
83.77336016452236
 30
0.0
 40
2.0
 41
0.0
 46
0.0
 71
     1
 72
     1
  1
A
  7
SLDTEXTSTYLE0
 73
     1
 44
1.0
  0
MTEXT
  5
C5A
330
1F
100
AcDbEntity
  8
0
  6
Continuous
 62
     7
100
AcDbMText
 10
47.79419754160699
 20
38.16703642101663
 30
0.0
 40
2.0
 41
0.0
 46
0.0
 71
     1
 72
     1
  1
A
  7
SLDTEXTSTYLE0
 73
     1
 44
1.0
  0
LINE
  5
C5B
330
1F
100
AcDbEntity
  8
0
  6
PHANTOM
 62
     7
370
    30
100
AcDbLine
 10
92.62453754720439
 20
59.49042691999548
 30
0.0
 11
21.4112144150925
 21
59.49042691999531
 31
0.0
  0
LINE
  5
C5C
330
1F
100
AcDbEntity
  8
0
  6
Continuous
 62
     7
370
    30
100
AcDbLine
 10
92.82453754720467
 20
59.49042691999531
 30
0.0
 11
92.82453754720467
 21
67.39474158879708
 31
0.0
  0
SOLID
  5
C5D
330
1F
100
AcDbEntity
  8
0
  6
Continuous
 62
     7
370
    30
100
AcDbTrace
 10
92.82453754720467
 20
67.39474158879708
 30
0.0
 11
92.1045375472047
 21
64.51474158879701
 31
0.0
 12
93.5445375472047
 22
64.51474158879701
 32
0.0
 13
93.5445375472047
 23
64.51474158879701
 33
0.0
  0
LINE
  5
C5E
330
1F
100
AcDbEntity
  8
0
  6
Continuous
 62
     7
370
    30
100
AcDbLine
 10
21.4112144150925
 20
59.49042691999531
 30
0.0
 11
21.4112144150925
 21
68.33474900071748
 31
0.0
  0
SOLID
  5
C5F
330
1F
100
AcDbEntity
  8
0
  6
Continuous
 62
     7
370
    30
100
AcDbTrace
 10
21.4112144150925
 20
68.33474900071748
 30
0.0
 11
20.69121441509247
 21
65.45474900071742
 31
0.0
 12
22.13121441509259
 22
65.45474900071742
 32
0.0
 13
22.13121441509259
 23
65.45474900071742
 33
0.0
  0
MTEXT
  5
C60
330
1F
100
AcDbEntity
  8
0
  6
Continuous
 62
     7
100
AcDbMText
 10
92.46049072760138
 20
70.41283555043829
 30
0.0
 40
2.0
 41
0.0
 46
0.0
 71
     1
 72
     1
  1
B
  7
SLDTEXTSTYLE0
 73
     1
 44
1.0
  0
MTEXT
  5
C61
330
1F
100
AcDbEntity
  8
0
  6
Continuous
 62
     7
100
AcDbMText
 10
20.40778259902015
 20
71.07857431256618
 30
0.0
 40
2.0
 41
0.0
 46
0.0
 71
     1
 72
     1
  1
B
  7
SLDTEXTSTYLE0
 73
     1
 44
1.0
  0
LINE
  5
CF3
102
{ACAD_REACTORS
330
9DD
330
9F7
102
}
330
1F
100
AcDbEntity
  8
0
  6
Continuous
 62
     7
370
    18
100
AcDbLine
 10
26.84925930108
 20
45.34275470218605
 30
0.0
 11
84.34925930107999
 21
45.34275470218605
 31
0.0
  0
ARC
  5
CF4
330
1F
100
AcDbEntity
  8
0
  6
Continuous
 62
     7
370
    18
100
AcDbCircle
 10
84.34925930107999
 20
46.09275470218605
 30
0.0
 40
0.75
100
AcDbArc
 50
270.0
 51
0.0
  0
ARC
  5
CF5
330
1F
100
AcDbEntity
  8
0
  6
Continuous
 62
     7
370
    18
100
AcDbCircle
 10
26.84925930108
 20
46.09275470218605
 30
0.0
 40
0.75
100
AcDbArc
 50
180.0
 51
270.0
  0
LINE
  5
150D
330
1F
100
AcDbEntity
  8
0
  6
Continuous
 62
     7
370
    25
100
AcDbLine
 10
138.8755399288589
 20
11.84784128967069
 30
0.0
 11
138.8755399288589
 21
11.86816181594013
 31
0.0
  0
ARC
  5
150E
330
1F
100
AcDbEntity
  8
0
  6
Continuous
 62
     7
370
    25
100
AcDbCircle
 10
138.4894088483632
 20
5.911232974917995
 30
0.0
 40
5.969412947037154
100
AcDbArc
 50
86.29124274286958
 51
91.17112610111078
  0
LINE
  5
150F
330
1F
100
AcDbEntity
  8
0
  6
Continuous
 62
     7
370
    25
100
AcDbLine
 10
138.8414636563356
 20
11.38083972680503
 30
0.0
 11
138.8755393212999
 21
11.86814443893393
 31
0.0
  0
ARC
  5
1510
330
1F
100
AcDbEntity
  8
0
  6
Continuous
 62
     7
370
    25
100
AcDbCircle
 10
138.2873543918257
 20
19.20778767161261
 30
0.0
 40
7.846537529875401
100
AcDbArc
 50
268.4802955091516
 51
274.0495019894008
  0
LINE
  5
1513
330
1F
100
AcDbEntity
  8
0
  6
Continuous
 62
     7
370
    25
100
AcDbLine
 10
138.0792584324813
 20
11.36401005623826
 30
0.0
 11
138.0792584324813
 21
11.34368952996886
 31
0.0
  0
LINE
  5
1515
330
1F
100
AcDbEntity
  8
0
  6
Continuous
 62
     7
370
    25
100
AcDbLine
 10
138.8414636563356
 20
11.38083972680503
 30
0.0
 11
138.8414636563356
 21
11.36051920053563
 31
0.0
  0
ARC
  5
1516
330
1F
100
AcDbEntity
  8
0
  6
Continuous
 62
     7
370
    25
100
AcDbCircle
 10
138.2873543918261
 20
19.1874671453372
 30
0.0
 40
7.846537529869419
100
AcDbArc
 50
268.4802955091484
 51
274.0495019894008
  0
LINE
  5
1517
330
1F
100
AcDbEntity
  8
0
  6
Continuous
 62
     7
370
    25
100
AcDbLine
 10
138.8755393212999
 20
11.86814443893393
 30
0.0
 11
138.8755393212999
 21
11.84782391266453
 31
0.0
  0
LINE
  5
1518
330
1F
100
AcDbEntity
  8
0
  6
Continuous
 62
     7
370
    25
100
AcDbLine
 10
138.8414636563356
 20
11.36051920053563
 30
0.0
 11
138.8755393212999
 21
11.84782391266453
 31
0.0
  0
ARC
  5
151C
330
1F
100
AcDbEntity
  8
0
  6
Continuous
 62
     7
370
    25
100
AcDbCircle
 10
140.4909473671263
 20
13.61018690096791
 30
0.0
 40
0.254068711730933
100
AcDbArc
 50
93.40644375499312
 51
176.0000000000011
  0
LINE
  5
151D
330
1F
100
AcDbEntity
  8
0
  6
Continuous
 62
     7
370
    25
100
AcDbLine
 10
142.2941109262723
 20
13.9720364723398
 30
0.0
 11
140.4758509498128
 21
13.86380671183628
 31
0.0
  0
LINE
  5
151E
330
1F
100
AcDbEntity
  8
0
  6
Continuous
 62
     7
370
    25
100
AcDbLine
 10
142.2941109262723
 20
13.463899048878
 30
0.0
 11
142.2941109262723
 21
13.9720364723398
 31
0.0
  0
LINE
  5
151F
330
1F
100
AcDbEntity
  8
0
  6
Continuous
 62
     7
370
    25
100
AcDbLine
 10
141.0630698901761
 20
13.39062279672942
 30
0.0
 11
142.2941109262723
 21
13.463899048878
 31
0.0
  0
ARC
  5
1520
330
1F
100
AcDbEntity
  8
0
  6
Continuous
 62
     7
370
    25
100
AcDbCircle
 10
141.0857145161466
 20
13.01019308042688
 30
0.0
 40
0.3811030675963776
100
AcDbArc
 50
93.40644375499312
 51
175.9999999999994
  0
LINE
  5
1521
330
1F
100
AcDbEntity
  8
0
  6
Continuous
 62
     7
370
    25
100
AcDbLine
 10
140.4866800352711
 20
9.906937084645164
 30
0.0
 11
140.7055397964686
 21
13.03677748655548
 31
0.0
  0
LINE
  5
1522
330
1F
100
AcDbEntity
  8
0
  6
Continuous
 62
     7
370
    25
100
AcDbLine
 10
134.7393015965693
 20
9.906937084645164
 30
0.0
 11
140.4866800352711
 21
9.906937084645164
 31
0.0
  0
ELLIPSE
  5
1533
330
1F
100
AcDbEntity
  8
0
  6
Continuous
 62
     7
370
    25
100
AcDbEllipse
 10
139.6013360473055
 20
11.81482470097888
 30
0.0
 11
0.0354580724987733
 21
0.5070740609111373
 31
0.0
210
0.0
220
0.0
230
0.9999999999999996
 40
0.9996559976393809
 41
3.211388722841332
 42
4.712388980384702
  0
ELLIPSE
  5
1537
330
1F
100
AcDbEntity
  8
0
  6
Continuous
 62
     7
370
    25
100
AcDbEllipse
 10
138.6193773216368
 20
11.83304404120508
 30
0.0
 11
1.018765388510915
 21
0.0001448568458059
 31
0.0
210
0.0
220
0.0
230
0.9999999999999998
 40
0.0221534330122769
 41
0.5996284146121141
 42
1.316621111920988
  0
LINE
  5
1538
330
1F
100
AcDbEntity
  8
0
  6
Continuous
 62
     7
370
    25
100
AcDbLine
 10
139.6013151897724
 20
11.30651326762343
 30
0.0
 11
139.6381414877296
 21
11.83315386417911
 31
0.0
  0
ARC
  5
1539
330
1F
100
AcDbEntity
  8
0
  6
Continuous
 62
     7
370
    25
100
AcDbCircle
 10
139.6382204043067
 20
12.34121597493764
 30
0.0
 40
0.5080621168875166
100
AcDbArc
 50
269.9911003267733
 51
355.9938719375694
  0
ELLIPSE
  5
153A
330
1F
100
AcDbEntity
  8
0
  6
Continuous
 62
     7
370
    25
100
AcDbEllipse
 10
138.6193773216368
 20
12.34105719794056
 30
0.0
 11
1.525664022550372
 21
-0.0353311040453406
 31
0.0
210
0.0
220
0.0
230
1.0
 40
0.0083361859386233
 41
4.716865720827951
 42
6.28279606279173
  0
LINE
  5
153B
330
1F
100
AcDbEntity
  8
0
  6
Continuous
 62
     7
370
    25
100
AcDbLine
 10
138.6259127769544
 20
12.32818093875866
 30
0.0
 11
138.7167986752962
 21
13.62790983838698
 31
0.0
  0
ELLIPSE
  5
153C
330
1F
100
AcDbEntity
  8
0
  6
Continuous
 62
     7
370
    25
100
AcDbEllipse
 10
138.7006718335358
 20
13.50362288111133
 30
0.0
 11
1.529434174066637
 21
0.0190719735899388
 31
0.0
210
0.0
220
0.0
230
1.0
 40
0.0811246739015183
 41
0.7762750262520736
 42
1.559240197233691
  0
ELLIPSE
  5
153D
330
1F
100
AcDbEntity
  8
0
  6
Continuous
 62
     7
370
    25
100
AcDbEllipse
 10
138.7006718335358
 20
13.50362288111133
 30
0.0
 11
1.536825569059821
 21
0.1243171015099266
 31
0.0
210
0.0
220
0.0
230
1.0
 40
0.0113371097635848
 41
6.281465731076967
 42
7.064430902057678
  0
SPLINE
  5
153E
330
1F
100
AcDbEntity
  8
0
  6
Continuous
 62
     7
370
    25
100
AcDbSpline
210
0.0
220
0.0
230
1.0
 70
     8
 71
     3
 72
    26
 73
    22
 74
     0
 42
0.000000001
 43
0.0000000001
 40
0.0
 40
0.0
 40
0.0
 40
0.0
 40
0.1250000000000375
 40
0.1250000000000375
 40
0.2500000000000751
 40
0.2500000000000751
 40
0.3750000000001127
 40
0.3750000000001127
 40
0.4375000000001096
 40
0.4375000000001096
 40
0.5000000000001066
 40
0.5000000000001066
 40
0.6250000000000818
 40
0.6250000000000818
 40
0.750000000000057
 40
0.750000000000057
 40
0.8750000000000321
 40
0.8750000000000321
 40
0.9375000000000159
 40
0.9375000000000159
 40
1.0
 40
1.0
 40
1.0
 40
1.0
 10
139.9621244995949
 20
13.83322775646616
 30
0.0
 10
139.9513249200371
 20
13.83258492434963
 30
0.0
 10
139.9407308648186
 20
13.83058363890651
 30
0.0
 10
139.9199365664673
 20
13.82397809000021
 30
0.0
 10
139.9096786120031
 20
13.81933835661412
 30
0.0
 10
139.8898328315351
 20
13.80746991006405
 30
0.0
 10
139.8804166595266
 20
13.80036189592189
 30
0.0
 10
139.867028520562
 20
13.78799468675112
 30
0.0
 10
139.8626892405933
 20
13.78358635643968
 30
0.0
 10
139.8542625098585
 20
13.77418634435418
 30
0.0
 10
139.8501586753489
 20
13.76916980838746
 30
0.0
 10
139.838453531251
 20
13.75350665115178
 30
0.0
 10
139.831395773486
 20
13.74220201556047
 30
0.0
 10
139.81874037555
 20
13.71790380209752
 30
0.0
 10
139.8130993710681
 20
13.7047651338168
 30
0.0
 10
139.8036646741442
 20
13.67754646329709
 30
0.0
 10
139.7998452934779
 20
13.66347564320897
 30
0.0
 10
139.7954495533847
 20
13.64168418584771
 30
0.0
 10
139.7942078240743
 20
13.63430549636807
 30
0.0
 10
139.7921854750531
 20
13.61931114333763
 30
0.0
 10
139.7914067044203
 20
13.61165956519333
 30
0.0
 10
139.7908823809292
 20
13.60416138995211
 30
0.0
  0
LINE
  5
153F
330
1F
100
AcDbEntity
  8
0
  6
Continuous
 62
     7
370
    25
100
AcDbLine
 10
139.9621244995949
 20
13.83322775646616
 30
0.0
 11
140.4758509498128
 21
13.86380671183628
 31
0.0
  0
ELLIPSE
  5
1541
330
1F
100
AcDbEntity
  8
0
  6
Continuous
 62
     7
370
    25
100
AcDbEllipse
 10
138.7006718335358
 20
13.75724269197971
 30
0.0
 11
1.782875682278276
 21
0.0009673709672273
 31
0.0
210
0.0
220
0.0
230
0.9999999999999998
 40
0.0597684011322821
 41
0.7847554176586585
 42
1.561718363562944
  0
LINE
  5
1542
330
1F
100
AcDbEntity
  8
0
  6
Continuous
 62
     7
370
    25
100
AcDbLine
 10
138.7167986752962
 20
13.86380671183628
 30
0.0
 11
138.7167986752962
 21
13.62790983838698
 31
0.0
  0
LINE
  5
1543
330
1F
100
AcDbEntity
  8
0
  6
Continuous
 62
     7
370
    25
100
AcDbLine
 10
142.2941109262723
 20
13.9720364723398
 30
0.0
 11
134.7393015965693
 21
13.9720364723398
 31
0.0
  0
LINE
  5
1544
330
1F
100
AcDbEntity
  8
0
  6
Continuous
 62
     7
370
    25
100
AcDbLine
 10
134.7393015965693
 20
13.86380671183628
 30
0.0
 11
138.7167986752962
 21
13.86380671183628
 31
0.0
  0
LINE
  5
1545
330
1F
100
AcDbEntity
  8
0
  6
Continuous
 62
     7
370
    25
100
AcDbLine
 10
138.7167986752962
 20
13.62790983838698
 30
0.0
 11
134.7393015965693
 21
13.62790983838698
 31
0.0
  0
ELLIPSE
  5
1546
330
1F
100
AcDbEntity
  8
0
  6
Continuous
 62
     7
370
    25
100
AcDbEllipse
 10
138.6193773216368
 20
11.83304404120508
 30
0.0
 11
1.018765388510915
 21
0.0001448568458059
 31
0.0
210
0.0
220
0.0
230
0.9999999999999998
 40
0.0221534330122769
 41
6.281633024082255
 42
6.882813721791683
  0
LINE
  5
1547
330
1F
100
AcDbEntity
  8
0
  6
Continuous
 62
     7
370
    25
100
AcDbLine
 10
138.6259127769544
 20
11.87783610613024
 30
0.0
 11
138.6259127769544
 21
12.32818093875866
 31
0.0
  0
POINT
  5
1549
330
1F
100
AcDbEntity
  8
0
  6
Continuous
 62
     7
370
     0
100
AcDbPoint
 10
140.5569463581468
 20
10.91179231717712
 30
0.0
 50
0.000000000000007
  0
LINE
  5
154E
330
1F
100
AcDbEntity
  8
0
100
AcDbLine
 10
142.2941109262723
 20
13.9720364723398
 30
0.0
 11
142.2659032810911
 21
14.92401060804396
 31
0.0
  0
ARC
  5
154F
330
1F
100
AcDbEntity
  8
0
100
AcDbCircle
 10
142.2023861031584
 20
14.92401060804396
 30
0.0
 40
0.0635171779327292
100
AcDbArc
 50
0.000000000000007
 51
90.0
  0
LINE
  5
1550
330
1F
100
AcDbEntity
  8
0
100
AcDbLine
 10
142.0753517472929
 20
14.98752778597669
 30
0.0
 11
134.7545397683754
 21
14.98752778597669
 31
0.0
  0
LINE
  5
1551
330
1F
100
AcDbEntity
  8
0
100
AcDbLine
 10
142.2023861031584
 20
14.98752778597669
 30
0.0
 11
142.0118345693602
 21
14.98752778597669
 31
0.0
  0
LINE
  5
1552
330
1F
100
AcDbEntity
  8
0
100
AcDbLine
 10
142.0118345693602
 20
14.98752778597669
 30
0.0
 11
142.0400422145414
 21
13.9720364723398
 31
0.0
  0
LINE
  5
1576
330
1F
100
AcDbEntity
  8
0
100
AcDbLine
 10
138.3674025053972
 20
11.87939897332411
 30
0.0
 11
138.0469602081443
 21
11.45609334395132
 31
0.0
  0
LINE
  5
1577
330
1F
100
AcDbEntity
  8
0
100
AcDbLine
 10
138.0469602081443
 20
11.45609334395132
 30
0.0
 11
138.0469602081443
 21
11.33981290316933
 31
0.0
  0
LINE
  5
1578
330
1F
100
AcDbEntity
  8
0
100
AcDbLine
 10
138.0469602081443
 20
11.33981290316933
 30
0.0
 11
138.0792584324813
 21
11.34368952996885
 31
0.0
  0
LINE
  5
1579
330
1F
100
AcDbEntity
  8
0
100
AcDbLine
 10
138.0792584324813
 20
11.36401005623826
 30
0.0
 11
138.0469602081443
 21
11.36401005623826
 31
0.0
  0
LINE
  5
157B
330
1F
100
AcDbEntity
  8
0
100
AcDbLine
 10
139.6013151897724
 20
11.30651326762343
 30
0.0
 11
138.8414029812039
 21
11.35965150572562
 31
0.0
  0
LINE
  5
157C
330
1F
100
AcDbEntity
  8
0
100
AcDbLine
 10
134.7393015965693
 20
9.906937084645164
 30
0.0
 11
79.40031397160566
 21
9.906937084645164
 31
0.0
  0
LINE
  5
157D
330
1F
100
AcDbEntity
  8
0
100
AcDbLine
 10
140.2374975540077
 20
13.62790983838697
 30
0.0
 11
140.1082356735426
 21
11.77937882614075
 31
0.0
  0
LINE
  5
1644
330
1F
100
AcDbEntity
  8
0
100
AcDbLine
 10
79.2621843331759
 20
11.8822829439904
 30
0.0
 11
79.40031397160566
 21
9.906937084645164
 31
0.0
  0
HATCH
  5
16C1
330
1F
100
AcDbEntity
  8
0
100
AcDbHatch
 10
0.0
 20
0.0
 30
0.0
210
0.0
220
0.0
230
1.0
  2
ANSI31
 70
     0
 71
     0
 91
        1
 92
        5
 93
       39
 72
     1
 10
79.2621843331759
 20
11.8822829439904
 11
79.18091200685245
 21
13.04453135864872
 72
     2
 10
78.80682548800502
 20
13.01837268099467
 40
0.3750000000000011
 50
363.9999999999993
 51
446.5935562450068
 73
     1
 72
     1
 10
78.82910747799908
 20
13.39271011289523
 11
77.6177806013942
 21
13.4648129031693
 72
     1
 10
77.6177806013942
 20
13.4648129031693
 11
77.6177806013942
 21
13.96481290316932
 72
     1
 10
77.6177806013942
 20
13.96481290316932
 11
79.40692256625107
 21
13.85831635764214
 72
     2
 10
79.39206790625502
 20
13.60875806970844
 40
0.2499999999999985
 50
-86.59355624500683
 51
-3.999999999998122
 73
     0
 72
     1
 10
79.64145891881997
 20
13.62619718814446
 11
79.73088935057472
 21
12.34728243042646
 72
     2
 10
80.22967137570464
 20
12.3821606672985
 40
0.5000000000000041
 50
183.9999999999981
 51
268.7328345606271
 73
     1
 72
     1
 10
80.21861417260936
 20
11.88228294399038
 11
129.3949920420137
 21
11.34197596807728
 72
     2
 10
129.3927806013942
 20
11.24200042341568
 40
0.099999999999995
 50
-88.73283456030453
 51
0.0
 73
     0
 72
     1
 10
129.4927806013941
 20
11.24200042341568
 11
129.492780601394
 21
11.06227838859086
 72
     3
 10
129.6177806013941
 20
11.08981290316933
 11
-0.1249887034745799
 21
-0.02505407162122
 40
0.0670740174386803
 50
0.2168578396950535
 51
78.66524032518755
 73
     1
 72
     2
 10
129.5927806013941
 20
11.06481290316932
 40
0.0999999999999933
 50
181.4504087251723
 51
270.0
 73
     1
 72
     1
 10
129.5927806013941
 20
10.96481290316932
 11
129.7677806013942
 21
10.96481290316933
 72
     2
 10
129.7741926372321
 20
10.86501868591997
 40
0.0999999999999975
 50
-93.67634802547945
 51
15.04171322677801
 73
     0
 72
     2
 10
129.9677806013941
 20
10.81481290316932
 40
0.0999999999999961
 50
525.9637565320685
 51
630.0
 73
     1
 72
     1
 10
129.9677806013941
 20
10.71481290316933
 11
136.6427806013942
 21
10.71481290316932
 72
     2
 10
136.6427806013942
 20
10.81481290316933
 40
0.1000000000000049
 50
270.0
 51
360.0
 73
     1
 72
     1
 10
136.7427806013941
 20
10.81481290316933
 11
136.7427806013941
 21
10.86481290316936
 72
     2
 10
136.8427806013941
 20
10.86481290316933
 40
0.1000000000000035
 50
-179.9999999999837
 51
-90.0
 73
     0
 72
     1
 10
136.8427806013941
 20
10.96481290316934
 11
137.0177806013942
 21
10.96481290316932
 72
     2
 10
137.0177806013942
 20
11.06481290316933
 40
0.1000000000000078
 50
269.9999999999919
 51
360.0
 73
     1
 72
     1
 10
137.1177806013941
 20
11.06481290316933
 11
137.1177806013941
 21
11.23981290316935
 72
     2
 10
137.2177806013942
 20
11.23981290316934
 40
0.1000000000000121
 50
-179.9999999999949
 51
-90.0
 73
     0
 72
     1
 10
137.2177806013942
 20
11.33981290316935
 11
138.0469602081443
 21
11.33981290316933
 72
     1
 10
138.0469602081443
 20
11.33981290316933
 11
138.0792584324814
 21
11.34368952996885
 72
     2
 10
138.2873543918261
 20
19.18746714533716
 40
7.846537529869376
 50
268.4802955091472
 51
274.0040163067448
 73
     1
 72
     1
 10
138.8352498646665
 20
11.36008177354859
 11
139.6013151897724
 21
11.30651326762343
 72
     3
 10
139.6013360473055
 20
11.81482470097888
 11
0.0354580724987733
 21
0.5070740609111376
 40
0.9996559976393809
 50
183.9976489834014
 51
270.0000000000007
 73
     1
 72
     1
 10
140.1082356735426
 20
11.77937882614077
 11
140.2374975540077
 21
13.62790983838697
 72
     2
 10
140.4909473671263
 20
13.61018690096791
 40
0.2540687117309343
 50
-175.9999999999996
 51
-93.406443754993
 73
     0
 72
     1
 10
140.4758509498128
 20
13.86380671183628
 11
142.2941109262723
 21
13.9720364723398
 72
     1
 10
142.2941109262723
 20
13.9720364723398
 11
142.2941109262723
 21
13.463899048878
 72
     1
 10
142.2941109262723
 20
13.463899048878
 11
141.0630698901762
 21
13.39062279672942
 72
     2
 10
141.0857145161466
 20
13.01019308042689
 40
0.3811030675963716
 50
453.4064437549942
 51
536.0000000000002
 73
     1
 72
     1
 10
140.7055397964687
 20
13.03677748655548
 11
140.4866800352711
 21
9.906937084645164
 72
     1
 10
140.4866800352711
 20
9.906937084645164
 11
134.7393015965693
 21
9.906937084645164
 72
     1
 10
134.7393015965693
 20
9.906937084645164
 11
79.40031397160566
 21
9.906937084645164
 72
     1
 10
79.40031397160566
 20
9.906937084645164
 11
79.2621843331759
 21
11.8822829439904
 97
        0
 75
     1
 76
     1
 52
0.0
 41
10.0
 77
     0
 78
     1
 53
45.0
 43
-64.83440632535769
 44
0.0
 45
-0.8838834764831844
 46
0.8838834764831844
 79
     0
 47
0.1159793312984424
 98
        1
 10
132.2961327995302
 20
10.23462169135462
1001
GradientColor1ACI
1070
     5
1001
GradientColor2ACI
1070
     2
1001
ACAD
1010
0.0
1020
0.0
1030
0.0
  0
ARC
  5
1718
330
1F
100
AcDbEntity
  8
0
 62
     0
100
AcDbCircle
 10
121.2926122766335
 20
45.35285576521045
 30
-71.805864
 40
1.004593999999993
100
AcDbArc
 50
88.80649034093194
 51
169.9999957142444
1001
ACAD
1000
TCW40_DEV_WIDTH
1002
{
1040
-3.0
1002
}
  0
LINE
  5
1719
330
1F
100
AcDbEntity
  8
0
 62
     0
100
AcDbLine
 10
121.8308122766335
 20
52.95066376521049
 30
-71.805864
 11
122.8997062766335
 21
52.95030576521032
 31
-71.805864
1001
ACAD
1000
TCW40_DEV_WIDTH
1002
{
1040
-3.0
1002
}
  0
LINE
  5
171A
330
1F
100
AcDbEntity
  8
0
 62
     0
100
AcDbLine
 10
111.5337242766334
 20
44.91391376521045
 30
-71.805864
 11
111.8325262766335
 21
53.47049176521045
 31
-71.805864
1001
ACAD
1000
TCW40_DEV_WIDTH
1002
{
1040
-3.0
1002
}
  0
LINE
  5
171B
330
1F
100
AcDbEntity
  8
0
 62
     0
100
AcDbLine
 10
111.5337242766334
 20
44.91391376521045
 30
-71.805864
 11
111.5337242766334
 21
44.91391376521045
 31
-71.805864
1001
ACAD
1000
TCW40_DEV_WIDTH
1002
{
1040
-3.0
1002
}
  0
LINE
  5
171C
330
1F
100
AcDbEntity
  8
0
 62
     0
100
AcDbLine
 10
113.0415342766335
 20
44.91391376521045
 30
-71.805864
 11
113.2707862766335
 21
51.47883376521048
 31
-71.805864
1001
ACAD
1000
TCW40_DEV_WIDTH
1002
{
1040
-3.0
1002
}
  0
LINE
  5
171D
330
1F
100
AcDbEntity
  8
0
 62
     0
100
AcDbLine
 10
117.6308042766334
 20
51.66975776521048
 30
-71.805864
 11
119.1905142766334
 21
44.91391376521045
 31
-71.805864
1001
ACAD
1000
TCW40_DEV_WIDTH
1002
{
1040
-3.0
1002
}
  0
LINE
  5
171E
330
1F
100
AcDbEntity
  8
0
 62
     0
100
AcDbLine
 10
111.5337242766334
 20
44.91391376521045
 30
-71.805864
 11
113.0415342766335
 21
44.91391376521045
 31
-71.805864
1001
ACAD
1000
TCW40_DEV_WIDTH
1002
{
1040
-3.0
1002
}
  0
ARC
  5
171F
330
1F
100
AcDbEntity
  8
0
 62
     0
100
AcDbCircle
 10
118.4238102766335
 20
52.69689976521044
 30
-71.805864
 40
0.5031540000000003
100
AcDbArc
 50
12.99999145321826
 51
45.00002808595001
1001
ACAD
1000
TCW40_DEV_WIDTH
1002
{
1040
-3.0
1002
}
  0
ARC
  5
1720
330
1F
100
AcDbEntity
  8
0
 62
     0
100
AcDbCircle
 10
112.3345182766334
 20
53.45296176521031
 30
-71.805864
 40
0.5022959999999994
100
AcDbArc
 50
90.00001872396957
 51
177.9999762245379
1001
ACAD
1000
TCW40_DEV_WIDTH
1002
{
1040
-3.0
1002
}
  0
ARC
  5
1721
330
1F
100
AcDbEntity
  8
0
 62
     0
100
AcDbCircle
 10
112.1621482766334
 20
55.71329776521048
 30
-71.805864
 40
0.2511479999999979
100
AcDbArc
 50
90.0000187239663
 51
177.9999762245379
1001
ACAD
1000
TCW40_DEV_WIDTH
1002
{
1040
-3.0
1002
}
  0
LINE
  5
1722
330
1F
100
AcDbEntity
  8
0
 62
     0
100
AcDbLine
 10
114.2747682766335
 20
52.44836776521049
 30
-71.805864
 11
116.6519582766335
 21
52.44836776521049
 31
-71.805864
1001
ACAD
1000
TCW40_DEV_WIDTH
1002
{
1040
-3.0
1002
}
  0
LINE
  5
1723
330
1F
100
AcDbEntity
  8
0
 62
     0
100
AcDbLine
 10
121.8308122766335
 20
53.95525776521049
 30
-71.805864
 11
112.3345182766334
 21
53.95525776521049
 31
-71.805864
1001
ACAD
1000
TCW40_DEV_WIDTH
1002
{
1040
-3.0
1002
}
  0
LINE
  5
1724
330
1F
100
AcDbEntity
  8
0
 62
     0
100
AcDbLine
 10
118.8816122766334
 20
52.95066376521049
 30
-71.805864
 11
121.8308122766335
 21
52.95066376521049
 31
-71.805864
1001
ACAD
1000
TCW40_DEV_WIDTH
1002
{
1040
-3.0
1002
}
  0
LINE
  5
1725
330
1F
100
AcDbEntity
  8
0
 62
     0
100
AcDbLine
 10
118.0243902766335
 20
53.80788776521047
 30
-71.805864
 11
118.7795942766335
 21
53.05268376521047
 31
-71.805864
1001
ACAD
1000
TCW40_DEV_WIDTH
1002
{
1040
-3.0
1002
}
  0
LINE
  5
1726
330
1F
100
AcDbEntity
  8
0
 62
     0
100
AcDbLine
 10
123.6548582766335
 20
55.96408776521048
 30
-71.805864
 11
122.8997062766335
 21
55.96408776521048
 31
-71.805864
1001
ACAD
1000
TCW40_DEV_WIDTH
1002
{
1040
-3.0
1002
}
  0
LINE
  5
1727
330
1F
100
AcDbEntity
  8
0
 62
     0
100
AcDbLine
 10
121.8308122766335
 20
55.96444576521048
 30
-71.805864
 11
122.8997062766335
 21
55.96408776521048
 31
-71.805864
1001
ACAD
1000
TCW40_DEV_WIDTH
1002
{
1040
-3.0
1002
}
  0
ARC
  5
1728
330
1F
100
AcDbEntity
  8
0
 62
     0
100
AcDbCircle
 10
117.6689602766335
 20
53.45296176521031
 30
-71.805864
 40
0.5022959999999996
100
AcDbArc
 50
45.00002808595375
 51
90.00001872396957
1001
ACAD
1000
TCW40_DEV_WIDTH
1002
{
1040
-3.0
1002
}
  0
DIMENSION
  5
1729
330
1F
100
AcDbEntity
  8
0
  6
Continuous
 62
     7
370
    18
100
AcDbDimension
280
     0
  2
*D26
 10
107.2674298058056
 20
44.91391376521046
 30
0.0
 11
107.2674298058056
 21
49.43458576521033
 31
0.0
 70
   160
  1
5
 71
     5
 42
9.041344000000037
 73
     0
 74
     0
 75
     0
  3
3_4 Scale
100
AcDbAlignedDimension
 13
112.3345182766334
 23
53.95525776521049
 33
0.0
 14
111.5337242766335
 24
44.91391376521045
 34
0.0
 50
90.0
100
AcDbRotatedDimension
  0
ARC
  5
172A
330
1F
100
AcDbEntity
  8
0
 62
     0
100
AcDbCircle
 10
114.2747682766335
 20
51.44377376521049
 30
-71.805864
 40
1.004594000000002
100
AcDbArc
 50
90.00001872396957
 51
177.9999762245379
1001
ACAD
1000
TCW40_DEV_WIDTH
1002
{
1040
-3.0
1002
}
  0
LINE
  5
172B
330
1F
100
AcDbEntity
  8
0
 62
     0
100
AcDbLine
 10
111.8325262766335
 20
53.47049176521045
 30
-71.805864
 11
111.9111522766334
 21
55.72206376521046
 31
-71.805864
1001
ACAD
1000
TCW40_DEV_WIDTH
1002
{
1040
-3.0
1002
}
  0
ARC
  5
172C
330
1F
100
AcDbEntity
  8
0
 62
     0
100
AcDbCircle
 10
116.6519582766335
 20
51.44377376521049
 30
-71.805864
 40
1.004593999999997
100
AcDbArc
 50
12.99999145321826
 51
90.00001872396957
1001
ACAD
1000
TCW40_DEV_WIDTH
1002
{
1040
-3.0
1002
}
  0
LINE
  5
172D
330
1F
100
AcDbEntity
  8
0
 62
     0
100
AcDbLine
 10
112.1621482766334
 20
55.96444576521048
 30
-71.805864
 11
121.8308122766335
 21
55.96444576521048
 31
-71.805864
1001
ACAD
1000
TCW40_DEV_WIDTH
1002
{
1040
-3.0
1002
}
  0
LINE
  5
172E
330
1F
100
AcDbEntity
  8
0
 62
     0
100
AcDbLine
 10
121.8308122766335
 20
53.95525776521049
 30
-71.805864
 11
122.8997062766335
 21
53.95489976521048
 31
-71.805864
1001
ACAD
1000
TCW40_DEV_WIDTH
1002
{
1040
-3.0
1002
}
  0
LINE
  5
172F
330
1F
100
AcDbEntity
  8
0
 62
     0
100
AcDbLine
 10
118.9140682766335
 20
52.81008576521049
 30
-71.805864
 11
119.9903842766335
 21
48.14804376521045
 31
-71.805864
1001
ACAD
1000
TCW40_DEV_WIDTH
1002
{
1040
-3.0
1002
}
  0
ARC
  5
1730
330
1F
100
AcDbEntity
  8
0
 62
     0
100
AcDbCircle
 10
120.9692322766335
 20
48.37402776521031
 30
-71.805864
 40
1.004593999999997
100
AcDbArc
 50
193.0000113010609
 51
268.8065101887758
1001
ACAD
1000
TCW40_DEV_WIDTH
1002
{
1040
-3.0
1002
}
  0
LINE
  5
1731
330
1F
100
AcDbEntity
  8
0
 62
     0
100
AcDbLine
 10
120.1951242766335
 20
44.91391376521045
 30
-71.805864
 11
120.3032802766335
 21
45.52730176521049
 31
-71.805864
1001
ACAD
1000
TCW40_DEV_WIDTH
1002
{
1040
-3.0
1002
}
  0
LINE
  5
1732
330
1F
100
AcDbEntity
  8
0
 62
     0
100
AcDbLine
 10
119.9394862766335
 20
48.36851376521048
 30
-71.805864
 11
117.9287402766335
 21
50.37925976521046
 31
-71.805864
1001
ACAD
1000
TCW40_DEV_WIDTH
1002
{
1040
-3.0
1002
}
  0
LINE
  5
1733
330
1F
100
AcDbEntity
  8
0
 62
     0
100
AcDbLine
 10
121.9642302766335
 20
46.34376976521048
 30
-71.805864
 11
120.9373262766335
 21
47.37067376521048
 31
-71.805864
1001
ACAD
1000
TCW40_DEV_WIDTH
1002
{
1040
-3.0
1002
}
  0
LINE
  5
1734
330
1F
100
AcDbEntity
  8
0
 62
     0
100
AcDbLine
 10
113.9452742766335
 20
52.3828277652105
 30
-71.805864
 11
112.3728422766335
 21
53.95525776521049
 31
-71.805864
1001
ACAD
1000
TCW40_DEV_WIDTH
1002
{
1040
-3.0
1002
}
  0
LINE
  5
1735
330
1F
100
AcDbEntity
  8
0
 62
     0
100
AcDbLine
 10
120.4545262766335
 20
45.87357576521031
 30
-71.805864
 11
118.5230402766335
 21
47.80505976521044
 31
-71.805864
1001
ACAD
1000
TCW40_DEV_WIDTH
1002
{
1040
-3.0
1002
}
  0
LINE
  5
1736
330
1F
100
AcDbEntity
  8
0
 62
     0
100
AcDbLine
 10
113.2572402766334
 20
51.09096176521046
 30
-71.805864
 11
111.8003082766335
 21
52.54789376521046
 31
-71.805864
1001
ACAD
1000
TCW40_DEV_WIDTH
1002
{
1040
-3.0
1002
}
  0
LINE
  5
1737
330
1F
100
AcDbEntity
  8
0
 62
     0
100
AcDbLine
 10
119.4343402766334
 20
44.91386176521046
 30
-71.805864
 11
119.1173422766334
 21
45.23085976521048
 31
-71.805864
1001
ACAD
1000
TCW40_DEV_WIDTH
1002
{
1040
-3.0
1002
}
  0
LINE
  5
1738
330
1F
100
AcDbEntity
  8
0
 62
     0
100
AcDbLine
 10
113.1904342766335
 20
49.17786976521046
 30
-71.805864
 11
111.7335022766335
 21
50.63480176521045
 31
-71.805864
1001
ACAD
1000
TCW40_DEV_WIDTH
1002
{
1040
-3.0
1002
}
  0
LINE
  5
1739
330
1F
100
AcDbEntity
  8
0
 62
     0
100
AcDbLine
 10
113.1236282766335
 20
47.26477576521046
 30
-71.805864
 11
111.6666962766335
 21
48.72170776521045
 31
-71.805864
1001
ACAD
1000
TCW40_DEV_WIDTH
1002
{
1040
-3.0
1002
}
  0
LINE
  5
173A
330
1F
100
AcDbEntity
  8
0
 62
     0
100
AcDbLine
 10
113.0568202766334
 20
45.35168376521045
 30
-71.805864
 11
111.5998882766335
 21
46.80861576521045
 31
-71.805864
1001
ACAD
1000
TCW40_DEV_WIDTH
1002
{
1040
-3.0
1002
}
  0
LINE
  5
173B
330
1F
100
AcDbEntity
  8
0
 62
     0
100
AcDbLine
 10
119.3451842766334
 20
50.94271376521044
 30
-71.805864
 11
116.3326402766335
 21
53.95525776521049
 31
-71.805864
1001
ACAD
1000
TCW40_DEV_WIDTH
1002
{
1040
-3.0
1002
}
  0
LINE
  5
173C
330
1F
100
AcDbEntity
  8
0
 62
     0
100
AcDbLine
 10
115.8596322766335
 20
52.44836776521049
 30
-71.805864
 11
114.3527422766335
 21
53.95525776521049
 31
-71.805864
1001
ACAD
1000
TCW40_DEV_WIDTH
1002
{
1040
-3.0
1002
}
  0
LINE
  5
173D
330
1F
100
AcDbEntity
  8
0
 62
     0
100
AcDbLine
 10
120.9483062766335
 20
47.36965176521045
 30
-71.805864
 11
122.8447507213396
 21
47.330398500866
 31
-71.805864
1001
ACAD
1000
TCW40_DEV_WIDTH
1002
{
1040
-3.0
1002
}
  0
LINE
  5
173E
330
1F
100
AcDbEntity
  8
0
 62
     0
100
AcDbLine
 10
111.5337242766334
 20
44.91391376521045
 30
-71.805864
 11
122.8447507213395
 21
44.91384157212559
 31
-71.805864
1001
ACAD
1000
TCW40_DEV_WIDTH
1002
{
1040
-3.0
1002
}
  0
LINE
  5
173F
330
1F
100
AcDbEntity
  8
0
 62
     0
100
AcDbLine
 10
121.3135362766335
 20
46.35723176521048
 30
-71.805864
 11
122.8447507213395
 21
46.32555245756281
 31
-71.805864
1001
ACAD
1000
TCW40_DEV_WIDTH
1002
{
1040
-3.0
1002
}
  0
DIMENSION
  5
1740
330
1F
100
AcDbEntity
  8
0
  6
Continuous
 62
     7
370
    18
100
AcDbDimension
280
     0
  2
*D27
 10
107.2674298058056
 20
53.95525776521051
 30
0.0
 11
107.2674298058056
 21
54.95985176521046
 31
0.0
 70
   160
  1
1
 71
     5
 42
2.009187999999994
 73
     0
 74
     0
 75
     0
  3
3_4 Scale
100
AcDbAlignedDimension
 13
112.1621482766334
 23
55.96444576521048
 33
-71.805864
 14
112.3728422766337
 24
53.95525776521049
 34
0.0
 50
90.0
100
AcDbRotatedDimension
  0
DIMENSION
  5
1741
330
1F
100
AcDbEntity
  8
0
  6
Continuous
 62
     7
370
    18
100
AcDbDimension
280
     0
  2
*D28
 10
111.7335022766335
 20
57.74347550404434
 30
-897.5733079999999
 11
115.2565482766335
 21
60.32224767321214
 31
-897.5733079999999
 70
    32
  1
3 {\H0.7x;\S1#2;}   
 71
     5
 42
7.046092000000001
 73
     0
 74
     0
 75
     0
  3
3_4 Scale
100
AcDbAlignedDimension
 13
118.7795942766335
 23
53.05268376521047
 33
-71.805864
 14
111.7335022766335
 24
50.63480176521045
 34
-897.5733079999999
100
AcDbRotatedDimension
  0
ARC
  5
1830
330
1F
100
AcDbEntity
  8
0
 62
     0
100
AcDbCircle
 10
98.69617188193998
 20
24.29121734609192
 30
825.7674439999997
 40
0.4999999999999874
100
AcDbArc
 50
90.0000198478402
 51
177.9999949485049
1001
ACAD
1000
TCW40_DEV_WIDTH
1002
{
1040
-3.0
1002
}
  0
LINE
  5
1831
330
1F
100
AcDbEntity
  8
0
 62
     0
100
AcDbLine
 10
97.48063488193999
 20
25.29994234609194
 30
825.7674439999997
 11
97.51976888193997
 21
26.42057934609193
 31
825.7674439999997
1001
ACAD
1000
TCW40_DEV_WIDTH
1002
{
1040
-3.0
1002
}
  0
LINE
  5
1832
330
1F
100
AcDbEntity
  8
0
 62
     0
100
AcDbLine
 10
100.5624088819399
 20
25.46786834609191
 30
825.7674439999997
 11
100.9382838819399
 21
25.0919933460919
 31
825.7674439999997
1001
ACAD
1000
TCW40_DEV_WIDTH
1002
{
1040
-3.0
1002
}
  0
LINE
  5
1833
330
1F
100
AcDbEntity
  8
0
 62
     0
100
AcDbLine
 10
137.3058638819399
 20
21.04121734609191
 30
825.7674439999997
 11
119.95691688194
 21
21.04121734609191
 31
825.7674439999997
1001
ACAD
1000
TCW40_DEV_WIDTH
1002
{
1040
-3.0
1002
}
  0
LINE
  5
1834
330
1F
100
AcDbEntity
  8
0
 62
     0
100
AcDbLine
 10
102.45691688194
 20
25.04121734609191
 30
825.7674439999997
 11
102.83243588194
 21
25.04121734609191
 31
825.7674439999997
1001
ACAD
1000
TCW40_DEV_WIDTH
1002
{
1040
-3.0
1002
}
  0
LINE
  5
1839
330
1F
100
AcDbEntity
  8
0
 62
     0
100
AcDbLine
 10
116.3313988819399
 20
21.04121734609191
 30
825.7674439999997
 11
116.70691688194
 21
21.04121734609191
 31
825.7674439999997
1001
ACAD
1000
TCW40_DEV_WIDTH
1002
{
1040
-3.0
1002
}
  0
LINE
  5
183B
330
1F
100
AcDbEntity
  8
0
 62
     0
100
AcDbLine
 10
136.80585588194
 20
21.04121734609191
 30
825.7674439999997
 11
136.77675488194
 21
21.20626034609194
 31
825.7674439999997
1001
ACAD
1000
TCW40_DEV_WIDTH
1002
{
1040
-3.0
1002
}
  0
ARC
  5
183D
330
1F
100
AcDbEntity
  8
0
 62
     0
100
AcDbCircle
 10
100.76120588194
 20
24.91491534609185
 30
825.7674439999997
 40
0.2504269999999903
100
AcDbArc
 50
12.99999257709304
 51
44.9999719140456
1001
ACAD
1000
TCW40_DEV_WIDTH
1002
{
1040
-3.0
1002
}
  0
ARC
  5
183E
330
1F
100
AcDbEntity
  8
0
 62
     0
100
AcDbCircle
 10
99.87933188193999
 20
24.29121734609192
 30
825.7674439999997
 40
0.4999999999999922
100
AcDbArc
 50
12.99999257709304
 51
90.0000198478402
1001
ACAD
1000
TCW40_DEV_WIDTH
1002
{
1040
-3.0
1002
}
  0
LINE
  5
183F
330
1F
100
AcDbEntity
  8
0
 62
     0
100
AcDbLine
 10
102.45691688194
 20
25.54121734609192
 30
825.7674439999997
 11
97.73048288193985
 21
25.54121734609192
 31
825.7674439999997
1001
ACAD
1000
TCW40_DEV_WIDTH
1002
{
1040
-3.0
1002
}
  0
LINE
  5
1840
330
1F
100
AcDbEntity
  8
0
 62
     0
100
AcDbLine
 10
98.69617188193998
 20
24.79121734609186
 30
825.7674439999997
 11
99.87933188193999
 21
24.79121734609186
 31
825.7674439999997
1001
ACAD
1000
TCW40_DEV_WIDTH
1002
{
1040
-3.0
1002
}
  0
ARC
  5
1841
330
1F
100
AcDbEntity
  8
0
 62
     0
100
AcDbCircle
 10
136.38791788194
 20
22.62191934609189
 30
825.7674439999997
 40
0.4999999999999992
100
AcDbArc
 50
271.1934710872573
 51
347.0000272707479
1001
ACAD
1000
TCW40_DEV_WIDTH
1002
{
1040
-3.0
1002
}
  0
ARC
  5
1842
330
1F
100
AcDbEntity
  8
0
 62
     0
100
AcDbCircle
 10
139.06745288194
 20
26.41600334609189
 30
825.7674439999997
 40
0.125212999999992
100
AcDbArc
 50
90.0000198478402
 51
172.8750020626213
1001
ACAD
1000
TCW40_DEV_WIDTH
1002
{
1040
-3.0
1002
}
  0
LINE
  5
1843
330
1F
100
AcDbEntity
  8
0
 62
     0
100
AcDbLine
 10
138.9432068819399
 20
26.43153434609184
 30
825.7674439999997
 11
138.8456278819399
 21
25.65089934609193
 31
825.7674439999997
1001
ACAD
1000
TCW40_DEV_WIDTH
1002
{
1040
-3.0
1002
}
  0
ARC
  5
1844
330
1F
100
AcDbEntity
  8
0
 62
     0
100
AcDbCircle
 10
138.7213808819399
 20
25.66643034609189
 30
825.7674439999997
 40
0.125212999999988
100
AcDbArc
 50
270.0
 51
352.8749646146804
1001
ACAD
1000
TCW40_DEV_WIDTH
1002
{
1040
-3.0
1002
}
  0
LINE
  5
1845
330
1F
100
AcDbEntity
  8
0
 62
     0
100
AcDbLine
 10
139.3319168819399
 20
26.54121734609191
 30
825.7674439999997
 11
139.3319168819399
 21
24.79121734609186
 31
825.7674439999997
1001
ACAD
1000
TCW40_DEV_WIDTH
1002
{
1040
-3.0
1002
}
  0
LINE
  5
1846
330
1F
100
AcDbEntity
  8
0
 62
     0
100
AcDbLine
 10
137.8785688819399
 20
25.46786834609191
 30
825.7674439999997
 11
137.51269388194
 21
25.10199334609189
 31
825.7674439999997
1001
ACAD
1000
TCW40_DEV_WIDTH
1002
{
1040
-3.0
1002
}
  0
LINE
  5
1847
330
1F
100
AcDbEntity
  8
0
 62
     0
100
AcDbLine
 10
138.0821518819399
 20
24.40369234609193
 30
825.7674439999997
 11
137.3058638819399
 21
21.04121734609191
 31
825.7674439999997
1001
ACAD
1000
TCW40_DEV_WIDTH
1002
{
1040
-3.0
1002
}
  0
ARC
  5
1848
330
1F
100
AcDbEntity
  8
0
 62
     0
100
AcDbCircle
 10
138.56933688194
 20
24.29121734609192
 30
825.7674439999997
 40
0.4999999999999874
100
AcDbArc
 50
90.0000198478402
 51
167.0000074229069
1001
ACAD
1000
TCW40_DEV_WIDTH
1002
{
1040
-3.0
1002
}
  0
LINE
  5
1849
330
1F
100
AcDbEntity
  8
0
 62
     0
100
AcDbLine
 10
109.20795388194
 20
25.0512173460919
 30
825.7674439999997
 11
102.83243588194
 21
25.0512173460919
 31
825.7674439999997
1001
ACAD
1000
TCW40_DEV_WIDTH
1002
{
1040
-3.0
1002
}
  0
ARC
  5
184A
330
1F
100
AcDbEntity
  8
0
 62
     0
100
AcDbCircle
 10
97.73048288193985
 20
25.29121734609191
 30
825.7674439999997
 40
0.2500000000000079
100
AcDbArc
 50
90.0000198478402
 51
177.9999949485049
1001
ACAD
1000
TCW40_DEV_WIDTH
1002
{
1040
-3.0
1002
}
  0
LINE
  5
184B
330
1F
100
AcDbEntity
  8
0
 62
     0
100
AcDbLine
 10
137.4457638819398
 20
24.98124834609183
 30
825.7674439999997
 11
136.87510288194
 21
22.50944334609193
 31
825.7674439999997
1001
ACAD
1000
TCW40_DEV_WIDTH
1002
{
1040
-3.0
1002
}
  0
ARC
  5
1851
330
1F
100
AcDbEntity
  8
0
 62
     0
100
AcDbCircle
 10
100.3853298819399
 20
25.29079034609191
 30
825.7674439999997
 40
0.250426999999998
100
AcDbArc
 50
44.9999719140456
 51
89.99998015216304
1001
ACAD
1000
TCW40_DEV_WIDTH
1002
{
1040
-3.0
1002
}
  0
LINE
  5
1852
330
1F
100
AcDbEntity
  8
0
 62
     0
100
AcDbLine
 10
120.51941688194
 20
21.79121734609191
 30
825.7674439999997
 11
136.3983318819398
 21
22.1220273460919
 31
825.7674439999997
1001
ACAD
1000
TCW40_DEV_WIDTH
1002
{
1040
-3.0
1002
}
  0
LINE
  5
1853
330
1F
100
AcDbEntity
  8
0
 62
     0
100
AcDbLine
 10
137.9519168819399
 20
25.54121734609192
 30
825.7674439999997
 11
138.7213808819399
 21
25.54121734609192
 31
825.7674439999997
1001
ACAD
1000
TCW40_DEV_WIDTH
1002
{
1040
-3.0
1002
}
  0
ARC
  5
1854
330
1F
100
AcDbEntity
  8
0
 62
     0
100
AcDbCircle
 10
137.68977188194
 20
24.9249153460919
 30
825.7674439999997
 40
0.250426999999998
100
AcDbArc
 50
135.0000280859544
 51
167.0000074229069
1001
ACAD
1000
TCW40_DEV_WIDTH
1002
{
1040
-3.0
1002
}
  0
ARC
  5
1855
330
1F
100
AcDbEntity
  8
0
 62
     0
100
AcDbCircle
 10
138.05564688194
 20
25.29079034609191
 30
825.7674439999997
 40
0.2504270000000099
100
AcDbArc
 50
90.00001984783695
 51
135.0000280859544
1001
ACAD
1000
TCW40_DEV_WIDTH
1002
{
1040
-3.0
1002
}
  0
LINE
  5
1856
330
1F
100
AcDbEntity
  8
0
 62
     0
100
AcDbLine
 10
139.3319168819399
 20
24.79121734609186
 30
825.7674439999997
 11
138.56933688194
 21
24.79121734609186
 31
825.7674439999997
1001
ACAD
1000
TCW40_DEV_WIDTH
1002
{
1040
-3.0
1002
}
  0
LINE
  5
1857
330
1F
100
AcDbEntity
  8
0
 62
     0
100
AcDbLine
 10
109.20795388194
 20
26.54121734609191
 30
825.7674439999997
 11
102.83243588194
 21
26.54121734609191
 31
825.7674439999997
1001
ACAD
1000
TCW40_DEV_WIDTH
1002
{
1040
-3.0
1002
}
  0
LINE
  5
1858
330
1F
100
AcDbEntity
  8
0
 62
     0
100
AcDbLine
 10
109.20795388194
 20
25.54121734609192
 30
825.7674439999997
 11
102.83243588194
 21
25.54121734609192
 31
825.7674439999997
1001
ACAD
1000
TCW40_DEV_WIDTH
1002
{
1040
-3.0
1002
}
  0
ARC
  5
1859
330
1F
100
AcDbEntity
  8
0
 62
     0
100
AcDbCircle
 10
102.06937788194
 20
22.58455534609192
 30
825.7674439999997
 40
0.4999999999999997
100
AcDbArc
 50
192.9999727292519
 51
268.8065289127427
1001
ACAD
1000
TCW40_DEV_WIDTH
1002
{
1040
-3.0
1002
}
  0
LINE
  5
185A
330
1F
100
AcDbEntity
  8
0
 62
     0
100
AcDbLine
 10
101.00521388194
 20
24.9712483460919
 30
825.7674439999997
 11
101.58219288194
 21
22.4720803460919
 31
825.7674439999997
1001
ACAD
1000
TCW40_DEV_WIDTH
1002
{
1040
-3.0
1002
}
  0
ARC
  5
185B
330
1F
100
AcDbEntity
  8
0
 62
     0
100
AcDbCircle
 10
97.64469288194
 20
26.41621734609191
 30
825.7674439999997
 40
0.1250000000000039
100
AcDbArc
 50
90.0000198478402
 51
177.9999949485049
1001
ACAD
1000
TCW40_DEV_WIDTH
1002
{
1040
-3.0
1002
}
  0
LINE
  5
185C
330
1F
100
AcDbEntity
  8
0
 62
     0
100
AcDbLine
 10
100.3665168819398
 20
24.40369234609193
 30
825.7674439999997
 11
101.14280488194
 21
21.04121734609191
 31
825.7674439999997
1001
ACAD
1000
TCW40_DEV_WIDTH
1002
{
1040
-3.0
1002
}
  0
LINE
  5
185D
330
1F
100
AcDbEntity
  8
0
 62
     0
100
AcDbLine
 10
98.08237388193999
 20
21.04121734609191
 30
825.7674439999997
 11
98.19647588193999
 21
24.30866634609191
 31
825.7674439999997
1001
ACAD
1000
TCW40_DEV_WIDTH
1002
{
1040
-3.0
1002
}
  0
LINE
  5
185E
330
1F
100
AcDbEntity
  8
0
 62
     0
100
AcDbLine
 10
102.45691688194
 20
26.54121734609191
 30
825.7674439999997
 11
102.83243588194
 21
26.54121734609191
 31
825.7674439999997
1001
ACAD
1000
TCW40_DEV_WIDTH
1002
{
1040
-3.0
1002
}
  0
LINE
  5
185F
330
1F
100
AcDbEntity
  8
0
 62
     0
100
AcDbLine
 10
100.9890608819399
 20
25.04121734609191
 30
825.7674439999997
 11
102.45691688194
 21
25.04121734609191
 31
825.7674439999997
1001
ACAD
1000
TCW40_DEV_WIDTH
1002
{
1040
-3.0
1002
}
  0
LINE
  5
1862
330
1F
100
AcDbEntity
  8
0
 62
     0
100
AcDbLine
 10
137.46191688194
 20
25.0512173460919
 30
825.7674439999997
 11
109.20795388194
 21
25.0512173460919
 31
825.7674439999997
1001
ACAD
1000
TCW40_DEV_WIDTH
1002
{
1040
-3.0
1002
}
  0
LINE
  5
1863
330
1F
100
AcDbEntity
  8
0
 62
     0
100
AcDbLine
 10
137.9519168819399
 20
25.54121734609192
 30
825.7674439999997
 11
109.20795388194
 21
25.54121734609192
 31
825.7674439999997
1001
ACAD
1000
TCW40_DEV_WIDTH
1002
{
1040
-3.0
1002
}
  0
LINE
  5
1865
330
1F
100
AcDbEntity
  8
0
 62
     0
100
AcDbLine
 10
116.14441688194
 20
21.79121734609191
 30
825.7674439999997
 11
102.05896288194
 21
22.08466434609193
 31
825.7674439999997
1001
ACAD
1000
TCW40_DEV_WIDTH
1002
{
1040
-3.0
1002
}
  0
LINE
  5
1866
330
1F
100
AcDbEntity
  8
0
 62
     0
100
AcDbLine
 10
97.33191688194001
 20
21.04121734609191
 30
825.7674439999997
 11
97.48063488193999
 21
25.29994234609194
 31
825.7674439999997
1001
ACAD
1000
TCW40_DEV_WIDTH
1002
{
1040
-3.0
1002
}
  0
LINE
  5
1867
330
1F
100
AcDbEntity
  8
0
 62
     0
100
AcDbLine
 10
97.64469288194
 20
26.54121734609191
 30
825.7674439999997
 11
102.45691688194
 21
26.54121734609191
 31
825.7674439999997
1001
ACAD
1000
TCW40_DEV_WIDTH
1002
{
1040
-3.0
1002
}
  0
LINE
  5
1868
330
1F
100
AcDbEntity
  8
0
 62
     0
100
AcDbLine
 10
97.33191688194001
 20
21.04121734609191
 30
825.7674439999997
 11
98.08237388193999
 21
21.04121734609191
 31
825.7674439999997
1001
ACAD
1000
TCW40_DEV_WIDTH
1002
{
1040
-3.0
1002
}
  0
LINE
  5
1869
330
1F
100
AcDbEntity
  8
0
 62
     0
100
AcDbLine
 10
102.45691688194
 20
25.54121734609192
 30
825.7674439999997
 11
102.83243588194
 21
25.54121734609192
 31
825.7674439999997
1001
ACAD
1000
TCW40_DEV_WIDTH
1002
{
1040
-3.0
1002
}
  0
LINE
  5
186A
330
1F
100
AcDbEntity
  8
0
 62
     0
100
AcDbLine
 10
116.3313988819399
 20
21.04121734609191
 30
825.7674439999997
 11
101.14280488194
 21
21.04121734609191
 31
825.7674439999997
1001
ACAD
1000
TCW40_DEV_WIDTH
1002
{
1040
-3.0
1002
}
  0
LINE
  5
186B
330
1F
100
AcDbEntity
  8
0
 62
     0
100
AcDbLine
 10
139.3319168819399
 20
26.54121734609191
 30
825.7674439999997
 11
109.20795388194
 21
26.54121734609191
 31
825.7674439999997
1001
ACAD
1000
TCW40_DEV_WIDTH
1002
{
1040
-3.0
1002
}
  0
LINE
  5
1880
330
1F
100
AcDbEntity
  8
0
 62
     0
100
AcDbLine
 10
101.0983708819398
 20
21.23368334609194
 30
825.7674439999997
 11
101.29083688194
 21
21.04121734609191
 31
825.7674439999997
1001
ACAD
1000
TCW40_DEV_WIDTH
1002
{
1040
-3.0
1002
}
  0
MTEXT
  5
189E
330
1F
100
AcDbEntity
  8
0
  6
Continuous
 62
     0
370
     0
100
AcDbMText
 10
116.9472720353918
 20
19.75269376508316
 30
0.0
 40
1.101673228346456
 41
0.0
 46
0.0
 71
     2
 72
     1
  1
SECTION A-A
  7
SLDTEXTSTYLE0
 73
     1
 44
1.0
  0
LINE
  5
18A1
330
1F
100
AcDbEntity
  8
0
100
AcDbLine
 10
116.14441688194
 20
21.79121734609191
 30
825.7674439999997
 11
120.51941688194
 21
21.79121734609191
 31
825.7674439999997
  0
LINE
  5
18A2
330
1F
100
AcDbEntity
  8
0
100
AcDbLine
 10
119.95691688194
 20
21.04121734609191
 30
825.7674439999997
 11
116.70691688194
 21
21.04121734609191
 31
825.7674439999997
  0
HATCH
  5
18AA
330
1F
100
AcDbEntity
  8
0
100
AcDbHatch
 10
0.0
 20
0.0
 30
0.0
210
0.0
220
0.0
230
1.0
  2
ANSI31
 70
     0
 71
     0
 91
        1
 92
        7
 72
     1
 73
     1
 93
       30
 10
119.95691688194
 20
21.04121734609191
 42
0.0
 10
121.3772983651964
 20
21.04121734609191
 42
-0.2788116580971222
 10
121.8143894945372
 20
21.31808687486085
 42
0.0
 10
136.2732040347264
 20
21.61931207844665
 42
-0.3702963058178504
 10
136.7767550308313
 20
21.20625889013731
 42
0.0
 10
136.77675488194
 20
21.20626034609196
 42
0.0
 10
136.80585588194
 20
21.04121734609191
 42
0.0
 10
137.3058638819399
 20
21.04121734609191
 42
0.0
 10
138.0820648125954
 20
24.40331520707363
 42
-0.3494330631217411
 10
138.56933688194
 20
24.7912173460919
 42
0.0
 10
139.3319168819399
 20
24.79121734609186
 42
0.0
 10
139.3319168819399
 20
26.54121734609191
 42
0.0
 10
139.06745288194
 20
26.54121634609188
 42
0.3785211224783469
 10
138.9431917075306
 20
26.43141295035038
 42
0.0
 10
138.8456269790626
 20
25.65089964363664
 42
-0.3782425870523441
 10
138.7213808819399
 20
25.5412173460919
 42
0.0
 10
138.05564688194
 20
25.54121734609192
 42
0.1996056574286105
 10
137.8780965679574
 20
25.46739603210939
 42
0.0
 10
137.512221567953
 20
25.10152103210491
 42
0.1404812487496127
 10
137.4456269423622
 20
24.98065519545981
 42
0.0
 10
136.8751029207766
 20
22.50944384683223
 42
-0.3433835631048581
 10
136.3983322658356
 20
22.1220278172498
 42
0.0
 10
120.51941688194
 20
21.79121734609191
 42
0.0
 10
116.14441688194
 20
21.79121734609191
 42
0.0
 10
102.8328967536685
 20
22.06854072147485
 42
-0.0280990342330238
 10
102.5669532567824
 20
21.57397200245857
 42
0.0
 10
114.849444265796
 20
21.31808687493474
 42
-0.2788116600087501
 10
115.2865353986836
 20
21.04121734609191
 42
0.0
 10
116.3313988819399
 20
21.04121734609191
 42
0.0
 10
116.70691688194
 20
21.04121734609191
 42
0.0
 97
        0
 75
     1
 76
     1
 52
0.0
 41
10.0
 77
     0
 78
     1
 53
45.0
 43
-71.94979619018432
 44
-14.30722704742959
 45
-0.8838834764831844
 46
0.8838834764831844
 79
     0
 47
0.0289079383451446
 98
        1
 10
117.0301364529309
 20
21.30033550446364
1001
GradientColor1ACI
1070
     5
1001
GradientColor2ACI
1070
     2
1001
ACAD
1010
0.0
1020
0.0
1030
0.0
  0
LINE
  5
18AB
330
1F
100
AcDbEntity
  8
0
100
AcDbLine
 10
102.0589636350825
 20
22.0846638143949
 30
825.7674439999997
 11
136.3983321287975
 21
22.12202781439487
 31
825.7674439999997
  0
HATCH
  5
18B2
330
1F
100
AcDbEntity
  8
0
100
AcDbHatch
 10
0.0
 20
0.0
 30
0.0
210
0.0
220
0.0
230
1.0
  2
ANSI31
 70
     0
 71
     0
 91
        1
 92
        7
 72
     1
 73
     1
 93
       39
 10
136.8751029207766
 20
22.50944384683223
 42
0.0
 10
137.4456269440039
 20
24.98065520265094
 42
-0.1404812412413242
 10
137.5122215679534
 20
25.10152103210534
 42
0.0
 10
137.8780965679574
 20
25.46739603210933
 42
-0.1996056574286913
 10
138.05564688194
 20
25.54121734609192
 42
0.0
 10
138.7213808819399
 20
25.5412173460919
 42
0.3782425870523522
 10
138.8456269790626
 20
25.65089964363664
 42
0.0
 10
138.9431917258374
 20
26.43141309797324
 42
-0.378520782923367
 10
139.06745288194
 20
26.54121634609188
 42
0.0
 10
139.3319168819399
 20
26.54121734609191
 42
0.0
 10
139.3319168819399
 20
24.79121734609186
 42
0.0
 10
138.56933688194
 20
24.7912173460919
 42
0.3494330631219015
 10
138.0820648125953
 20
24.40331520707335
 42
0.0
 10
137.3058638819399
 20
21.04121734609191
 42
0.0
 10
121.3772983651964
 20
21.04121734609191
 42
-0.2788116580971218
 10
121.8143894945372
 20
21.31808687486085
 42
0.0
 10
136.2732040347264
 20
21.61931207844665
 42
-0.3702963058178482
 10
136.7767550308313
 20
21.20625889013731
 42
0.0
 10
136.77675488194
 20
21.20626034609194
 42
0.0
 10
136.80585588194
 20
21.04121734609191
 42
0.0
 10
137.3058638819399
 20
21.04121734609191
 42
0.0
 10
138.0820648125954
 20
24.40331520707342
 42
-0.3494330631218622
 10
138.56933688194
 20
24.7912173460919
 42
0.0
 10
139.3319168819399
 20
24.79121734609186
 42
0.0
 10
139.3319168819399
 20
26.54121734609191
 42
0.0
 10
139.06745288194
 20
26.54121634609188
 42
0.3785211224783469
 10
138.9431917075306
 20
26.43141295035038
 42
0.0
 10
138.8456269790626
 20
25.65089964363664
 42
-0.3782425870523441
 10
138.7213808819399
 20
25.5412173460919
 42
0.0
 10
138.05564688194
 20
25.54121734609192
 42
0.1996056574287161
 10
137.8780965679574
 20
25.46739603210931
 42
0.0
 10
137.512221567953
 20
25.10152103210495
 42
0.1404812487498163
 10
137.4456269423621
 20
24.98065519545966
 42
0.0
 10
136.8751029207766
 20
22.50944384683223
 42
-0.343383563104859
 10
136.3983322658356
 20
22.1220278172498
 42
0.0
 10
120.51941688194
 20
21.79121734609191
 42
0.0
 10
116.14441688194
 20
21.79121734609191
 42
0.0
 10
102.058987174006
 20
22.08466384000715
 42
0.0
 10
136.3983321287975
 20
22.12202781439487
 42
0.3433836397197824
 97
        0
 75
     1
 76
     1
 52
0.0
 41
10.0
 77
     0
 78
     1
 53
45.0
 43
-71.94979619018432
 44
-14.30722704742959
 45
-0.8838834764831844
 46
0.8838834764831844
 79
     0
 47
0.0289943539504562
 98
        1
 10
120.9456159949768
 20
21.97249716596298
1001
GradientColor1ACI
1070
     5
1001
GradientColor2ACI
1070
     2
1001
ACAD
1010
0.0
1020
0.0
1030
0.0
  0
HATCH
  5
18BD
330
1F
100
AcDbEntity
  8
0
100
AcDbHatch
 10
0.0
 20
0.0
 30
0.0
210
0.0
220
0.0
230
1.0
  2
ANSI31
 70
     0
 71
     0
 91
        2
 92
        7
 72
     1
 73
     1
 93
       19
 10
102.1907652207168
 20
21.04121734609191
 42
0.0607987902310862
 10
102.8328967536685
 20
22.06854072147485
 42
0.0
 10
102.058987174006
 20
22.08466384000715
 42
0.0
 10
102.0808799473862
 20
22.08468766110871
 42
-0.3554633346525917
 10
101.5822801885912
 20
22.47170217983457
 42
0.0
 10
101.0050766319203
 20
24.97184284061812
 42
0.1406003775663465
 10
100.9378115679671
 20
25.09246566006471
 42
0.0
 10
100.5621939005828
 20
25.46808332744901
 42
0.1985976001673475
 10
100.3853298819399
 20
25.54121734609191
 42
0.0
 10
97.73048288193985
 20
25.54121734609192
 42
0.4040262227015163
 10
97.4806351752791
 20
25.2999422229598
 42
0.0
 10
97.33191688194001
 20
21.04121734609191
 42
0.0
 10
98.08237388193999
 20
21.04121734609191
 42
0.0
 10
98.19647646931933
 20
24.30866711989736
 42
-0.404026211021497
 10
98.69617188193998
 20
24.7912173460919
 42
0.0
 10
99.87933188194
 20
24.7912173460919
 42
-0.3489983155608456
 10
100.3664296178292
 20
24.40407032873582
 42
0.0
 10
101.0983705602084
 20
21.23368366782338
 42
0.0
 10
101.29083688194
 20
21.04121734609191
 42
0.0
 97
        0
 92
        7
 72
     1
 73
     1
 93
       22
 10
116.3313988819399
 20
21.04121734609191
 42
0.0
 10
116.70691688194
 20
21.04121734609191
 42
0.0
 10
119.95691688194
 20
21.04121734609191
 42
0.0
 10
137.3058638819399
 20
21.04121734609191
 42
0.0
 10
138.0820648125949
 20
24.40331520707146
 42
-0.3494330631229872
 10
138.56933688194
 20
24.7912173460919
 42
0.0
 10
139.3319168819399
 20
24.79121734609186
 42
0.0
 10
139.3319168819399
 20
26.54121734609191
 42
0.0
 10
139.06745288194
 20
26.54121634609188
 42
0.3785211224773035
 10
138.9431917075306
 20
26.43141295035082
 42
0.0
 10
138.8456269790626
 20
25.65089964363665
 42
-0.3782425870523459
 10
138.7213808819399
 20
25.5412173460919
 42
0.0
 10
138.05564688194
 20
25.54121734609192
 42
0.199605657431285
 10
137.8780965679556
 20
25.46739603210757
 42
0.0
 10
137.5122215679529
 20
25.10152103210487
 42
0.1404812487499404
 10
137.4456269423621
 20
24.98065519545943
 42
0.0
 10
136.8751029207766
 20
22.50944384683223
 42
-0.3433835631048539
 10
136.3983322658356
 20
22.12202781724981
 42
0.0
 10
120.51941688194
 20
21.79121734609191
 42
0.0
 10
116.14441688194
 20
21.79121734609191
 42
0.0
 10
102.8328967536685
 20
22.06854072147485
 42
-0.0607987902310862
 10
102.1907652207168
 20
21.04121734609191
 42
0.0
 97
        0
 75
     1
 76
     1
 52
0.0
 41
10.0
 77
     0
 78
     1
 53
45.0
 43
-71.94979619018432
 44
-14.30722704742959
 45
-0.8838834764831844
 46
0.8838834764831844
 79
     0
 47
0.0464711900186068
 98
        2
 10
101.6885475632125
 20
21.38956625082665
 10
103.7972176819648
 20
21.18978102902508
1001
GradientColor1ACI
1070
     5
1001
GradientColor2ACI
1070
     2
1001
ACAD
1010
0.0
1020
0.0
1030
0.0
  0
LINE
  5
18EC
102
{ACAD_REACTORS
330
9C3
330
A11
330
BDE
102
}
330
1F
100
AcDbEntity
  8
0
  6
Continuous
 62
     7
370
    18
100
AcDbLine
 10
85.59925930107999
 20
78.09275470218605
 30
0.0
 11
25.59925930108
 21
78.09275470218605
 31
0.0
  0
LINE
  5
18ED
330
1F
100
AcDbEntity
  8
0
  6
Continuous
 62
     7
370
    18
100
AcDbLine
 10
25.34925930108
 20
77.84275470218606
 30
0.0
 11
25.34925930108
 21
41.84275470218605
 31
0.0
  0
LINE
  5
18EE
102
{ACAD_REACTORS
330
9F7
102
}
330
1F
100
AcDbEntity
  8
0
  6
Continuous
 62
     7
370
    18
100
AcDbLine
 10
85.84925930107999
 20
41.84275470218605
 30
0.0
 11
85.84925930107999
 21
77.84275470218606
 31
0.0
  0
LINE
  5
18EF
330
1F
100
AcDbEntity
  8
0
100
AcDbLine
 10
85.59925930107999
 20
41.84275470218605
 30
0.0
 11
85.84925930107999
 21
41.84275470218605
 31
0.0
  0
LINE
  5
18F0
330
1F
100
AcDbEntity
  8
0
100
AcDbLine
 10
85.84925930107999
 20
77.84275470218606
 30
0.0
 11
85.84925930107999
 21
78.09275470218605
 31
0.0
  0
LINE
  5
18F1
330
1F
100
AcDbEntity
  8
0
100
AcDbLine
 10
85.84925930107999
 20
78.09275470218605
 30
0.0
 11
85.59925930107999
 21
78.09275470218605
 31
0.0
  0
LINE
  5
18F2
330
1F
100
AcDbEntity
  8
0
100
AcDbLine
 10
25.59925930108
 20
78.09275470218605
 30
0.0
 11
25.34925930108
 21
78.09275470218605
 31
0.0
  0
LINE
  5
18F3
330
1F
100
AcDbEntity
  8
0
100
AcDbLine
 10
25.34925930108
 20
78.09275470218605
 30
0.0
 11
25.34925930108
 21
77.84275470218606
 31
0.0
  0
LINE
  5
18F4
330
1F
100
AcDbEntity
  8
0
100
AcDbLine
 10
25.59925930108
 20
41.84275470218605
 30
0.0
 11
25.34925930108
 21
41.84275470218605
 31
0.0
  0
ENDSEC
  0
SECTION
  2
OBJECTS
  0
DICTIONARY
  5
C
330
0
100
AcDbDictionary
281
     1
  3
ACAD_CIP_PREVIOUS_PRODUCT_INFO
350
1A5
  3
ACAD_COLOR
350
73
  3
ACAD_DETAILVIEWSTYLE
350
1AB
  3
ACAD_GROUP
350
D
  3
ACAD_LAYOUT
350
1A
  3
ACAD_MATERIAL
350
72
  3
ACAD_MLEADERSTYLE
350
D7
  3
ACAD_MLINESTYLE
350
17
  3
ACAD_PLOTSETTINGS
350
19
  3
ACAD_PLOTSTYLENAME
350
E
  3
ACAD_SCALELIST
350
B6
  3
ACAD_SECTIONVIEWSTYLE
350
1A8
  3
ACAD_TABLESTYLE
350
86
  3
ACAD_VISUALSTYLE
350
99
  3
ACDB_RECOMPOSE_DATA
350
1952
  3
AcDbVariableDictionary
350
66
  3
AcDsDecomposeData
350
1958
  0
DICTIONARY
  5
18E
330
2
100
AcDbDictionary
280
     1
281
     1
  3
ACAD_LAYERSTATES
360
18F
  0
DICTIONARY
  5
E6
330
10
100
AcDbDictionary
280
     1
281
     1
  0
DICTIONARY
  5
15D
330
1F
100
AcDbDictionary
280
     1
281
     1
  3
ACAD_SORTENTS
360
99D
  0
DICTIONARY
  5
7E7
330
7E6
100
AcDbDictionary
280
     1
281
     1
  3
ACAD_DIMASSOC
360
7E8
  0
DICTIONARY
  5
9B8
330
9AA
100
AcDbDictionary
280
     1
281
     1
  3
ACAD_DIMASSOC
360
9C3
  0
DICTIONARY
  5
9D2
330
9C4
100
AcDbDictionary
280
     1
281
     1
  3
ACAD_DIMASSOC
360
9DD
  0
DICTIONARY
  5
9EC
330
9DE
100
AcDbDictionary
280
     1
281
     1
  3
ACAD_DIMASSOC
360
9F7
  0
DICTIONARY
  5
A06
330
9F8
100
AcDbDictionary
280
     1
281
     1
  3
ACAD_DIMASSOC
360
A11
  0
DICTIONARY
  5
A69
330
A5B
100
AcDbDictionary
280
     1
281
     1
  3
ACAD_DIMASSOC
360
A74
  0
DICTIONARY
  5
B81
330
B73
100
AcDbDictionary
280
     1
281
     1
  3
ACAD_DIMASSOC
360
B8C
  0
DICTIONARY
  5
BD3
330
BC5
100
AcDbDictionary
280
     1
281
     1
  3
ACAD_DIMASSOC
360
BDE
  0
XRECORD
  5
1A5
102
{ACAD_REACTORS
330
C
102
}
330
C
100
AcDbXrecord
280
     1
300
ACDLT
300
2018
300
ACDLT_F_S
  0
DICTIONARY
  5
73
102
{ACAD_REACTORS
330
C
102
}
330
C
100
AcDbDictionary
281
     1
  0
DICTIONARY
  5
1AB
102
{ACAD_REACTORS
330
C
102
}
330
C
100
AcDbDictionary
281
     1
  3
Imperial24
350
1AC
  0
DICTIONARY
  5
D
102
{ACAD_REACTORS
330
C
102
}
330
C
100
AcDbDictionary
281
     1
  0
DICTIONARY
  5
1A
102
{ACAD_REACTORS
330
C
102
}
330
C
100
AcDbDictionary
281
     1
  3
Layout1
350
59
  3
Layout2
350
5E
  3
Model
350
22
  0
DICTIONARY
  5
72
102
{ACAD_REACTORS
330
C
102
}
330
C
100
AcDbDictionary
281
     1
  3
ByBlock
350
97
  3
ByLayer
350
96
  3
Global
350
98
  0
DICTIONARY
  5
D7
102
{ACAD_REACTORS
330
C
102
}
330
C
100
AcDbDictionary
281
     1
  3
Annotative
350
E5
  3
Standard
350
D8
  0
DICTIONARY
  5
17
102
{ACAD_REACTORS
330
C
102
}
330
C
100
AcDbDictionary
281
     1
  3
Standard
350
18
  0
DICTIONARY
  5
19
102
{ACAD_REACTORS
330
C
102
}
330
C
100
AcDbDictionary
281
     1
  0
ACDBDICTIONARYWDFLT
  5
E
102
{ACAD_REACTORS
330
C
102
}
330
C
100
AcDbDictionary
281
     1
  3
Normal
350
F
100
AcDbDictionaryWithDefault
340
F
  0
DICTIONARY
  5
B6
102
{ACAD_REACTORS
330
C
102
}
330
C
100
AcDbDictionary
281
     1
  3
A0
350
B7
  3
A1
350
124
  3
A2
350
125
  3
A3
350
126
  3
A4
350
127
  3
A5
350
128
  3
A6
350
129
  3
A7
350
12A
  3
A8
350
12B
  3
A9
350
12C
  3
B0
350
12D
  3
B1
350
12E
  3
B2
350
12F
  3
B3
350
130
  3
B4
350
131
  3
B5
350
132
  3
B6
350
133
  3
B7
350
134
  3
B8
350
135
  3
B9
350
136
  3
C0
350
137
  3
C1
350
138
  3
C2
350
139
  3
C3
350
13A
  3
C4
350
13B
  3
C5
350
13C
  3
C6
350
13D
  3
C7
350
13E
  3
C8
350
13F
  3
C9
350
140
  3
D0
350
141
  3
D1
350
142
  3
D2
350
143
  0
DICTIONARY
  5
1A8
102
{ACAD_REACTORS
330
C
102
}
330
C
100
AcDbDictionary
281
     1
  3
Imperial24
350
1AA
  0
DICTIONARY
  5
86
102
{ACAD_REACTORS
330
C
102
}
330
C
100
AcDbDictionary
281
     1
  3
Standard
350
87
  0
DICTIONARY
  5
99
102
{ACAD_REACTORS
330
C
102
}
330
C
100
AcDbDictionary
281
     1
  3
2dWireframe
350
9F
  3
Basic
350
9E
  3
Brighten
350
A5
  3
ColorChange
350
A9
  3
Conceptual
350
A2
  3
Dim
350
A4
  3
EdgeColorOff
350
175
  3
Facepattern
350
A8
  3
Flat
350
9A
  3
FlatWithEdges
350
9B
  3
Gouraud
350
9C
  3
GouraudWithEdges
350
9D
  3
Hidden
350
A1
  3
JitterOff
350
173
  3
Linepattern
350
A7
  3
OverhangOff
350
174
  3
Realistic
350
A3
  3
Shaded
350
182
  3
Shaded with edges
350
181
  3
Shades of Gray
350
17E
  3
Sketchy
350
17F
  3
Thicken
350
A6
  3
Wireframe
350
A0
  3
X-Ray
350
180
  0
XRECORD
  5
1952
102
{ACAD_REACTORS
330
C
102
}
330
C
100
AcDbXrecord
280
     1
 90
        1
330
87
  0
DICTIONARY
  5
66
102
{ACAD_REACTORS
330
C
102
}
330
C
100
AcDbDictionary
281
     1
  3
CANNOSCALE
350
F0
  3
CMLEADERSTYLE
350
EF
  3
CTABLESTYLE
350
89
  3
CVIEWDETAILSTYLE
350
1B7
  3
CVIEWSECTIONSTYLE
350
1B8
  3
DIMASSOC
350
67
  3
HIDETEXT
350
6B
  3
HPCOLOR
350
D2F
  3
HPTRANSPARENCY
350
D2E
  3
LAYEREVAL
350
14D
  3
LAYERNOTIFY
350
14E
  0
DICTIONARY
  5
1958
102
{ACAD_REACTORS
330
C
102
}
330
C
100
AcDbDictionary
281
     1
  3
AcDsRecords
350
195A
  3
AcDsSchemas
350
1959
1001
ACAD
1070
     2
  0
DICTIONARY
  5
18F
102
{ACAD_REACTORS
330
18E
102
}
330
18E
100
AcDbDictionary
281
     1
  0
SORTENTSTABLE
  5
99D
102
{ACAD_REACTORS
330
15D
102
}
330
15D
100
AcDbSortentsTable
330
1F
331
1843
  5
1851
331
1723
  5
1726
331
1847
  5
1855
331
1543
  5
154E
331
1727
  5
172A
331
1547
  5
1552
331
1644
  5
171A
331
189E
  5
18B6
331
18A2
  5
18ED
331
663
  5
672
331
7E2
  5
800
331
667
  5
677
331
6A6
  5
6B6
331
66B
  5
67A
331
7E6
  5
804
331
7AB
  5
7BC
331
66F
  5
67E
331
9DE
  5
C61
331
91F
  5
9F8
331
7AF
  5
7C0
331
A5B
  5
CF5
331
1729
  5
172C
331
1549
  5
1576
331
172D
  5
1730
331
1731
  5
1734
331
1551
  5
157B
331
1735
  5
1738
331
1510
  5
151C
331
184B
  5
1859
331
18AA
  5
183F
331
1853
  5
185C
331
18B2
  5
1841
331
673
  5
682
331
1857
  5
1860
331
6AC
  5
6C2
331
677
  5
686
331
7B3
  5
7C4
331
67B
  5
68A
331
7B7
  5
7C8
331
99B
  5
C5B
331
7BB
  5
7CC
331
67F
  5
68E
331
6B4
  5
6C4
331
7BF
  5
7D0
331
7F4
  5
805
331
9A7
  5
B73
331
B07
  5
D0C
331
1739
  5
173C
331
173D
  5
1740
331
1741
  5
1832
331
1518
  5
1521
331
CF5
  5
C55
331
151C
  5
1522
331
1520
  5
1539
331
C55
  5
D5A
331
185B
  5
1866
331
185F
  5
186B
331
1863
  5
189E
331
683
  5
692
331
6B8
  5
6C9
331
1867
  5
18A1
331
6BC
  5
6CC
331
7C3
  5
7D4
331
7F8
  5
809
331
687
  5
696
331
7C7
  5
7D8
331
68B
  5
69A
331
7CB
  5
7DC
331
68F
  5
69E
331
7CF
  5
7E0
331
804
  5
9A9
331
9F8
  5
CF3
331
B73
  5
D0F
331
1830
  5
1838
331
1834
  5
1843
331
C59
  5
14AC
331
1718
  5
171B
331
1579
  5
1646
331
C5D
  5
150E
331
171C
  5
171F
331
157D
  5
1719
331
1538
  5
153E
331
C61
  5
1515
331
153C
  5
1543
331
186B
  5
18AF
331
18EE
  5
C58
331
650
  5
65C
331
693
  5
6A2
331
654
  5
661
331
658
  5
666
331
697
  5
6A6
331
7D3
  5
7E4
331
808
  5
9C4
331
69B
  5
6AF
331
740
  5
7AE
331
7D7
  5
7F5
331
7DB
  5
7F9
331
744
  5
7B2
331
7DF
  5
7FD
331
1840
  5
1849
331
1720
  5
1723
331
1844
  5
1852
331
1724
  5
1727
331
1544
  5
154F
331
660
  5
66F
331
6A3
  5
6B3
331
664
  5
673
331
7E3
  5
801
331
668
  5
678
331
6A7
  5
6B8
331
7A8
  5
7B9
331
66C
  5
67B
331
7AC
  5
7BD
331
920
  5
A5A
331
172A
  5
172D
331
172E
  5
1731
331
16C1
  5
658
331
1732
  5
1735
331
154E
  5
1577
331
1552
  5
157C
331
1736
  5
1739
331
150D
  5
1516
331
1515
  5
151E
331
1848
  5
1856
331
18AB
  5
18EE
331
670
  5
67F
331
1854
  5
185D
331
6A9
  5
6BA
331
674
  5
683
331
7B0
  5
7C1
331
678
  5
687
331
7B4
  5
7C5
331
998
  5
B07
331
7B8
  5
7C9
331
67C
  5
68B
331
99C
  5
C5D
331
7BC
  5
7CD
331
6B5
  5
6C5
331
9A0
  5
B09
331
7F5
  5
806
331
9A4
  5
C5A
331
173A
  5
173D
331
173E
  5
1741
331
151D
  5
1533
331
1521
  5
153A
331
C56
  5
D5B
331
1858
  5
1861
331
185C
  5
1867
331
680
  5
68F
331
7C0
  5
7D1
331
684
  5
693
331
6B9
  5
6CA
331
6BD
  5
6CD
331
688
  5
697
331
7C4
  5
7D5
331
7C8
  5
7D9
331
64D
  5
659
331
68C
  5
69B
331
7CC
  5
7DD
331
B08
  5
D0D
331
805
  5
9AA
331
1831
  5
183A
331
1839
  5
1844
331
1576
  5
157D
331
183D
  5
1846
331
1719
  5
171C
331
C5A
  5
14AD
331
C5E
  5
150F
331
171D
  5
1720
331
1539
  5
153F
331
153D
  5
1544
331
1868
  5
18A2
331
1880
  5
18B4
331
690
  5
69F
331
651
  5
65D
331
694
  5
6A3
331
7D0
  5
7E1
331
655
  5
662
331
809
  5
9DE
331
659
  5
66C
331
698
  5
6A7
331
7D4
  5
7E5
331
7D8
  5
7F6
331
69C
  5
6B0
331
741
  5
7AF
331
7DC
  5
7FA
331
9C4
  5
C60
331
745
  5
7B3
331
1841
  5
184A
331
1721
  5
1724
331
1845
  5
1853
331
1725
  5
1728
331
1541
  5
1547
331
1545
  5
1550
331
661
  5
670
331
7E0
  5
7FE
331
6A4
  5
6B5
331
665
  5
674
331
669
  5
679
331
7E4
  5
802
331
7A9
  5
7BA
331
66D
  5
67C
331
7AD
  5
7BE
331
921
  5
A5B
331
172B
  5
172E
331
172F
  5
1732
331
1733
  5
1736
331
154F
  5
1578
331
150E
  5
1517
331
1737
  5
173A
331
1516
  5
151F
331
1849
  5
1857
331
1851
  5
185A
331
671
  5
680
331
1855
  5
185E
331
6AA
  5
6C1
331
675
  5
684
331
7B1
  5
7C2
331
7B5
  5
7C6
331
679
  5
688
331
6AE
  5
6C3
331
999
  5
BC5
331
7B9
  5
7CA
331
67D
  5
68C
331
7BD
  5
7CE
331
6B6
  5
6C7
331
7F6
  5
807
331
173B
  5
173E
331
173F
  5
1830
331
CF3
  5
C54
331
151E
  5
1537
331
1522
  5
153B
331
C57
  5
D5C
331
1859
  5
1862
331
185D
  5
1869
331
681
  5
690
331
1865
  5
189F
331
7C1
  5
7D2
331
685
  5
694
331
689
  5
698
331
7C5
  5
7D6
331
7C9
  5
7DA
331
64E
  5
65A
331
68D
  5
69C
331
9A9
  5
C5E
331
7CD
  5
7DE
331
802
  5
9A4
331
B09
  5
D0E
331
1832
  5
183D
331
1577
  5
157F
331
C5B
  5
14AE
331
157B
  5
1648
331
183E
  5
1847
331
171A
  5
171D
331
C5F
  5
1510
331
171E
  5
1721
331
153A
  5
1541
331
153E
  5
1545
331
1869
  5
18A4
331
18EC
  5
C5C
331
691
  5
6A0
331
652
  5
65F
331
695
  5
6A4
331
7D1
  5
7E2
331
656
  5
663
331
7D5
  5
7E6
331
65A
  5
66D
331
699
  5
6A8
331
7D9
  5
7F7
331
69D
  5
6B2
331
742
  5
7B0
331
7DD
  5
7FB
331
746
  5
7B4
331
1842
  5
184B
331
1722
  5
1725
331
1846
  5
1854
331
1542
  5
1549
331
1726
  5
1729
331
1546
  5
1551
331
18A1
  5
18EC
331
662
  5
671
331
7E1
  5
7FF
331
666
  5
675
331
7E5
  5
803
331
7AA
  5
7BB
331
66E
  5
67D
331
7AE
  5
7BF
331
A5A
  5
CF4
331
BC5
  5
D10
331
922
  5
B06
331
1728
  5
172B
331
172C
  5
172F
331
1730
  5
1733
331
1734
  5
1737
331
1550
  5
1579
331
150F
  5
1518
331
1513
  5
151D
331
1517
  5
1520
331
184A
  5
1858
331
1852
  5
185B
331
672
  5
681
331
1856
  5
185F
331
676
  5
685
331
7B2
  5
7C3
331
67A
  5
689
331
7B6
  5
7C7
331
99A
  5
C57
331
7BA
  5
7CB
331
67E
  5
68D
331
99E
  5
C59
331
7BE
  5
7CF
331
6B7
  5
6C8
331
7F7
  5
808
331
B06
  5
D09
331
1738
  5
173B
331
173C
  5
173F
331
1740
  5
1831
331
CF4
  5
C56
331
151F
  5
1538
331
C54
  5
D59
331
185A
  5
1863
331
185E
  5
186A
331
18BD
  5
1834
331
1862
  5
1880
331
682
  5
691
331
1866
  5
18A0
331
7C2
  5
7D3
331
686
  5
695
331
7C6
  5
7D7
331
68A
  5
699
331
7CA
  5
7DB
331
64F
  5
65B
331
68E
  5
69D
331
9AA
  5
C5F
331
7CE
  5
7DF
331
803
  5
9A7
331
1833
  5
1842
331
1533
  5
153C
331
C58
  5
14AB
331
1578
  5
1644
331
183B
  5
1845
331
1537
  5
153D
331
157C
  5
1718
331
183F
  5
1848
331
171B
  5
171E
331
C5C
  5
150D
331
C60
  5
1513
331
171F
  5
1722
331
153B
  5
1542
331
153F
  5
1546
331
186A
  5
18A6
331
18ED
  5
B08
331
692
  5
6A1
331
653
  5
660
331
657
  5
664
331
696
  5
6A5
331
7D2
  5
7E3
331
7D6
  5
7F4
331
69A
  5
6A9
331
7DA
  5
7F8
331
743
  5
7B1
331
65F
  5
66E
331
7DE
  5
7FC
331
747
  5
7B5
  0
DIMASSOC
  5
7E8
102
{ACAD_REACTORS
330
7E7
102
}
330
7E7
100
AcDbDimAssoc
330
7E6
 90
        1
 70
     0
 71
     0
  1
AcDbOsnapPointRef
 72
     1
331
7BD
 73
     2
 91
        0
 40
1.0
 10
370.0438479874067
 20
27.37779691437561
 30
0.0
 75
     0
  0
DIMASSOC
  5
9C3
102
{ACAD_REACTORS
330
9B8
102
}
330
9B8
100
AcDbDimAssoc
330
9AA
 90
        3
 70
     0
 71
     0
  1
AcDbOsnapPointRef
 72
     1
331
99B
 73
     2
 91
        0
 40
1.0
 10
190.4041179361015
 20
84.36666505936011
 30
0.0
 75
     0
  1
AcDbOsnapPointRef
 72
    13
331
99B
 73
     2
 91
        0
 40
0.0
 10
250.4041179361016
 20
84.36666505936011
 30
0.0
 75
     0
  0
DIMASSOC
  5
9DD
102
{ACAD_REACTORS
330
9D2
102
}
330
9D2
100
AcDbDimAssoc
330
9C4
 90
        2
 70
     0
 71
     0
  1
AcDbOsnapPointRef
 72
    13
331
999
 73
     2
 91
        0
 40
0.0
 10
190.4041179361015
 20
48.36666505936012
 30
0.0
 75
     0
  0
DIMASSOC
  5
9F7
102
{ACAD_REACTORS
330
9EC
102
}
330
9EC
100
AcDbDimAssoc
330
9DE
 90
        3
 70
     0
 71
     0
  1
AcDbOsnapPointRef
 72
     6
331
9A9
 73
     2
 91
        0
 40
-0.0142857142857143
 10
241.4041179361015
 20
48.36666505936012
 30
0.0
332
999
 74
     2
 92
        0
 75
     0
  1
AcDbOsnapPointRef
 72
    13
331
99A
 73
     2
 91
        0
 40
0.0
 10
250.4041179361016
 20
48.36666505936012
 30
0.0
 75
     0
  0
DIMASSOC
  5
A11
102
{ACAD_REACTORS
330
A06
102
}
330
A06
100
AcDbDimAssoc
330
9F8
 90
        1
 70
     0
 71
     0
  1
AcDbOsnapPointRef
 72
     1
331
99B
 73
     2
 91
        0
 40
1.0
 10
190.4041179361015
 20
84.36666505936011
 30
0.0
 75
     0
  0
DIMASSOC
  5
A74
102
{ACAD_REACTORS
330
A69
102
}
330
A69
100
AcDbDimAssoc
330
A5B
 90
        1
 70
     0
 71
     0
  1
AcDbOsnapPointRef
 72
    13
331
A5A
 73
     2
 91
        0
 40
0.0
 10
250.4041179361016
 20
84.36666505936011
 30
0.0
 75
     0
  0
DIMASSOC
  5
B8C
102
{ACAD_REACTORS
330
B81
102
}
330
B81
100
AcDbDimAssoc
330
B73
 90
        1
 70
     0
 71
     0
  1
AcDbOsnapPointRef
 72
    13
331
A5A
 73
     2
 91
        0
 40
0.0
 10
250.4041179361016
 20
84.36666505936011
 30
0.0
 75
     0
  0
DIMASSOC
  5
BDE
102
{ACAD_REACTORS
330
BD3
102
}
330
BD3
100
AcDbDimAssoc
330
BC5
 90
        1
 70
     0
 71
     0
  1
AcDbOsnapPointRef
 72
     1
331
99B
 73
     2
 91
        0
 40
1.0
 10
190.4041179361015
 20
84.36666505936011
 30
0.0
 75
     0
  0
ACDBDETAILVIEWSTYLE
  5
1AC
102
{ACAD_XDICTIONARY
360
195D
102
}
102
{ACAD_REACTORS
330
1AB
102
}
330
1AB
100
AcDbModelDocViewStyle
 70
     0
  3
Imperial24
290
     0
100
AcDbDetailViewStyle
 70
     0
 71
     0
 90
        3
 71
     1
340
11
 62
   256
 40
0.24
340
0
 62
   256
 40
0.24
300

 40
0.36
280
     3
 71
     2
340
16
 90
       25
 62
   256
 71
     3
340
11
 62
   256
 40
0.24
 90
        1
 40
0.75
 90
        1
300
%<\AcVar ViewType \f "%tc1">% %<\AcVar ViewDetailId>%\PSCALE %<\AcVar ViewScale \f "%sn">%
 71
     4
340
16
 90
       25
 62
   256
340
16
 90
       25
 62
   256
280
     0
  0
LAYOUT
  5
59
102
{ACAD_REACTORS
330
1A
102
}
330
1A
100
AcDbPlotSettings
  1

  2
None
  4

  6

 40
0.0
 41
0.0
 42
0.0
 43
0.0
 44
0.0
 45
0.0
 46
0.0
 47
0.0
 48
0.0
 49
0.0
140
0.0
141
0.0
142
1.0
143
1.0
 70
   688
 72
     0
 73
     0
 74
     5
  7

 75
    16
147
1.0
 76
     0
 77
     2
 78
   300
148
0.0
149
0.0
100
AcDbLayout
  1
Layout1
 70
     1
 71
     1
 10
0.0
 20
0.0
 11
12.0
 21
9.0
 12
0.0
 22
0.0
 32
0.0
 14
0.0
 24
0.0
 34
0.0
 15
0.0
 25
0.0
 35
0.0
146
0.0
 13
0.0
 23
0.0
 33
0.0
 16
1.0
 26
0.0
 36
0.0
 17
0.0
 27
1.0
 37
0.0
 76
     0
330
58
  0
LAYOUT
  5
5E
102
{ACAD_REACTORS
330
1A
102
}
330
1A
100
AcDbPlotSettings
  1

  2
None
  4

  6

 40
0.0
 41
0.0
 42
0.0
 43
0.0
 44
0.0
 45
0.0
 46
0.0
 47
0.0
 48
0.0
 49
0.0
140
0.0
141
0.0
142
1.0
143
1.0
 70
   688
 72
     0
 73
     0
 74
     5
  7

 75
    16
147
1.0
 76
     0
 77
     2
 78
   300
148
0.0
149
0.0
100
AcDbLayout
  1
Layout2
 70
     1
 71
     2
 10
0.0
 20
0.0
 11
12.0
 21
9.0
 12
0.0
 22
0.0
 32
0.0
 14
0.0
 24
0.0
 34
0.0
 15
0.0
 25
0.0
 35
0.0
146
0.0
 13
0.0
 23
0.0
 33
0.0
 16
1.0
 26
0.0
 36
0.0
 17
0.0
 27
1.0
 37
0.0
 76
     0
330
5D
  0
LAYOUT
  5
22
102
{ACAD_XDICTIONARY
360
194
102
}
102
{ACAD_REACTORS
330
1A
102
}
330
1A
100
AcDbPlotSettings
  1

  2
none_device
  4
ANSI_A_(8.50_x_11.00_Inches)
  6

 40
6.349999904632568
 41
19.04999923706055
 42
6.350006103515625
 43
19.04998779296875
 44
215.8999938964844
 45
279.3999938964844
 46
0.0
 47
0.0
 48
0.0
 49
0.0
140
0.0
141
0.0
142
1.0
143
2.584895464708373
 70
 11952
 72
     0
 73
     1
 74
     0
  7

 75
     0
147
0.3868628397755418
 76
     0
 77
     2
 78
   300
148
0.0
149
0.0
100
AcDbLayout
  1
Model
 70
     1
 71
     0
 10
0.0
 20
0.0
 11
12.0
 21
9.0
 12
0.0
 22
0.0
 32
0.0
 14
0.0
 24
0.0
 34
0.0
 15
0.0
 25
0.0
 35
0.0
146
0.0
 13
0.0
 23
0.0
 33
0.0
 16
1.0
 26
0.0
 36
0.0
 17
0.0
 27
1.0
 37
0.0
 76
     0
330
1F
331
94
  0
MATERIAL
  5
97
102
{ACAD_XDICTIONARY
360
188
102
}
102
{ACAD_REACTORS
330
72
102
}
330
72
100
AcDbMaterial
  1
ByBlock
 94
       63
  0
MATERIAL
  5
96
102
{ACAD_XDICTIONARY
360
186
102
}
102
{ACAD_REACTORS
330
72
102
}
330
72
100
AcDbMaterial
  1
ByLayer
 94
       63
  0
MATERIAL
  5
98
102
{ACAD_XDICTIONARY
360
110
102
}
102
{ACAD_REACTORS
330
72
102
}
330
72
100
AcDbMaterial
  1
Global
 43
0.0208000000566244
 43
0.0
 43
0.0
 43
0.0
 43
0.0
 43
0.0208000000566244
 43
0.0
 43
0.0
 43
0.0
 43
0.0
 43
1.0
 43
0.0
 43
0.0
 43
0.0
 43
0.0
 43
1.0
 49
0.0208000000566244
 49
0.0
 49
0.0
 49
0.0
 49
0.0
 49
0.0208000000566244
 49
0.0
 49
0.0
 49
0.0
 49
0.0
 49
1.0
 49
0.0
 49
0.0
 49
0.0
 49
0.0
 49
1.0
142
0.0208000000566244
142
0.0
142
0.0
142
0.0
142
0.0
142
0.0208000000566244
142
0.0
142
0.0
142
0.0
142
0.0
142
1.0
142
0.0
142
0.0
142
0.0
142
0.0
142
1.0
144
0.0208000000566244
144
0.0
144
0.0
144
0.0
144
0.0
144
0.0208000000566244
144
0.0
144
0.0
144
0.0
144
0.0
144
1.0
144
0.0
144
0.0
144
0.0
144
0.0
144
1.0
 94
       63
1001
ACAD
1070
    -1
1070
     3
1070
     0
1000

1071
        0
1070
     0
  0
MLEADERSTYLE
  5
E5
102
{ACAD_REACTORS
330
D7
102
}
330
D7
100
AcDbMLeaderStyle
179
     2
170
     2
171
     1
172
     0
 90
        2
 40
0.0
 41
0.0
173
     1
 91
-1056964608
340
14
 92
       -2
290
     1
 42
0.09
291
     1
 43
0.36
  3
Standard
 44
0.18
300

342
11
174
     1
178
     1
175
     1
176
     0
 93
-1056964608
 45
0.18
292
     0
297
     0
 46
0.18
 94
-1056964608
 47
1.0
 49
1.0
140
1.0
293
     1
141
0.0
294
     1
177
     0
142
1.0
295
     0
296
     1
143
0.125
271
     0
272
     9
273
     9
298
     0
  0
MLEADERSTYLE
  5
D8
102
{ACAD_REACTORS
330
D7
102
}
330
D7
100
AcDbMLeaderStyle
179
     2
170
     2
171
     1
172
     0
 90
        2
 40
0.0
 41
0.0
173
     1
 91
-1056964608
340
14
 92
       -2
290
     1
 42
0.09
291
     1
 43
0.36
  3
Standard
 44
0.18
300

342
11
174
     1
178
     1
175
     1
176
     0
 93
-1056964608
 45
0.18
292
     0
297
     0
 46
0.18
 94
-1056964608
 47
1.0
 49
1.0
140
1.0
293
     1
141
0.0
294
     1
177
     0
142
1.0
295
     0
296
     0
143
0.125
271
     0
272
     9
273
     9
298
     0
  0
MLINESTYLE
  5
18
102
{ACAD_REACTORS
330
17
102
}
330
17
100
AcDbMlineStyle
  2
STANDARD
 70
     0
  3

 62
   256
 51
90.0
 52
90.0
 71
     2
 49
0.5
 62
   256
  6
BYLAYER
 49
-0.5
 62
   256
  6
BYLAYER
  0
ACDBPLACEHOLDER
  5
F
102
{ACAD_REACTORS
330
E
102
}
330
E
  0
SCALE
  5
B7
102
{ACAD_REACTORS
330
B6
102
}
330
B6
100
AcDbScale
 70
     0
300
1:1
140
1.0
141
1.0
290
     1
  0
SCALE
  5
124
102
{ACAD_REACTORS
330
B6
102
}
330
B6
100
AcDbScale
 70
     0
300
1:2
140
1.0
141
2.0
290
     0
  0
SCALE
  5
125
102
{ACAD_REACTORS
330
B6
102
}
330
B6
100
AcDbScale
 70
     0
300
1:4
140
1.0
141
4.0
290
     0
  0
SCALE
  5
126
102
{ACAD_REACTORS
330
B6
102
}
330
B6
100
AcDbScale
 70
     0
300
1:5
140
1.0
141
5.0
290
     0
  0
SCALE
  5
127
102
{ACAD_REACTORS
330
B6
102
}
330
B6
100
AcDbScale
 70
     0
300
1:8
140
1.0
141
8.0
290
     0
  0
SCALE
  5
128
102
{ACAD_REACTORS
330
B6
102
}
330
B6
100
AcDbScale
 70
     0
300
1:10
140
1.0
141
10.0
290
     0
  0
SCALE
  5
129
102
{ACAD_REACTORS
330
B6
102
}
330
B6
100
AcDbScale
 70
     0
300
1:16
140
1.0
141
16.0
290
     0
  0
SCALE
  5
12A
102
{ACAD_REACTORS
330
B6
102
}
330
B6
100
AcDbScale
 70
     0
300
1:20
140
1.0
141
20.0
290
     0
  0
SCALE
  5
12B
102
{ACAD_REACTORS
330
B6
102
}
330
B6
100
AcDbScale
 70
     0
300
1:30
140
1.0
141
30.0
290
     0
  0
SCALE
  5
12C
102
{ACAD_REACTORS
330
B6
102
}
330
B6
100
AcDbScale
 70
     0
300
1:40
140
1.0
141
40.0
290
     0
  0
SCALE
  5
12D
102
{ACAD_REACTORS
330
B6
102
}
330
B6
100
AcDbScale
 70
     0
300
1:50
140
1.0
141
50.0
290
     0
  0
SCALE
  5
12E
102
{ACAD_REACTORS
330
B6
102
}
330
B6
100
AcDbScale
 70
     0
300
1:100
140
1.0
141
100.0
290
     0
  0
SCALE
  5
12F
102
{ACAD_REACTORS
330
B6
102
}
330
B6
100
AcDbScale
 70
     0
300
2:1
140
2.0
141
1.0
290
     0
  0
SCALE
  5
130
102
{ACAD_REACTORS
330
B6
102
}
330
B6
100
AcDbScale
 70
     0
300
4:1
140
4.0
141
1.0
290
     0
  0
SCALE
  5
131
102
{ACAD_REACTORS
330
B6
102
}
330
B6
100
AcDbScale
 70
     0
300
8:1
140
8.0
141
1.0
290
     0
  0
SCALE
  5
132
102
{ACAD_REACTORS
330
B6
102
}
330
B6
100
AcDbScale
 70
     0
300
10:1
140
10.0
141
1.0
290
     0
  0
SCALE
  5
133
102
{ACAD_REACTORS
330
B6
102
}
330
B6
100
AcDbScale
 70
     0
300
100:1
140
100.0
141
1.0
290
     0
  0
SCALE
  5
134
102
{ACAD_REACTORS
330
B6
102
}
330
B6
100
AcDbScale
 70
     0
300
1/128" = 1'-0"
140
0.0078125
141
12.0
290
     0
  0
SCALE
  5
135
102
{ACAD_REACTORS
330
B6
102
}
330
B6
100
AcDbScale
 70
     0
300
1/64" = 1'-0"
140
0.015625
141
12.0
290
     0
  0
SCALE
  5
136
102
{ACAD_REACTORS
330
B6
102
}
330
B6
100
AcDbScale
 70
     0
300
1/32" = 1'-0"
140
0.03125
141
12.0
290
     0
  0
SCALE
  5
137
102
{ACAD_REACTORS
330
B6
102
}
330
B6
100
AcDbScale
 70
     0
300
1/16" = 1'-0"
140
0.0625
141
12.0
290
     0
  0
SCALE
  5
138
102
{ACAD_REACTORS
330
B6
102
}
330
B6
100
AcDbScale
 70
     0
300
3/32" = 1'-0"
140
0.09375
141
12.0
290
     0
  0
SCALE
  5
139
102
{ACAD_REACTORS
330
B6
102
}
330
B6
100
AcDbScale
 70
     0
300
1/8" = 1'-0"
140
0.125
141
12.0
290
     0
  0
SCALE
  5
13A
102
{ACAD_REACTORS
330
B6
102
}
330
B6
100
AcDbScale
 70
     0
300
3/16" = 1'-0"
140
0.1875
141
12.0
290
     0
  0
SCALE
  5
13B
102
{ACAD_REACTORS
330
B6
102
}
330
B6
100
AcDbScale
 70
     0
300
1/4" = 1'-0"
140
0.25
141
12.0
290
     0
  0
SCALE
  5
13C
102
{ACAD_REACTORS
330
B6
102
}
330
B6
100
AcDbScale
 70
     0
300
3/8" = 1'-0"
140
0.375
141
12.0
290
     0
  0
SCALE
  5
13D
102
{ACAD_REACTORS
330
B6
102
}
330
B6
100
AcDbScale
 70
     0
300
1/2" = 1'-0"
140
0.5
141
12.0
290
     0
  0
SCALE
  5
13E
102
{ACAD_REACTORS
330
B6
102
}
330
B6
100
AcDbScale
 70
     0
300
3/4" = 1'-0"
140
0.75
141
12.0
290
     0
  0
SCALE
  5
13F
102
{ACAD_REACTORS
330
B6
102
}
330
B6
100
AcDbScale
 70
     0
300
1" = 1'-0"
140
1.0
141
12.0
290
     0
  0
SCALE
  5
140
102
{ACAD_REACTORS
330
B6
102
}
330
B6
100
AcDbScale
 70
     0
300
1-1/2" = 1'-0"
140
1.5
141
12.0
290
     0
  0
SCALE
  5
141
102
{ACAD_REACTORS
330
B6
102
}
330
B6
100
AcDbScale
 70
     0
300
3" = 1'-0"
140
3.0
141
12.0
290
     0
  0
SCALE
  5
142
102
{ACAD_REACTORS
330
B6
102
}
330
B6
100
AcDbScale
 70
     0
300
6" = 1'-0"
140
6.0
141
12.0
290
     0
  0
SCALE
  5
143
102
{ACAD_REACTORS
330
B6
102
}
330
B6
100
AcDbScale
 70
     0
300
1'-0" = 1'-0"
140
12.0
141
12.0
290
     0
  0
ACDBSECTIONVIEWSTYLE
  5
1AA
102
{ACAD_XDICTIONARY
360
195B
102
}
102
{ACAD_REACTORS
330
1A8
102
}
330
1A8
100
AcDbModelDocViewStyle
 70
     0
  3
Imperial24
290
     0
100
AcDbSectionViewStyle
 70
     0
 71
     0
 90
       78
 71
     1
340
11
 62
   256
 40
0.24
340
0
340
0
 62
   256
 40
0.24
300
I, O, Q, S, X, Z
 40
0.48
 90
        3
 40
0.18
 90
        1
 71
     2
340
16
 90
       25
 62
   256
340
16
 90
       50
 62
   256
 40
0.24
 40
0.0
 40
0.24
 71
     3
340
11
 62
   256
 40
0.24
 90
        1
 40
0.75
 90
        1
300
%<\AcVar ViewType \f "%tc1">% %<\AcVar ViewSectionStartId>%-%<\AcVar ViewSectionEndId>%\PSCALE %<\AcVar ViewScale \f "%sn">%
 71
     4
 62
   256
 62
   257
300
ANSI31
 40
1.0
 90
        0
290
     0
290
     0
 90
        6
 40
0.0
 40
1.570796326794896
 40
0.2617993877991494
 40
1.308996938995747
 40
-0.2617993877991494
 40
1.832595714594046
  0
TABLESTYLE
  5
87
102
{ACAD_XDICTIONARY
360
104
102
}
102
{ACAD_REACTORS
330
86
102
}
330
86
100
AcDbTableStyle
280
     0
  3
Standard
 70
     0
 71
     0
 40
0.06
 41
0.06
280
     0
281
     0
  7
Standard
140
0.18
170
     2
 62
     0
 63
     7
283
     0
 90
      512
 91
        0
  1

274
    -2
284
     1
 64
     0
275
    -2
285
     1
 65
     0
276
    -2
286
     1
 66
     0
277
    -2
287
     1
 67
     0
278
    -2
288
     1
 68
     0
279
    -2
289
     1
 69
     0
  7
Standard
140
0.25
170
     5
 62
     0
 63
     7
283
     0
 90
      512
 91
        0
  1

274
    -2
284
     1
 64
     0
275
    -2
285
     1
 65
     0
276
    -2
286
     1
 66
     0
277
    -2
287
     1
 67
     0
278
    -2
288
     1
 68
     0
279
    -2
289
     1
 69
     0
  7
Standard
140
0.18
170
     5
 62
     0
 63
     7
283
     0
 90
      512
 91
        0
  1

274
    -2
284
     1
 64
     0
275
    -2
285
     1
 65
     0
276
    -2
286
     1
 66
     0
277
    -2
287
     1
 67
     0
278
    -2
288
     1
 68
     0
279
    -2
289
     1
 69
     0
  0
VISUALSTYLE
  5
9F
102
{ACAD_REACTORS
330
99
102
}
330
99
100
AcDbVisualStyle
  2
2dWireframe
 70
     4
177
     3
291
     0
 70
    58
 90
        0
176
     1
 90
        2
176
     1
 90
        1
176
     1
 90
        0
176
     1
 40
0.6
176
     1
 40
30.0
176
     1
 62
     7
420
 16777215
176
     1
 90
        1
176
     1
 90
        4
176
     1
 62
     7
176
     1
 62
   257
176
     1
 90
        1
176
     1
 90
        1
176
     1
 40
1.0
176
     1
 90
        0
176
     1
 62
   257
176
     1
 40
1.0
176
     1
 90
        1
176
     1
 90
        6
176
     1
 90
        2
176
     1
 62
     7
176
     1
 90
        5
176
     1
 90
        0
176
     1
 90
        0
176
     1
290
     0
176
     1
 90
        1
176
     1
 40
0.0
176
     1
 90
        0
176
     1
290
     1
176
     1
290
     1
176
     1
290
     0
176
     1
290
     0
176
     1
290
     0
176
     1
290
     0
176
     1
290
     0
176
     1
290
     0
176
     1
290
     0
176
     1
 90
       50
176
     1
 40
0.0
176
     1
 40
1.0
176
     1
 90
        0
176
     1
 62
    18
420
        0
176
     1
 90
       50
176
     1
 90
        3
176
     1
 62
     5
420
      255
176
     1
290
     0
176
     1
 90
       50
176
     1
 90
       50
176
     1
 90
       50
176
     1
290
     0
176
     1
 90
       50
176
     1
 62
   256
176
     0
 40
1.0
176
     0
 90
        2
176
     1
  1
strokes_ogs.tif
176
     1
290
     0
176
     1
 40
1.0
176
     1
 40
1.0
176
     1
1001
ACAD
1000
AcDbSavedByObjectVersion
1070
     0
  0
VISUALSTYLE
  5
9E
102
{ACAD_REACTORS
330
99
102
}
330
99
100
AcDbVisualStyle
  2
Basic
 70
     7
177
     3
291
     1
 70
    58
 90
        1
176
     1
 90
        0
176
     1
 90
        1
176
     1
 90
        0
176
     1
 40
0.6
176
     1
 40
30.0
176
     1
 62
     7
420
 16777215
176
     1
 90
        0
176
     1
 90
        4
176
     1
 62
     7
176
     1
 62
   257
176
     1
 90
        1
176
     1
 90
        1
176
     1
 40
1.0
176
     1
 90
        8
176
     1
 62
     7
176
     1
 40
1.0
176
     1
 90
        1
176
     1
 90
        6
176
     1
 90
        2
176
     1
 62
     7
176
     1
 90
        5
176
     1
 90
        0
176
     1
 90
        0
176
     1
290
     0
176
     1
 90
        1
176
     1
 40
0.0
176
     1
 90
        0
176
     1
290
     0
176
     1
290
     1
176
     1
290
     1
176
     1
290
     0
176
     1
290
     0
176
     1
290
     0
176
     1
290
     0
176
     1
290
     0
176
     1
290
     0
176
     1
 90
       50
176
     1
 40
0.0
176
     1
 40
1.0
176
     1
 90
        0
176
     1
 62
    18
420
        0
176
     1
 90
       50
176
     1
 90
        3
176
     1
 62
     5
420
      255
176
     1
290
     0
176
     1
 90
       50
176
     1
 90
       50
176
     1
 90
       50
176
     1
290
     0
176
     1
 90
       50
176
     1
 62
   256
176
     0
 40
1.0
176
     0
 90
        2
176
     1
  1
strokes_ogs.tif
176
     1
290
     0
176
     1
 40
1.0
176
     1
 40
1.0
176
     1
1001
ACAD
1000
AcDbSavedByObjectVersion
1070
     0
  0
VISUALSTYLE
  5
A5
102
{ACAD_REACTORS
330
99
102
}
330
99
100
AcDbVisualStyle
  2
Brighten
 70
    12
177
     3
291
     1
 70
    58
 90
        2
176
     1
 90
        2
176
     1
 90
        1
176
     1
 90
        0
176
     1
 40
0.6
176
     1
 40
30.0
176
     1
 62
     7
420
 16777215
176
     1
 90
        1
176
     1
 90
        4
176
     1
 62
     7
176
     1
 62
   257
176
     1
 90
        1
176
     1
 90
        1
176
     1
 40
1.0
176
     1
 90
        8
176
     1
 62
     7
176
     1
 40
1.0
176
     1
 90
        1
176
     1
 90
        6
176
     1
 90
        2
176
     1
 62
     7
176
     1
 90
        5
176
     1
 90
        0
176
     1
 90
        0
176
     1
290
     0
176
     1
 90
        1
176
     1
 40
50.0
176
     1
 90
        0
176
     1
290
     0
176
     1
290
     1
176
     1
290
     1
176
     1
290
     0
176
     1
290
     0
176
     1
290
     0
176
     1
290
     0
176
     1
290
     0
176
     1
290
     0
176
     1
 90
       50
176
     1
 40
0.0
176
     1
 40
1.0
176
     1
 90
        0
176
     1
 62
    18
420
        0
176
     1
 90
       50
176
     1
 90
        3
176
     1
 62
     5
420
      255
176
     1
290
     0
176
     1
 90
       50
176
     1
 90
       50
176
     1
 90
       50
176
     1
290
     0
176
     1
 90
       50
176
     1
 62
   256
176
     0
 40
1.0
176
     0
 90
        2
176
     1
  1
strokes_ogs.tif
176
     1
290
     0
176
     1
 40
1.0
176
     1
 40
1.0
176
     1
1001
ACAD
1000
AcDbSavedByObjectVersion
1070
     0
  0
VISUALSTYLE
  5
A9
102
{ACAD_REACTORS
330
99
102
}
330
99
100
AcDbVisualStyle
  2
ColorChange
 70
    16
177
     3
291
     1
 70
    58
 90
        2
176
     1
 90
        2
176
     1
 90
        3
176
     1
 90
        0
176
     1
 40
0.6
176
     1
 40
30.0
176
     1
 62
     8
420
  8421504
176
     1
 90
        1
176
     1
 90
        4
176
     1
 62
     7
176
     1
 62
   257
176
     1
 90
        1
176
     1
 90
        1
176
     1
 40
1.0
176
     1
 90
        8
176
     1
 62
     8
420
  8421504
176
     1
 40
1.0
176
     1
 90
        1
176
     1
 90
        6
176
     1
 90
        2
176
     1
 62
     7
176
     1
 90
        5
176
     1
 90
        0
176
     1
 90
        0
176
     1
290
     0
176
     1
 90
        1
176
     1
 40
0.0
176
     1
 90
        0
176
     1
290
     0
176
     1
290
     1
176
     1
290
     1
176
     1
290
     0
176
     1
290
     0
176
     1
290
     0
176
     1
290
     0
176
     1
290
     0
176
     1
290
     0
176
     1
 90
       50
176
     1
 40
0.0
176
     1
 40
1.0
176
     1
 90
        0
176
     1
 62
    18
420
        0
176
     1
 90
       50
176
     1
 90
        3
176
     1
 62
     5
420
      255
176
     1
290
     0
176
     1
 90
       50
176
     1
 90
       50
176
     1
 90
       50
176
     1
290
     0
176
     1
 90
       50
176
     1
 62
   256
176
     0
 40
1.0
176
     0
 90
        2
176
     1
  1
strokes_ogs.tif
176
     1
290
     0
176
     1
 40
1.0
176
     1
 40
1.0
176
     1
1001
ACAD
1000
AcDbSavedByObjectVersion
1070
     0
  0
VISUALSTYLE
  5
A2
102
{ACAD_REACTORS
330
99
102
}
330
99
100
AcDbVisualStyle
  2
Conceptual
 70
     9
177
     3
291
     0
 70
    58
 90
        3
176
     1
 90
        2
176
     1
 90
        1
176
     1
 90
        0
176
     1
 40
0.6
176
     1
 40
30.0
176
     1
 62
     7
420
 16777215
176
     1
 90
        2
176
     1
 90
        2
176
     1
 62
     7
176
     1
 62
   257
176
     1
 90
        1
176
     1
 90
        1
176
     1
 40
40.0
176
     1
 90
        8
176
     1
 62
     7
176
     1
 40
1.0
176
     1
 90
        1
176
     1
 90
        6
176
     1
 90
        2
176
     1
 62
     7
176
     1
 90
        3
176
     1
 90
        0
176
     1
 90
        0
176
     1
290
     0
176
     1
 90
        1
176
     1
 40
0.0
176
     1
 90
        0
176
     1
290
     0
176
     1
290
     1
176
     1
290
     1
176
     1
290
     0
176
     1
290
     0
176
     1
290
     0
176
     1
290
     0
176
     1
290
     0
176
     1
290
     0
176
     1
 90
       50
176
     1
 40
0.0
176
     1
 40
1.0
176
     1
 90
        0
176
     1
 62
    18
420
        0
176
     1
 90
       50
176
     1
 90
        3
176
     1
 62
     5
420
      255
176
     1
290
     0
176
     1
 90
       50
176
     1
 90
       50
176
     1
 90
       50
176
     1
290
     0
176
     1
 90
       50
176
     1
 62
   256
176
     0
 40
1.0
176
     0
 90
        2
176
     1
  1
strokes_ogs.tif
176
     1
290
     0
176
     1
 40
1.0
176
     1
 40
1.0
176
     1
1001
ACAD
1000
AcDbSavedByObjectVersion
1070
     0
  0
VISUALSTYLE
  5
A4
102
{ACAD_REACTORS
330
99
102
}
330
99
100
AcDbVisualStyle
  2
Dim
 70
    11
177
     3
291
     1
 70
    58
 90
        2
176
     1
 90
        2
176
     1
 90
        1
176
     1
 90
        0
176
     1
 40
0.6
176
     1
 40
30.0
176
     1
 62
     7
420
 16777215
176
     1
 90
        1
176
     1
 90
        4
176
     1
 62
     7
176
     1
 62
   257
176
     1
 90
        1
176
     1
 90
        1
176
     1
 40
1.0
176
     1
 90
        8
176
     1
 62
     7
176
     1
 40
1.0
176
     1
 90
        1
176
     1
 90
        6
176
     1
 90
        2
176
     1
 62
     7
176
     1
 90
        5
176
     1
 90
        0
176
     1
 90
        0
176
     1
290
     0
176
     1
 90
        1
176
     1
 40
-50.0
176
     1
 90
        0
176
     1
290
     0
176
     1
290
     1
176
     1
290
     1
176
     1
290
     0
176
     1
290
     0
176
     1
290
     0
176
     1
290
     0
176
     1
290
     0
176
     1
290
     0
176
     1
 90
       50
176
     1
 40
0.0
176
     1
 40
1.0
176
     1
 90
        0
176
     1
 62
    18
420
        0
176
     1
 90
       50
176
     1
 90
        3
176
     1
 62
     5
420
      255
176
     1
290
     0
176
     1
 90
       50
176
     1
 90
       50
176
     1
 90
       50
176
     1
290
     0
176
     1
 90
       50
176
     1
 62
   256
176
     0
 40
1.0
176
     0
 90
        2
176
     1
  1
strokes_ogs.tif
176
     1
290
     0
176
     1
 40
1.0
176
     1
 40
1.0
176
     1
1001
ACAD
1000
AcDbSavedByObjectVersion
1070
     0
  0
VISUALSTYLE
  5
175
102
{ACAD_REACTORS
330
99
102
}
330
99
100
AcDbVisualStyle
  2
EdgeColorOff
 70
    22
177
     3
291
     1
 70
    58
 90
        2
176
     0
 90
        2
176
     0
 90
        0
176
     0
 90
        0
176
     0
 40
0.6
176
     0
 40
30.0
176
     0
 62
     7
420
 16777215
176
     0
 90
        1
176
     0
 90
        4
176
     0
 62
     7
176
     0
 62
   257
176
     0
 90
        1
176
     0
 90
        1
176
     0
 40
1.0
176
     0
 90
        8
176
     2
 62
     7
176
     0
 40
1.0
176
     0
 90
        1
176
     0
 90
        6
176
     0
 90
        2
176
     0
 62
     7
176
     0
 90
        5
176
     0
 90
        0
176
     0
 90
        0
176
     0
290
     0
176
     0
 90
        1
176
     0
 40
0.0
176
     0
 90
        0
176
     0
290
     0
176
     1
290
     1
176
     1
290
     1
176
     1
290
     0
176
     1
290
     0
176
     1
290
     0
176
     1
290
     0
176
     1
290
     0
176
     1
290
     0
176
     1
 90
       50
176
     1
 40
0.0
176
     1
 40
1.0
176
     1
 90
        0
176
     1
 62
    18
420
        0
176
     1
 90
       50
176
     1
 90
        3
176
     1
 62
     5
420
      255
176
     1
290
     0
176
     1
 90
       50
176
     1
 90
       50
176
     1
 90
       50
176
     1
290
     0
176
     1
 90
       50
176
     1
 62
   256
176
     0
 40
1.0
176
     0
 90
        2
176
     1
  1
strokes_ogs.tif
176
     1
290
     0
176
     1
 40
1.0
176
     1
 40
1.0
176
     1
1001
ACAD
1000
AcDbSavedByObjectVersion
1070
     0
  0
VISUALSTYLE
  5
A8
102
{ACAD_REACTORS
330
99
102
}
330
99
100
AcDbVisualStyle
  2
Facepattern
 70
    15
177
     3
291
     1
 70
    58
 90
        2
176
     1
 90
        2
176
     1
 90
        1
176
     1
 90
        0
176
     1
 40
0.6
176
     1
 40
30.0
176
     1
 62
     7
420
 16777215
176
     1
 90
        1
176
     1
 90
        4
176
     1
 62
     7
176
     1
 62
   257
176
     1
 90
        1
176
     1
 90
        1
176
     1
 40
1.0
176
     1
 90
        8
176
     1
 62
     7
176
     1
 40
1.0
176
     1
 90
        1
176
     1
 90
        6
176
     1
 90
        2
176
     1
 62
     7
176
     1
 90
        5
176
     1
 90
        0
176
     1
 90
        0
176
     1
290
     0
176
     1
 90
        1
176
     1
 40
0.0
176
     1
 90
        0
176
     1
290
     0
176
     1
290
     1
176
     1
290
     1
176
     1
290
     0
176
     1
290
     0
176
     1
290
     0
176
     1
290
     0
176
     1
290
     0
176
     1
290
     0
176
     1
 90
       50
176
     1
 40
0.0
176
     1
 40
1.0
176
     1
 90
        0
176
     1
 62
    18
420
        0
176
     1
 90
       50
176
     1
 90
        3
176
     1
 62
     5
420
      255
176
     1
290
     0
176
     1
 90
       50
176
     1
 90
       50
176
     1
 90
       50
176
     1
290
     0
176
     1
 90
       50
176
     1
 62
   256
176
     0
 40
1.0
176
     0
 90
        2
176
     1
  1
strokes_ogs.tif
176
     1
290
     0
176
     1
 40
1.0
176
     1
 40
1.0
176
     1
1001
ACAD
1000
AcDbSavedByObjectVersion
1070
     0
  0
VISUALSTYLE
  5
9A
102
{ACAD_REACTORS
330
99
102
}
330
99
100
AcDbVisualStyle
  2
Flat
 70
     0
177
     3
291
     1
 70
    58
 90
        2
176
     1
 90
        1
176
     1
 90
        1
176
     1
 90
        2
176
     1
 40
0.6
176
     1
 40
30.0
176
     1
 62
     7
420
 16777215
176
     1
 90
        0
176
     1
 90
        0
176
     1
 62
     7
176
     1
 62
   257
176
     1
 90
        1
176
     1
 90
        1
176
     1
 40
1.0
176
     1
 90
        8
176
     1
 62
     7
176
     1
 40
1.0
176
     1
 90
        1
176
     1
 90
        6
176
     1
 90
        2
176
     1
 62
     7
176
     1
 90
        5
176
     1
 90
        0
176
     1
 90
        0
176
     1
290
     0
176
     1
 90
       13
176
     1
 40
0.0
176
     1
 90
        0
176
     1
290
     0
176
     1
290
     1
176
     1
290
     1
176
     1
290
     0
176
     1
290
     0
176
     1
290
     0
176
     1
290
     0
176
     1
290
     0
176
     1
290
     0
176
     1
 90
       50
176
     1
 40
0.0
176
     1
 40
1.0
176
     1
 90
        0
176
     1
 62
    18
420
        0
176
     1
 90
       50
176
     1
 90
        3
176
     1
 62
     5
420
      255
176
     1
290
     0
176
     1
 90
       50
176
     1
 90
       50
176
     1
 90
       50
176
     1
290
     0
176
     1
 90
       50
176
     1
 62
   256
176
     0
 40
1.0
176
     0
 90
        2
176
     1
  1
strokes_ogs.tif
176
     1
290
     0
176
     1
 40
1.0
176
     1
 40
1.0
176
     1
1001
ACAD
1000
AcDbSavedByObjectVersion
1070
     0
  0
VISUALSTYLE
  5
9B
102
{ACAD_REACTORS
330
99
102
}
330
99
100
AcDbVisualStyle
  2
FlatWithEdges
 70
     1
177
     3
291
     1
 70
    58
 90
        2
176
     1
 90
        1
176
     1
 90
        1
176
     1
 90
        2
176
     1
 40
0.6
176
     1
 40
30.0
176
     1
 62
     7
420
 16777215
176
     1
 90
        1
176
     1
 90
        0
176
     1
 62
     7
176
     1
 62
   257
176
     1
 90
        1
176
     1
 90
        1
176
     1
 40
1.0
176
     1
 90
        0
176
     1
 62
   257
176
     1
 40
1.0
176
     1
 90
        1
176
     1
 90
        6
176
     1
 90
        2
176
     1
 62
     7
176
     1
 90
        5
176
     1
 90
        0
176
     1
 90
        0
176
     1
290
     0
176
     1
 90
       13
176
     1
 40
0.0
176
     1
 90
        0
176
     1
290
     0
176
     1
290
     1
176
     1
290
     1
176
     1
290
     0
176
     1
290
     0
176
     1
290
     0
176
     1
290
     0
176
     1
290
     0
176
     1
290
     0
176
     1
 90
       50
176
     1
 40
0.0
176
     1
 40
1.0
176
     1
 90
        0
176
     1
 62
    18
420
        0
176
     1
 90
       50
176
     1
 90
        3
176
     1
 62
     5
420
      255
176
     1
290
     0
176
     1
 90
       50
176
     1
 90
       50
176
     1
 90
       50
176
     1
290
     0
176
     1
 90
       50
176
     1
 62
   256
176
     0
 40
1.0
176
     0
 90
        2
176
     1
  1
strokes_ogs.tif
176
     1
290
     0
176
     1
 40
1.0
176
     1
 40
1.0
176
     1
1001
ACAD
1000
AcDbSavedByObjectVersion
1070
     0
  0
VISUALSTYLE
  5
9C
102
{ACAD_REACTORS
330
99
102
}
330
99
100
AcDbVisualStyle
  2
Gouraud
 70
     2
177
     3
291
     1
 70
    58
 90
        2
176
     1
 90
        2
176
     1
 90
        1
176
     1
 90
        2
176
     1
 40
0.6
176
     1
 40
30.0
176
     1
 62
     7
420
 16777215
176
     1
 90
        0
176
     1
 90
        0
176
     1
 62
     7
176
     1
 62
   257
176
     1
 90
        1
176
     1
 90
        1
176
     1
 40
1.0
176
     1
 90
        0
176
     1
 62
     7
176
     1
 40
1.0
176
     1
 90
        1
176
     1
 90
        6
176
     1
 90
        2
176
     1
 62
     7
176
     1
 90
        5
176
     1
 90
        0
176
     1
 90
        0
176
     1
290
     0
176
     1
 90
       13
176
     1
 40
0.0
176
     1
 90
        0
176
     1
290
     0
176
     1
290
     1
176
     1
290
     1
176
     1
290
     0
176
     1
290
     0
176
     1
290
     0
176
     1
290
     0
176
     1
290
     0
176
     1
290
     0
176
     1
 90
       50
176
     1
 40
0.0
176
     1
 40
1.0
176
     1
 90
        0
176
     1
 62
    18
420
        0
176
     1
 90
       50
176
     1
 90
        3
176
     1
 62
     5
420
      255
176
     1
290
     0
176
     1
 90
       50
176
     1
 90
       50
176
     1
 90
       50
176
     1
290
     0
176
     1
 90
       50
176
     1
 62
   256
176
     0
 40
1.0
176
     0
 90
        2
176
     1
  1
strokes_ogs.tif
176
     1
290
     0
176
     1
 40
1.0
176
     1
 40
1.0
176
     1
1001
ACAD
1000
AcDbSavedByObjectVersion
1070
     0
  0
VISUALSTYLE
  5
9D
102
{ACAD_REACTORS
330
99
102
}
330
99
100
AcDbVisualStyle
  2
GouraudWithEdges
 70
     3
177
     3
291
     1
 70
    58
 90
        2
176
     1
 90
        2
176
     1
 90
        1
176
     1
 90
        2
176
     1
 40
0.6
176
     1
 40
30.0
176
     1
 62
     7
420
 16777215
176
     1
 90
        1
176
     1
 90
        0
176
     1
 62
     7
176
     1
 62
   257
176
     1
 90
        1
176
     1
 90
        1
176
     1
 40
1.0
176
     1
 90
        0
176
     1
 62
   257
176
     1
 40
1.0
176
     1
 90
        1
176
     1
 90
        6
176
     1
 90
        2
176
     1
 62
     7
176
     1
 90
        5
176
     1
 90
        0
176
     1
 90
        0
176
     1
290
     0
176
     1
 90
       13
176
     1
 40
0.0
176
     1
 90
        0
176
     1
290
     0
176
     1
290
     1
176
     1
290
     1
176
     1
290
     0
176
     1
290
     0
176
     1
290
     0
176
     1
290
     0
176
     1
290
     0
176
     1
290
     0
176
     1
 90
       50
176
     1
 40
0.0
176
     1
 40
1.0
176
     1
 90
        0
176
     1
 62
    18
420
        0
176
     1
 90
       50
176
     1
 90
        3
176
     1
 62
     5
420
      255
176
     1
290
     0
176
     1
 90
       50
176
     1
 90
       50
176
     1
 90
       50
176
     1
290
     0
176
     1
 90
       50
176
     1
 62
   256
176
     0
 40
1.0
176
     0
 90
        2
176
     1
  1
strokes_ogs.tif
176
     1
290
     0
176
     1
 40
1.0
176
     1
 40
1.0
176
     1
1001
ACAD
1000
AcDbSavedByObjectVersion
1070
     0
  0
VISUALSTYLE
  5
A1
102
{ACAD_REACTORS
330
99
102
}
330
99
100
AcDbVisualStyle
  2
Hidden
 70
     6
177
     3
291
     0
 70
    58
 90
        1
176
     1
 90
        2
176
     1
 90
        2
176
     1
 90
        0
176
     1
 40
0.6
176
     1
 40
30.0
176
     1
 62
     7
420
 16777215
176
     1
 90
        2
176
     1
 90
        2
176
     1
 62
     7
176
     1
 62
   257
176
     1
 90
        2
176
     1
 90
        1
176
     1
 40
40.0
176
     1
 90
        0
176
     1
 62
   257
176
     1
 40
1.0
176
     1
 90
        1
176
     1
 90
        6
176
     1
 90
        2
176
     1
 62
     7
176
     1
 90
        3
176
     1
 90
        0
176
     1
 90
        0
176
     1
290
     0
176
     1
 90
        1
176
     1
 40
0.0
176
     1
 90
        0
176
     1
290
     0
176
     1
290
     1
176
     1
290
     1
176
     1
290
     0
176
     1
290
     0
176
     1
290
     0
176
     1
290
     0
176
     1
290
     0
176
     1
290
     0
176
     1
 90
       50
176
     1
 40
0.0
176
     1
 40
1.0
176
     1
 90
        0
176
     1
 62
    18
420
        0
176
     1
 90
       50
176
     1
 90
        3
176
     1
 62
     5
420
      255
176
     1
290
     0
176
     1
 90
       50
176
     1
 90
       50
176
     1
 90
       50
176
     1
290
     0
176
     1
 90
       50
176
     1
 62
   256
176
     0
 40
1.0
176
     0
 90
        2
176
     1
  1
strokes_ogs.tif
176
     1
290
     0
176
     1
 40
1.0
176
     1
 40
1.0
176
     1
1001
ACAD
1000
AcDbSavedByObjectVersion
1070
     0
  0
VISUALSTYLE
  5
173
102
{ACAD_REACTORS
330
99
102
}
330
99
100
AcDbVisualStyle
  2
JitterOff
 70
    20
177
     3
291
     1
 70
    58
 90
        2
176
     0
 90
        2
176
     0
 90
        0
176
     0
 90
        0
176
     0
 40
0.6
176
     0
 40
30.0
176
     0
 62
     7
420
 16777215
176
     0
 90
        1
176
     0
 90
        4
176
     0
 62
     7
176
     0
 62
   257
176
     0
 90
        1
176
     0
 90
        1
176
     0
 40
1.0
176
     0
 90
       10
176
     2
 62
     7
176
     0
 40
1.0
176
     0
 90
        1
176
     0
 90
        6
176
     0
 90
        2
176
     0
 62
     7
176
     0
 90
        5
176
     0
 90
        0
176
     0
 90
        0
176
     0
290
     0
176
     0
 90
        1
176
     0
 40
0.0
176
     0
 90
        0
176
     0
290
     0
176
     1
290
     1
176
     1
290
     1
176
     1
290
     0
176
     1
290
     0
176
     1
290
     0
176
     1
290
     0
176
     1
290
     0
176
     1
290
     0
176
     1
 90
       50
176
     1
 40
0.0
176
     1
 40
1.0
176
     1
 90
        0
176
     1
 62
    18
420
        0
176
     1
 90
       50
176
     1
 90
        3
176
     1
 62
     5
420
      255
176
     1
290
     0
176
     1
 90
       50
176
     1
 90
       50
176
     1
 90
       50
176
     1
290
     0
176
     1
 90
       50
176
     1
 62
   256
176
     0
 40
1.0
176
     0
 90
        2
176
     1
  1
strokes_ogs.tif
176
     1
290
     0
176
     1
 40
1.0
176
     1
 40
1.0
176
     1
1001
ACAD
1000
AcDbSavedByObjectVersion
1070
     0
  0
VISUALSTYLE
  5
A7
102
{ACAD_REACTORS
330
99
102
}
330
99
100
AcDbVisualStyle
  2
Linepattern
 70
    14
177
     3
291
     1
 70
    58
 90
        2
176
     1
 90
        2
176
     1
 90
        1
176
     1
 90
        0
176
     1
 40
0.6
176
     1
 40
30.0
176
     1
 62
     7
420
 16777215
176
     1
 90
        1
176
     1
 90
        4
176
     1
 62
     7
176
     1
 62
   257
176
     1
 90
        7
176
     1
 90
        7
176
     1
 40
1.0
176
     1
 90
        8
176
     1
 62
     7
176
     1
 40
1.0
176
     1
 90
        1
176
     1
 90
        6
176
     1
 90
        2
176
     1
 62
     7
176
     1
 90
        5
176
     1
 90
        0
176
     1
 90
        0
176
     1
290
     0
176
     1
 90
        1
176
     1
 40
0.0
176
     1
 90
        0
176
     1
290
     0
176
     1
290
     1
176
     1
290
     1
176
     1
290
     0
176
     1
290
     0
176
     1
290
     0
176
     1
290
     0
176
     1
290
     0
176
     1
290
     0
176
     1
 90
       50
176
     1
 40
0.0
176
     1
 40
1.0
176
     1
 90
        0
176
     1
 62
    18
420
        0
176
     1
 90
       50
176
     1
 90
        3
176
     1
 62
     5
420
      255
176
     1
290
     0
176
     1
 90
       50
176
     1
 90
       50
176
     1
 90
       50
176
     1
290
     0
176
     1
 90
       50
176
     1
 62
   256
176
     0
 40
1.0
176
     0
 90
        2
176
     1
  1
strokes_ogs.tif
176
     1
290
     0
176
     1
 40
1.0
176
     1
 40
1.0
176
     1
1001
ACAD
1000
AcDbSavedByObjectVersion
1070
     0
  0
VISUALSTYLE
  5
174
102
{ACAD_REACTORS
330
99
102
}
330
99
100
AcDbVisualStyle
  2
OverhangOff
 70
    21
177
     3
291
     1
 70
    58
 90
        2
176
     0
 90
        2
176
     0
 90
        0
176
     0
 90
        0
176
     0
 40
0.6
176
     0
 40
30.0
176
     0
 62
     7
420
 16777215
176
     0
 90
        1
176
     0
 90
        4
176
     0
 62
     7
176
     0
 62
   257
176
     0
 90
        1
176
     0
 90
        1
176
     0
 40
1.0
176
     0
 90
        9
176
     2
 62
     7
176
     0
 40
1.0
176
     0
 90
        1
176
     0
 90
        6
176
     0
 90
        2
176
     0
 62
     7
176
     0
 90
        5
176
     0
 90
        0
176
     0
 90
        0
176
     0
290
     0
176
     0
 90
        1
176
     0
 40
0.0
176
     0
 90
        0
176
     0
290
     0
176
     1
290
     1
176
     1
290
     1
176
     1
290
     0
176
     1
290
     0
176
     1
290
     0
176
     1
290
     0
176
     1
290
     0
176
     1
290
     0
176
     1
 90
       50
176
     1
 40
0.0
176
     1
 40
1.0
176
     1
 90
        0
176
     1
 62
    18
420
        0
176
     1
 90
       50
176
     1
 90
        3
176
     1
 62
     5
420
      255
176
     1
290
     0
176
     1
 90
       50
176
     1
 90
       50
176
     1
 90
       50
176
     1
290
     0
176
     1
 90
       50
176
     1
 62
   256
176
     0
 40
1.0
176
     0
 90
        2
176
     1
  1
strokes_ogs.tif
176
     1
290
     0
176
     1
 40
1.0
176
     1
 40
1.0
176
     1
1001
ACAD
1000
AcDbSavedByObjectVersion
1070
     0
  0
VISUALSTYLE
  5
A3
102
{ACAD_REACTORS
330
99
102
}
330
99
100
AcDbVisualStyle
  2
Realistic
 70
     8
177
     3
291
     0
 70
    58
 90
        2
176
     1
 90
        3
176
     1
 90
        0
176
     1
 90
        2
176
     1
 40
0.6
176
     1
 40
30.0
176
     1
 62
     7
420
 16777215
176
     1
 90
        0
176
     1
 90
        0
176
     1
 62
     7
176
     1
 62
   257
176
     1
 90
        1
176
     1
 90
        1
176
     1
 40
1.0
176
     1
 90
        8
176
     1
 62
   257
176
     1
 40
1.0
176
     1
 90
        1
176
     1
 90
        6
176
     1
 90
        2
176
     1
 62
     7
176
     1
 90
        3
176
     1
 90
        0
176
     1
 90
        0
176
     1
290
     0
176
     1
 90
       13
176
     1
 40
0.0
176
     1
 90
        0
176
     1
290
     0
176
     1
290
     1
176
     1
290
     1
176
     1
290
     0
176
     1
290
     0
176
     1
290
     0
176
     1
290
     0
176
     1
290
     0
176
     1
290
     0
176
     1
 90
       50
176
     1
 40
0.0
176
     1
 40
1.0
176
     1
 90
        0
176
     1
 62
    18
420
        0
176
     1
 90
       50
176
     1
 90
        3
176
     1
 62
     5
420
      255
176
     1
290
     0
176
     1
 90
       50
176
     1
 90
       50
176
     1
 90
       50
176
     1
290
     0
176
     1
 90
       50
176
     1
 62
   256
176
     0
 40
1.0
176
     0
 90
        2
176
     1
  1
strokes_ogs.tif
176
     1
290
     0
176
     1
 40
1.0
176
     1
 40
1.0
176
     1
1001
ACAD
1000
AcDbSavedByObjectVersion
1070
     0
  0
VISUALSTYLE
  5
182
102
{ACAD_REACTORS
330
99
102
}
330
99
100
AcDbVisualStyle
  2
Shaded
 70
    27
177
     3
291
     0
 70
    58
 90
        2
176
     1
 90
        2
176
     1
 90
        1
176
     1
 90
        2
176
     1
 40
0.6
176
     1
 40
30.0
176
     1
 62
     7
420
 16777215
176
     1
 90
        0
176
     1
 90
        4
176
     1
 62
     7
176
     1
 62
   257
176
     1
 90
        1
176
     1
 90
        1
176
     1
 40
1.0
176
     1
 90
        8
176
     1
 62
   257
176
     1
 40
1.0
176
     1
 90
        1
176
     1
 90
        6
176
     1
 90
        2
176
     1
 62
     8
420
  7895160
176
     1
 90
        3
176
     1
 90
        0
176
     1
 90
        0
176
     1
290
     0
176
     1
 90
        5
176
     1
 40
0.0
176
     1
 90
        0
176
     1
290
     0
176
     1
290
     1
176
     1
290
     1
176
     1
290
     0
176
     1
290
     0
176
     1
290
     0
176
     1
290
     0
176
     1
290
     0
176
     1
290
     0
176
     1
 90
       50
176
     1
 40
0.0
176
     1
 40
1.0
176
     1
 90
        0
176
     1
 62
    18
420
        0
176
     1
 90
       50
176
     1
 90
        3
176
     1
 62
     5
420
      255
176
     1
290
     0
176
     1
 90
       50
176
     1
 90
       50
176
     1
 90
       50
176
     1
290
     0
176
     1
 90
       50
176
     1
 62
   256
176
     0
 40
1.0
176
     0
 90
        2
176
     1
  1
strokes_ogs.tif
176
     1
290
     0
176
     1
 40
1.0
176
     1
 40
1.0
176
     1
1001
ACAD
1000
AcDbSavedByObjectVersion
1070
     0
  0
VISUALSTYLE
  5
181
102
{ACAD_REACTORS
330
99
102
}
330
99
100
AcDbVisualStyle
  2
Shaded with edges
 70
    26
177
     3
291
     0
 70
    58
 90
        2
176
     1
 90
        2
176
     1
 90
        1
176
     1
 90
        2
176
     1
 40
0.6
176
     1
 40
30.0
176
     1
 62
     7
420
 16777215
176
     1
 90
        1
176
     1
 90
        2
176
     1
 62
     7
176
     1
 62
   257
176
     1
 90
        2
176
     1
 90
        1
176
     1
 40
1.0
176
     1
 90
        8
176
     1
 62
   257
176
     1
 40
1.0
176
     1
 90
        1
176
     1
 90
        6
176
     1
 90
        2
176
     1
 62
     7
176
     1
 90
        3
176
     1
 90
        0
176
     1
 90
        0
176
     1
290
     0
176
     1
 90
        5
176
     1
 40
0.0
176
     1
 90
        0
176
     1
290
     0
176
     1
290
     1
176
     1
290
     1
176
     1
290
     0
176
     1
290
     0
176
     1
290
     0
176
     1
290
     0
176
     1
290
     0
176
     1
290
     0
176
     1
 90
       50
176
     1
 40
0.0
176
     1
 40
1.0
176
     1
 90
        0
176
     1
 62
    18
420
        0
176
     1
 90
       50
176
     1
 90
        3
176
     1
 62
     5
420
      255
176
     1
290
     0
176
     1
 90
       50
176
     1
 90
       50
176
     1
 90
       50
176
     1
290
     0
176
     1
 90
       50
176
     1
 62
   256
176
     0
 40
1.0
176
     0
 90
        2
176
     1
  1
strokes_ogs.tif
176
     1
290
     0
176
     1
 40
1.0
176
     1
 40
1.0
176
     1
1001
ACAD
1000
AcDbSavedByObjectVersion
1070
     0
  0
VISUALSTYLE
  5
17E
102
{ACAD_REACTORS
330
99
102
}
330
99
100
AcDbVisualStyle
  2
Shades of Gray
 70
    23
177
     3
291
     0
 70
    58
 90
        2
176
     1
 90
        2
176
     1
 90
        3
176
     1
 90
        0
176
     1
 40
0.6
176
     1
 40
30.0
176
     1
 62
     7
420
 16777215
176
     1
 90
        2
176
     1
 90
        2
176
     1
 62
     7
176
     1
 62
     7
176
     1
 90
        1
176
     1
 90
        1
176
     1
 40
40.0
176
     1
 90
        8
176
     1
 62
     7
176
     1
 40
1.0
176
     1
 90
        1
176
     1
 90
        6
176
     1
 90
        2
176
     1
 62
     7
176
     1
 90
        3
176
     1
 90
        0
176
     1
 90
        0
176
     1
290
     0
176
     1
 90
        1
176
     1
 40
0.0
176
     1
 90
        0
176
     1
290
     0
176
     1
290
     1
176
     1
290
     1
176
     1
290
     0
176
     1
290
     0
176
     1
290
     0
176
     1
290
     0
176
     1
290
     0
176
     1
290
     0
176
     1
 90
       50
176
     1
 40
0.0
176
     1
 40
1.0
176
     1
 90
        0
176
     1
 62
    18
420
        0
176
     1
 90
       50
176
     1
 90
        3
176
     1
 62
     5
420
      255
176
     1
290
     0
176
     1
 90
       50
176
     1
 90
       50
176
     1
 90
       50
176
     1
290
     0
176
     1
 90
       50
176
     1
 62
   256
176
     0
 40
1.0
176
     0
 90
        2
176
     1
  1
strokes_ogs.tif
176
     1
290
     0
176
     1
 40
1.0
176
     1
 40
1.0
176
     1
1001
ACAD
1000
AcDbSavedByObjectVersion
1070
     0
  0
VISUALSTYLE
  5
17F
102
{ACAD_REACTORS
330
99
102
}
330
99
100
AcDbVisualStyle
  2
Sketchy
 70
    24
177
     3
291
     0
 70
    58
 90
        1
176
     1
 90
        2
176
     1
 90
        2
176
     1
 90
        0
176
     1
 40
0.6
176
     1
 40
30.0
176
     1
 62
     7
420
 16777215
176
     1
 90
        2
176
     1
 90
        2
176
     1
 62
     7
176
     1
 62
     7
176
     1
 90
        1
176
     1
 90
        1
176
     1
 40
40.0
176
     1
 90
       11
176
     1
 62
     7
176
     1
 40
1.0
176
     1
 90
        1
176
     1
 90
        6
176
     1
 90
        2
176
     1
 62
     7
176
     1
 90
        6
176
     1
 90
        0
176
     1
 90
        0
176
     1
290
     0
176
     1
 90
        1
176
     1
 40
0.0
176
     1
 90
        0
176
     1
290
     0
176
     1
290
     1
176
     1
290
     1
176
     1
290
     0
176
     1
290
     0
176
     1
290
     0
176
     1
290
     0
176
     1
290
     0
176
     1
290
     0
176
     1
 90
       50
176
     1
 40
0.0
176
     1
 40
1.0
176
     1
 90
        0
176
     1
 62
    18
420
        0
176
     1
 90
       50
176
     1
 90
        3
176
     1
 62
     5
420
      255
176
     1
290
     0
176
     1
 90
       50
176
     1
 90
       50
176
     1
 90
       50
176
     1
290
     0
176
     1
 90
       50
176
     1
 62
   256
176
     0
 40
1.0
176
     0
 90
        2
176
     1
  1
strokes_ogs.tif
176
     1
290
     0
176
     1
 40
1.0
176
     1
 40
1.0
176
     1
1001
ACAD
1000
AcDbSavedByObjectVersion
1070
     0
  0
VISUALSTYLE
  5
A6
102
{ACAD_REACTORS
330
99
102
}
330
99
100
AcDbVisualStyle
  2
Thicken
 70
    13
177
     3
291
     1
 70
    58
 90
        2
176
     1
 90
        2
176
     1
 90
        1
176
     1
 90
        0
176
     1
 40
0.6
176
     1
 40
30.0
176
     1
 62
     7
420
 16777215
176
     1
 90
        1
176
     1
 90
        4
176
     1
 62
     7
176
     1
 62
   257
176
     1
 90
        1
176
     1
 90
        1
176
     1
 40
1.0
176
     1
 90
       12
176
     1
 62
     7
176
     1
 40
1.0
176
     1
 90
        1
176
     1
 90
        6
176
     1
 90
        2
176
     1
 62
     7
176
     1
 90
        5
176
     1
 90
        0
176
     1
 90
        0
176
     1
290
     0
176
     1
 90
        1
176
     1
 40
0.0
176
     1
 90
        0
176
     1
290
     0
176
     1
290
     1
176
     1
290
     1
176
     1
290
     0
176
     1
290
     0
176
     1
290
     0
176
     1
290
     0
176
     1
290
     0
176
     1
290
     0
176
     1
 90
       50
176
     1
 40
0.0
176
     1
 40
1.0
176
     1
 90
        0
176
     1
 62
    18
420
        0
176
     1
 90
       50
176
     1
 90
        3
176
     1
 62
     5
420
      255
176
     1
290
     0
176
     1
 90
       50
176
     1
 90
       50
176
     1
 90
       50
176
     1
290
     0
176
     1
 90
       50
176
     1
 62
   256
176
     0
 40
1.0
176
     0
 90
        2
176
     1
  1
strokes_ogs.tif
176
     1
290
     0
176
     1
 40
1.0
176
     1
 40
1.0
176
     1
1001
ACAD
1000
AcDbSavedByObjectVersion
1070
     0
  0
VISUALSTYLE
  5
A0
102
{ACAD_REACTORS
330
99
102
}
330
99
100
AcDbVisualStyle
  2
Wireframe
 70
     5
177
     3
291
     0
 70
    58
 90
        0
176
     1
 90
        2
176
     1
 90
        0
176
     1
 90
        0
176
     1
 40
0.6
176
     1
 40
30.0
176
     1
 62
     7
420
 16777215
176
     1
 90
        1
176
     1
 90
        4
176
     1
 62
     7
176
     1
 62
   257
176
     1
 90
        1
176
     1
 90
        1
176
     1
 40
1.0
176
     1
 90
        0
176
     1
 62
   257
176
     1
 40
1.0
176
     1
 90
        1
176
     1
 90
        6
176
     1
 90
        2
176
     1
 62
     7
176
     1
 90
        3
176
     1
 90
        0
176
     1
 90
        0
176
     1
290
     0
176
     1
 90
        1
176
     1
 40
0.0
176
     1
 90
        0
176
     1
290
     0
176
     1
290
     1
176
     1
290
     1
176
     1
290
     0
176
     1
290
     0
176
     1
290
     0
176
     1
290
     0
176
     1
290
     0
176
     1
290
     0
176
     1
 90
       50
176
     1
 40
0.0
176
     1
 40
1.0
176
     1
 90
        0
176
     1
 62
    18
420
        0
176
     1
 90
       50
176
     1
 90
        3
176
     1
 62
     5
420
      255
176
     1
290
     0
176
     1
 90
       50
176
     1
 90
       50
176
     1
 90
       50
176
     1
290
     0
176
     1
 90
       50
176
     1
 62
   256
176
     0
 40
1.0
176
     0
 90
        2
176
     1
  1
strokes_ogs.tif
176
     1
290
     0
176
     1
 40
1.0
176
     1
 40
1.0
176
     1
1001
ACAD
1000
AcDbSavedByObjectVersion
1070
     0
  0
VISUALSTYLE
  5
180
102
{ACAD_REACTORS
330
99
102
}
330
99
100
AcDbVisualStyle
  2
X-Ray
 70
    25
177
     3
291
     0
 70
    58
 90
        2
176
     1
 90
        2
176
     1
 90
        1
176
     1
 90
        1
176
     1
 40
0.5
176
     1
 40
30.0
176
     1
 62
     7
420
 16777215
176
     1
 90
        1
176
     1
 90
        0
176
     1
 62
     7
176
     1
 62
   257
176
     1
 90
        1
176
     1
 90
        1
176
     1
 40
1.0
176
     1
 90
        8
176
     1
 62
     7
176
     1
 40
1.0
176
     1
 90
        1
176
     1
 90
        6
176
     1
 90
        2
176
     1
 62
     7
176
     1
 90
        3
176
     1
 90
        0
176
     1
 90
        0
176
     1
290
     0
176
     1
 90
       13
176
     1
 40
0.0
176
     1
 90
        0
176
     1
290
     0
176
     1
290
     1
176
     1
290
     1
176
     1
290
     0
176
     1
290
     0
176
     1
290
     0
176
     1
290
     0
176
     1
290
     0
176
     1
290
     0
176
     1
 90
       50
176
     1
 40
0.0
176
     1
 40
1.0
176
     1
 90
        0
176
     1
 62
    18
420
        0
176
     1
 90
       50
176
     1
 90
        3
176
     1
 62
     5
420
      255
176
     1
290
     0
176
     1
 90
       50
176
     1
 90
       50
176
     1
 90
       50
176
     1
290
     0
176
     1
 90
       50
176
     1
 62
   256
176
     0
 40
1.0
176
     0
 90
        2
176
     1
  1
strokes_ogs.tif
176
     1
290
     0
176
     1
 40
1.0
176
     1
 40
1.0
176
     1
1001
ACAD
1000
AcDbSavedByObjectVersion
1070
     0
  0
DICTIONARYVAR
  5
F0
102
{ACAD_REACTORS
330
66
102
}
330
66
100
DictionaryVariables
280
     0
  1
1:1
  0
DICTIONARYVAR
  5
EF
102
{ACAD_REACTORS
330
66
102
}
330
66
100
DictionaryVariables
280
     0
  1
STANDARD
  0
DICTIONARYVAR
  5
89
102
{ACAD_REACTORS
330
66
102
}
330
66
100
DictionaryVariables
280
     0
  1
STANDARD
  0
DICTIONARYVAR
  5
1B7
102
{ACAD_REACTORS
330
66
102
}
330
66
100
DictionaryVariables
280
     0
  1
Imperial24
  0
DICTIONARYVAR
  5
1B8
102
{ACAD_REACTORS
330
66
102
}
330
66
100
DictionaryVariables
280
     0
  1
Imperial24
  0
DICTIONARYVAR
  5
67
102
{ACAD_REACTORS
330
66
102
}
330
66
100
DictionaryVariables
280
     0
  1
2
  0
DICTIONARYVAR
  5
6B
102
{ACAD_REACTORS
330
66
102
}
330
66
100
DictionaryVariables
280
     0
  1
1
  0
DICTIONARYVAR
  5
D2F
102
{ACAD_REACTORS
330
66
102
}
330
66
100
DictionaryVariables
280
     0
  1
BYLAYER
  0
DICTIONARYVAR
  5
D2E
102
{ACAD_REACTORS
330
66
102
}
330
66
100
DictionaryVariables
280
     0
  1
ByLayer
  0
DICTIONARYVAR
  5
14D
102
{ACAD_REACTORS
330
66
102
}
330
66
100
DictionaryVariables
280
     0
  1
0
  0
DICTIONARYVAR
  5
14E
102
{ACAD_REACTORS
330
66
102
}
330
66
100
DictionaryVariables
280
     0
  1
0
  0
DICTIONARY
  5
195A
102
{ACAD_REACTORS
330
1958
102
}
330
1958
100
AcDbDictionary
281
     1
  0
DICTIONARY
  5
1959
102
{ACAD_REACTORS
330
1958
102
}
330
1958
100
AcDbDictionary
281
     1
  3
867945648
350
1953
  3
867945664
350
1954
  3
867945680
350
1955
  3
867945696
350
1956
  3
867945712
350
1957
  0
DICTIONARY
  5
195D
330
1AC
100
AcDbDictionary
280
     1
281
     1
  3
ACAD_XREC_ROUNDTRIP
360
195E
  0
DICTIONARY
  5
194
330
22
100
AcDbDictionary
280
     1
281
     1
  3
AcPublish_PlotSettingsOverride
360
1950
  0
DICTIONARY
  5
188
330
97
100
AcDbDictionary
280
     1
281
     1
  3
FBXASSET
360
189
  0
DICTIONARY
  5
186
330
96
100
AcDbDictionary
280
     1
281
     1
  3
FBXASSET
360
187
  0
DICTIONARY
  5
110
330
98
100
AcDbDictionary
280
     1
281
     1
  3
BUMPTILE
360
112
  3
DIFFUSETILE
360
111
  3
FBXASSET
360
18A
  3
OPACITYTILE
360
113
  3
REFLECTIONTILE
360
114
  0
DICTIONARY
  5
195B
330
1AA
100
AcDbDictionary
280
     1
281
     1
  3
ACAD_XREC_ROUNDTRIP
360
195C
  0
DICTIONARY
  5
104
330
87
100
AcDbDictionary
280
     1
281
     1
  3
ACAD_ROUNDTRIP_2008_TABLESTYLE_CELLSTYLEMAP
360
1951
  0
XRECORD
  5
1953
102
{ACAD_REACTORS
330
1959
102
}
330
1959
100
AcDbXrecord
280
     1
  1
AcDb_Thumbnail_Schema
102
{ATTRRECORD
341
1954
  2
AcDbDs::TreatedAsObjectData
280
     1
291
     1
102
ATTRRECORD}
102
{ATTRRECORD
341
1955
  2
AcDbDs::Legacy
280
     1
291
     1
102
ATTRRECORD}
  2
AcDbDs::ID
280
    10
 91
        8
102
{ATTRRECORD
341
1956
  2
AcDs:Indexable
280
     1
291
     1
102
ATTRRECORD}
102
{ATTRRECORD
341
1957
  2
AcDbDs::HandleAttribute
280
     7
282
     1
102
ATTRRECORD}
  2
Thumbnail_Data
280
    15
 91
        0
  0
XRECORD
  5
1954
102
{ACAD_REACTORS
330
1959
102
}
330
1959
100
AcDbXrecord
280
     1
  1
AcDbDs::TreatedAsObjectDataSchema
  2
AcDbDs::TreatedAsObjectData
280
     1
 91
        0
  0
XRECORD
  5
1955
102
{ACAD_REACTORS
330
1959
102
}
330
1959
100
AcDbXrecord
280
     1
  1
AcDbDs::LegacySchema
  2
AcDbDs::Legacy
280
     1
 91
        0
  0
XRECORD
  5
1956
102
{ACAD_REACTORS
330
1959
102
}
330
1959
100
AcDbXrecord
280
     1
  1
AcDbDs::IndexedPropertySchema
  2
AcDs:Indexable
280
     1
 91
        0
  0
XRECORD
  5
1957
102
{ACAD_REACTORS
330
1959
102
}
330
1959
100
AcDbXrecord
280
     1
  1
AcDbDs::HandleAttributeSchema
  2
AcDbDs::HandleAttribute
280
     7
 91
        1
284
     1
  0
XRECORD
  5
195E
102
{ACAD_REACTORS
330
195D
102
}
330
195D
100
AcDbXrecord
280
     1
102
DISPLAYNAME
  1
Imperial24
102
FLAGS
 90
        0
  0
PLOTSETTINGS
  5
1950
102
{ACAD_REACTORS
330
194
102
}
330
194
100
AcDbPlotSettings
  1

  2
none_device
  4
ANSI_A_(8.50_x_11.00_Inches)
  6

 40
6.349999904632568
 41
19.04999923706055
 42
6.350006103515625
 43
19.04998779296875
 44
215.8999938964844
 45
279.3999938964844
 46
0.0
 47
0.0
 48
0.0
 49
0.0
140
0.0
141
0.0
142
1.0
143
35.40829350876864
 70
 11952
 72
     0
 73
     1
 74
     0
  7

 75
     0
147
0.0282419710442232
 76
     0
 77
     2
 78
   300
148
1902.926251405196
149
386.8821217259994
  0
XRECORD
  5
189
102
{ACAD_REACTORS
330
188
102
}
330
188
100
AcDbXrecord
280
     1
 70
     1
 90
429727718
  1
508B35C9-AEE7-456F-BE74-D52651303AC6
310
504B03040A0000080000B670623B3DEE336E79000000790000001B0000006175746F6465736B2D64657369676E2D7061636B6167652E786D6C3C3F786D6C2076657273696F6E3D22312E302220656E636F64696E673D227574662D3822203F3E3C666F726D6174733E3C666F726D61743E687474703A2F2F736368656D612E
310
6175746F6465736B2E636F6D2F64657369676E2D7061636B6167652F323030393C2F666F726D61743E3C2F666F726D6174733E504B0304140006080800B670623BD486FD9CA0000000F4000000130000005B436F6E74656E745F54797065735D2E786D6C7D8EC10E82300C865F65E91D8A1E8C310C0EEA1BF002731658846E
310
D98AC1B77784ABF1D8FE5FBFBF75BBCE937A534CCEB38643598122B6FEE978D0B0485F9C41B54DDD7D022595594E1A469170414C76A4D9A4D207E29CF43ECE46F218070CC6BECC4078ACAA135ACF422C856C0E68EA1BF5669944DDD7BCDE7B1F8E415D77AECB980613C2E4AC91FC167A2B244592486606FC29C8FD7F045B9A
310
EF7053A7E60B504B0304140006080800B670623B28ED286BEB0000007C01000008000000636F72652E786D6C8D90416EC3201045AF82665B6183218D6D61A254764FD00B204C5C94182C03558F5F9C3852BBEB6A467FFE9B197D71FA9E6FE8CBACC17AD7012D0820E3B41FAD9B3A48F1826B40272956EFE32F1B20A766D3C1
310
268314D3EAD3B24BDABB685CCCAAF3A3D94515828980F42D371D04FD696655A814B3235C8B45E9AB9A4C419F5D8653B2237A1CB163DE672FD6AC209BF3C08E0D1B30EB19C3FC9D72FCC6EB231EFA33EDE96BDD341517E5064B11EDFCBCAF57A3A2194156843498524CAA0FCA5B7268F9E185D42D21A2DCEC7FA0B48CFF8492
310
759155FBBB0F2C80A4F991FB408A72CB22977B50B96EB9C91F504B0304140006080800B670623B55019EA25F0000007C00000007000000636E782E786D6C4DCB3B0E80201045D1AD90E915ED2CF8AC45050C11660C8261F98AB1B07AC9C97D42D718D865D3E909258CFD00CCE24AC6E326A164D74DC0B4128928FF32603847
310
2BA13128B1252AC747C6BAB984FC68F0B87FE8960A5C09FE86CFB69FBA01504B0304140006080800B670623B7BC41AC871010000D40300000C0000006662782F636F72652E786D6CC553ED6E8320147D15C2DF4501B56B6D90A64BBB27D80B50A5CE54C120983EFEAE1F4DD7A56BBA5FF3879273EEE59E7310BE393735EA95
310
ED2AA333CC428A91D2B9292A5D66D8BB63B0C26823B835C67D2BC348CB46657880B1E0A535BE9DA1DC68A7B403549B42CDA0EC3AE530CA6B5864B8CB3F552343E91D5474A7B095F949962A6421D0502778E72C0840D390E18DC5F170E664C205F7BE2A66B62A605A75AC94C522DDEEE3651AEF837817C741F2CE92E02D592D
310
83FD6ECB76EC7595A651C2C9D02CB8AB9A8BBADC2AE954814544691A3016D0E883256BBA58278B17BA5A53CAC9507ED3E4DBE2C9265F691747B3DCA9ADC382819091F8E1162272A8933DE82182932144F88C09DF060D8140C84E1EEA8B8F1340BDCA9DB1093085F157AA97B557309586747CD0EF0B4EA64E983A6E0EAEEFCE
310
889E9EF17847386AA94B30211D2C0FDE0D3AF9A4610EAD5536E8DD1969631B593F67E381C33F5157F17725E5A636F6BF1491F980C8FC7B90E13E8A2F504B0304140006080800B670623B70102A487D0000009D0000000B0000006662782F636E782E786D6C4DCCD10A83201886E15B91FFDC95A5C30335ACCDFB886521330D
310
A76397BF1A1DECE883878F57749FD5A3B74D2F17830472A901D9F088930B8B849267CC01754AA418F3DF0D5018572BE160506249B16C274D761E8BCFBB7A179E27F65CB39A0F14D396184C9921B81F34C3ACA1B4B99ABB6E6F062A25AA5F69DF23ACBE504B0304140006080800B670623B3610CA3329010000120200003100
310
00006662782F42384135303843342D343331462D343546312D424341352D3532343432364645413344462F636F72652E786D6C8D515B6EC32010BC0AE22B55850D0E446E848992B43E412FE000495162B07854397EA176A4F62F3F2C9A9D991D58BEBB8F37F0AD7D30CE76905418026DA553C65E3A98E219B510EC04F7CEC5
310
3F3408EC30EA0E16180A7EF12E4D0B249D8DDAC68C5AA7F4020E21E80881BCE54B0783FCD2E3500D296646B856D320AFC34557A4CAEDCC133C449F0380794839A138B47B86DB2345744D7A44594FD0E1B867883594369BFE63BF7EEF793D0B054FC9A8456E548E63CE46FB674D8A58F068C6477CE9F510B582A2C1F80D1182
310
70F349E816B32D65AFB8DD62CCEB42FF274A937A52948C8DEB66893BCB021484D7734370E5D2E9F608A3EF93F3119479ABA0E50B14B8C298119A43CCC4FCFCECB8A18B6388CEE7EF5D5D4F994BD86CBBA182D76543B9FCAE2FD7B24DF103504B0304140006080800B670623B1B8617914E0100003303000030000000666278
310
2F42384135303843342D343331462D343546312D424341352D3532343432364645413344462F636E782E786D6CD593C16EC32010447F0571AD6CE3D489D20813A9877E410FBD62D82434182CC055F3F75D1292E692438FBD206B7698593D61BEFD1E2DF982108D773D6D6B460938E5B571FB9ECE6957AD29D90A1EBC4F7736
310
4A9C1CA1A759A682EF839FA72269D8C9D92654AD71C72206887E0E0A22CAF926B15E498B01E0AA19451807D01A34B919F16B070157417138917400F2F6FA41FCF0092A45DEE414C19BDC21783E4BD39D891265658C3D8DEA00A3ACE59CBC8678ACB54CB26EEB6BD7839D7E9348BE70AD9C8321B9BCA7F9A4A26C542347DEE0
310
50F09802D22BA6749A800A394DD62899107273365E3C82CFC6A55557BC06C10774B7ABE7AEC3B0F34CF06446280E154026D0542C187BA9DAB6628BF7B6DBB0E5A65B3EB1F58631DE64BBE083F7B65CC218087E22CABB042E51D1F2268F1FE12B3EA24D40D63E9CFE00120194D60B9D5BC67FE6D39CDF37E20AF817881F504B
310
0304140006080800B670623BBFEF2E3B690500003C100000340000006662782F42384135303843342D343331462D343546312D424341352D3532343432364645413344462F6F626A656374732E786D6CAD575D739B3814FD2B0CFB0C98D84E931D4227B6938EA793B6534F3BFB90198F0099B001899144EAECAFDF231018B0
310
D37A3FFC609090EEE7B94757C1FB7D915B2F54C88CB31BDB7727B64559CC938CA53776A576CE956DBD0F03C1B9EA2DB32D460A7A63EB693B0C52C1ABD24C257447AA5C8D66EF177F5832A68CDA569C13296F6C193FD182B8A4523CA1F2D94D88226EBADBBBBEDB2C1C8A4D05299F46424B222853B014F30C52ACC6287F389C
310
D85E1878FA7B18E87FB36AFAF62AAFF667A83F635211161F291B8999FAB3D5DDC5FCDA99CF6653677679E13B8BFBC5CAF1DF4D27CBCBE5F2FAF6EE1A8AA51290642C117467871F101B91C581D77CEA2C36869F3229E68CD1B8F61F1ED6361B89092D294B90C78C4A68EB793D190E7D1D9BDEE7A91E1B95FDE9F3BCEAEFE809
310
6A6D6F9F7D4B79F4275C90E7A04248AA51D5C4C738DAE06F72885AC4796EBE65D22A88A22223B995679120E2D50EB1542F098381188D4EA111AE3DB043FF20AF6F2B4AE3D7D83D65E5AECA730D4D3BAC91BD05FEA992B565D95F549CD6069B90AB2A63EACA38A45E4B6A87D781574F86817E4C2FCCC72690D62E2729520E37
310
9BAF234797BAF6D62B3BFC781FED37BA1E4F2B2F052FA9501A3E80569BB8F6A9A364D4FA67654E6F803383981F82F21591FF84F23D9882BC896C3FDBCF8C162508933B2E0AE4C69DD43F6BD2BE38DDDBF10BF86CB4FA784D37F3AF16075E67EC9030DECA1FC0A55373F5DFF3378C591FA9BDF485C10B0A8C8BA909E5262639
310
A8E72163488806A595734C81CB77D1DE0ED7604A303B76913CEC0272F412782FF88EFF4636D8AA56DF7B322474C4B767303F625997056C7B032C473C592B36CEBD15F3F9FF5233B7ABCDC74D257624A60F8658567497B14CE1EC3C80B76FD02011038F9EE9EB0F2E12387A9C844D3F09855125116D1D731DF8B43D2CF4E0A0
310
79A020C6BE946BCE0B7EA1E1219331CD73C228AF5A2DDD31A4B1DA918CE91350854D40A71723140BFA92E94E62B0626016CEFA5864A50E5977E8753CEDBEE1CBB7F52780D20E17AF0BA0F5F9B02A3AD07DCC732EB6D1EBB661421BE0C39E21BABF0FE16D22EA6929407C8DE596724C88B749B6DB5512BC7B228ADFD7CB7EA6
310
3A22397E690BA8D5D8D4E40CEC8CDA23C2C0B7D5898640101CEC9C6D331CE328CB93CAFBBAC70A642DF70DF95155945B52F08AA973C23469FD69ADEF84F7BB18F983A8F8C90E37F5D35980B2139A1C523540813E824EF83448CF7C72B598CE97D7CEEDDDDD3B6736BFBC771677EF66CE6A7E7139F7A793E9EDF2B2B3A8B624
310
0CDA13AA5F8388264EC4A0129909F3B7F5A16CEDF08128E97D680ACA4B9BE7B7B58BB638F0B00700EF36AE8B32A705658A68F83EE897FC2B41573190D1CCAF0B92D233A47CFEB019D9809933F67DD1A5467F8CF69AD9A5AE859342D45355448C64F968A371DC2D596ADC6E43D93D1B466F877A64E2893E54F23C4B40388995
310
525E5005DA3983ED45412510D3EFCA13737B3863F74BD30F2A12E5B4B5E489A025CE25500DB855B11ACE5BBFA185D35DD48D8DC3CE7DC69F2944DB42AA6F6CF09BCA622ADD08C7A36E7C6AE18000BAB08E040135C2D21C9D75B3A91B77BB746C403F38018DFE6EC939DD92F16B40BC05294B9CDA035AAD6D330AE27FE4786B
310
8E45145EA34A75BE1C263A676A35A8ACC6297337400BF16C54EF515F3F77CB77EB3583889C754FFA29081AA98E2222ADEF05DA3E63D2EDEA8B8756C05A7FB6CABC4A91CBF325398202CC952E70A008A830324BA200D5E5EF8F5F04C75DB4B0EE3340E071C98B823333B83577596BF3849B69F2085AA0FAFA212F26BEFF5877
310
FDE622B28D88A42E49E43326DA82D31E8CB006401E1DA726059ECEC168F97A6599036306A135688F9AD2E61A6EA178F4CD51974A9F2CCB9F36FE5EBD14601068D9C3BF01504B0304140006080000B670623B000000000000000000000000350000006662782F42384135303843342D343331462D343546312D424341352D35
310
32343432364645413344462F76657274696365732E62696E504B0304140006080800B670623BF270F1330600000004000000360000006662782F42384135303843342D343331462D343546312D424341352D3532343432364645413344462F747269616E676C65732E62696E636660600000504B0304140006080000B67062
310
3B000000000000000000000000370000006662782F42384135303843342D343331462D343546312D424341352D3532343432364645413344462F617474726962757465732E62696E504B0304140006080800B670623B08DA0BD19000000041010000360000006662782F42384135303843342D343331462D343546312D4243
310
41352D3532343432364645413344462F6469726563746F72792E786D6C858F410AC3201045AF22B36F53E9A60B35CBEEBAE80D244E44489C6234F4F835464A48035D0DF398FF9F8AF63D0E6CC63039F212F8F9020C7D47C6792B21C5FE7403D62A1188E2E60C98D7234A5830286103A55745067B9D86B8A3CF9C7F90C11DE6
310
07FB144396D7B6A82D282E9A152AD114D5EF2CB866EEE831B8EEA07A7BB5A8D7D61A2BAAEB7FD5F70921FF497D00504B0304140006080800B670623B3B4606F3FE000000A00100003B0000006662782F42384135303843342D343331462D343546312D424341352D3532343432364645413344462F7265736F75726365732F
310
636F72652E786D6C8D504B6E833010BD0A9A6D65B08134808CA354A427E8052C332156828DFCA97AFC9A40A576D7CDCCE87D344F8F9FBEE647F689CE6B6B7A6039850C8DB2A336530F315C4903D94970676DF82583CCC8197B5861107C72362E3BA4AC096842428D1D7107A5F71820538F74F4E0D50D6799CB1892C2DFF345
310
AABB9C306779A2934E701F5C0A906D4FD609C2A1B7D129F4BCD858C163D4E3AED163FAA9AF1A1D88F67CA98E6D35906AA82A52BFB39ABCD5CD915C86331BD86BD3B665CD8BD52C78D0F34F46E550061C419494B6843142CB0F5677F4D0D58717DA7494F26295FF31C565FCA7296A13AA728FBBD93C0896823C09C18BB5AFB4
310
9E65A6BD762BBE01504B010214000A0000080000B670623B3DEE336E79000000790000001B00000000000000000000000000000000006175746F6465736B2D64657369676E2D7061636B6167652E786D6C504B01021400140006080800B670623BD486FD9CA0000000F40000001300000000000000000000000000B2000000
310
5B436F6E74656E745F54797065735D2E786D6C504B01021400140006080800B670623B28ED286BEB0000007C010000080000000000000000000000000083010000636F72652E786D6C504B01021400140006080800B670623B55019EA25F0000007C000000070000000000000000000000000094020000636E782E786D6C50
310
4B01021400140006080800B670623B7BC41AC871010000D40300000C00000000000000000000000000180300006662782F636F72652E786D6C504B01021400140006080800B670623B70102A487D0000009D0000000B00000000000000000000000000B30400006662782F636E782E786D6C504B01021400140006080800B6
310
70623B3610CA3329010000120200003100000000000000000000000000590500006662782F42384135303843342D343331462D343546312D424341352D3532343432364645413344462F636F72652E786D6C504B01021400140006080800B670623B1B8617914E010000330300003000000000000000000000000000D10600
310
006662782F42384135303843342D343331462D343546312D424341352D3532343432364645413344462F636E782E786D6C504B01021400140006080800B670623BBFEF2E3B690500003C10000034000000000000000000000000006D0800006662782F42384135303843342D343331462D343546312D424341352D35323434
310
32364645413344462F6F626A656374732E786D6C504B01021400140006080000B670623B0000000000000000000000003500000000000000000000000000280E00006662782F42384135303843342D343331462D343546312D424341352D3532343432364645413344462F76657274696365732E62696E504B010214001400
310
06080800B670623BF270F133060000000400000036000000000000000000000000007B0E00006662782F42384135303843342D343331462D343546312D424341352D3532343432364645413344462F747269616E676C65732E62696E504B01021400140006080000B670623B00000000000000000000000037000000000000
310
00000000000000D50E00006662782F42384135303843342D343331462D343546312D424341352D3532343432364645413344462F617474726962757465732E62696E504B01021400140006080800B670623B08DA0BD1900000004101000036000000000000000000000000002A0F00006662782F42384135303843342D3433
310
31462D343546312D424341352D3532343432364645413344462F6469726563746F72792E786D6C504B01021400140006080800B670623B3B4606F3FE000000A00100003B000000000000000000000000000E1000006662782F42384135303843342D343331462D343546312D424341352D3532343432364645413344462F72
310
65736F75726365732F636F72652E786D6C504B0506000000000E000E0080040000651100000000
  0
XRECORD
  5
187
102
{ACAD_REACTORS
330
186
102
}
330
186
100
AcDbXrecord
280
     1
 70
     1
 90
429727718
  1
887D55A9-D0DD-414E-B741-A7DCD4DA2B4C
310
504B03040A0000080000B670623B3DEE336E79000000790000001B0000006175746F6465736B2D64657369676E2D7061636B6167652E786D6C3C3F786D6C2076657273696F6E3D22312E302220656E636F64696E673D227574662D3822203F3E3C666F726D6174733E3C666F726D61743E687474703A2F2F736368656D612E
310
6175746F6465736B2E636F6D2F64657369676E2D7061636B6167652F323030393C2F666F726D61743E3C2F666F726D6174733E504B0304140006080800B670623BD486FD9CA0000000F4000000130000005B436F6E74656E745F54797065735D2E786D6C7D8EC10E82300C865F65E91D8A1E8C310C0EEA1BF002731658846E
310
D98AC1B77784ABF1D8FE5FBFBF75BBCE937A534CCEB38643598122B6FEE978D0B0485F9C41B54DDD7D022595594E1A469170414C76A4D9A4D207E29CF43ECE46F218070CC6BECC4078ACAA135ACF422C856C0E68EA1BF5669944DDD7BCDE7B1F8E415D77AECB980613C2E4AC91FC167A2B244592486606FC29C8FD7F045B9A
310
EF7053A7E60B504B0304140006080800B670623BBC1638F5EC0000007C01000008000000636F72652E786D6C8D90416EC3201045AF82665B61836BE2D8C24471DB9CA01740401C94182C03558F5F9C3852BBEB6A467FFE9B197D7EF89E6EE8CB2CC17AD7032D0820E394D7D68D3DA478C67B4007C117EFE32F1B202727D3C3
310
2A83E0E3E2D3BC49CABB685CCCAAF3DA6CA20CC14440EA969B1E82BA98491632C5EC08D76296EA2A4753D06797E194AC468F2356E77DF66CCD02825543D50CACC62D39ED70FDC68EB8FD68F6F8787A6784342D1DDA1D2F5758F068A7E77DB518198D065111D2624A31A93E69DD11D6D5EC85EC3B4278B9DAFF4069D6FF8492
310
75F1B5DADE7D600104CD8FDC0782976B16B9DC83CA75CD4DFC00504B0304140006080800B670623B55019EA25F0000007C00000007000000636E782E786D6C4DCB3B0E80201045D1AD90E915ED2CF8AC45050C11660C8261F98AB1B07AC9C97D42D718D865D3E909258CFD00CCE24AC6E326A164D74DC0B4128928FF326038
310
472BA13128B1252AC747C6BAB984FC68F0B87FE8960A5C09FE86CFB69FBA01504B0304140006080800B670623B3586FFB671010000D40300000C0000006662782F636F72652E786D6CC553ED6E8320147D15C2DF4541A76D6D90A6DDD627D80B50A4CE54C120983EFEAE1F4DD7A55BBA5FF3879273EEE59E7310B6393735EA
310
95ED2AA3731C851423A5A5292A5DE6D8BB63B0C268C39935C67D29C3488B46E578803167A535BE9D2169B453DA01AA4DA16650749D7218C91A1639EEE4876A4428BC838AEE14B6429E44A9C228041AEA38EB9C0501681A32BC313F1ECE8C4C3867DE57C5CC56054CAB8E95B298A7F12E5EEED224C8E87E11242FE936C8DE96
310
AB60BB7F4D295D66D12E5B30323473E6AAE6A24E5A259C2A308F29CD82280A68FC1E256B9AAE93F489AED694323294DF34F9B678B0C957DA3DC7B3DCA9ADC33C022123F1CD2D44E450277AD04338234388F01913BE0D1A0281909D38D4171F27807A259DB1093085F157AA17B557309586747CD0CF0B46A64E983A6E0EAEEF
310
CE881F9EF1FB8E70D44297604238581EBC1B74B249C31C5AAB6CD0BB33D2C636A27ECCC62F0EFF445DC5DF95244D6DEC7F2922F30191F9F720C37DE49F504B0304140006080800B670623B4220A0FF7D0000009D0000000B0000006662782F636E782E786D6C4DCCD10A83201886E15B91FFDCE542CB0335D0EC3E6259C84A
310
C3E9D8E5AF46073BFAE0E1E315DD675BD1DBA5978F41C2FD4600B9F088930F8B849267CC01754AA418F3DF0D50183727E164506249B1EC174D6E1ECB9A0F5D7D785E68DB8151CD286E5A5363CA6B8A39E90D36D40E96B086F55A43A544F52B1D7B86D517504B0304140006080800B670623B2FA3FEDE290100001202000031
310
0000006662782F45374635344235342D363743322D343832342D383044432D4334454645303536354442422F636F72652E786D6C8D515B6EC32010BC0AE22B55850D2E386E848994D7097A0117488A1283C5A3CAF10BB523B57FF961D1ECCCECC0F2ED7DBC816FED8371B687A4C210682B9D32F6D2C314CFA883602BB8772E
310
FEA141608751F7B0C050F08B77695A20E96CD43666D43AA5177008414708E42D5F7A18E4971E876A483133C2B59A06791D2EBA22556E679EE021FA1C00CC43CA09C5717D6274C7286AD7FB06D1AEA1A8C3873DDAD3E3E98859CB0EBB1DAF67A1E02919B5C88DCA71CCD968FFAC49110B1ECDF8882FBD1EA256503418BF2342
310
106E3E08DD60B6A1EC15771B8C795DE8FF4469524F8A92B1F1AD59E2CEB20005E1F5DC105CB9F4797B84D1F7C9F908CABC55D0F2050A5C61CC1AD2F27A26E6E767C7962E8E213A9FBF7775FDCC5CC266DB960A5E970DE5F2BBBE5CCB36C50F504B0304140006080800B670623B1B8617914E01000033030000300000006662
310
782F45374635344235342D363743322D343832342D383044432D4334454645303536354442422F636E782E786D6CD593C16EC32010447F0571AD6CE3D489D20813A9877E410FBD62D82434182CC055F3F75D1292E692438FBD206B7698593D61BEFD1E2DF982108D773D6D6B460938E5B571FB9ECE6957AD29D90A1EBC4F77
310
364A9C1CA1A759A682EF839FA72269D8C9D92654AD71C72206887E0E0A22CAF926B15E498B01E0AA19451807D01A34B919F16B070157417138917400F2F6FA41FCF0092A45DEE414C19BDC21783E4BD39D891265658C3D8DEA00A3ACE59CBC8678ACB54CB26EEB6BD7839D7E9348BE70AD9C8321B9BCA7F9A4A26C542347DE
310
E050F09802D22BA6749A800A394DD62899107273365E3C82CFC6A55557BC06C10774B7ABE7AEC3B0F34CF06446280E154026D0542C187BA9DAB6628BF7B6DBB0E5A65B3EB1F58631DE64BBE083F7B65CC218087E22CABB042E51D1F2268F1FE12B3EA24D40D63E9CFE00120194D60B9D5BC67FE6D39CDF37E20AF817881F50
310
4B0304140006080800B670623B29652116630500003C100000340000006662782F45374635344235342D363743322D343832342D383044432D4334454645303536354442422F6F626A656374732E786D6CAD575D739B3814FD2B0CFB0C989834C90EA1639B24E3E9A6EDD4D3CE3E64C623834CD8006224913AFDF57B040203
310
B65BEF871F0C12D2FD3CF7E8CA7FBFCB33E3957291B2E2D674ED8969D02262715A24B76625B7D6B569BC0F7CCE98EC2D338D82E4F4D654D366E0279C55A59E8AE99654991CCDDECFFF3444440B6A1A514684B83545F44C7362934AB2988A173B2692D8C97667BB76B3702836E1A47C1E092D09A78584A5982F20C5688C7287
310
C389E904BEA3BE07BEFAD7ABA6A75739B53F43FD69212429A20365233153D70BEF2E2E6FAC4BCF9B5ADEBB0BD79ADFCF43CBBD9A4E16EF168B9BD9DD0D140BC921495BC2E9D60C1E101B9E46BED37CEA2CD6861F3329624541A3DA7F7858DBAC25C6B4A4458C3CA654405BCFEBC970E8AAD8F43E4FD558ABEC4F9FE7557F47
310
4F506B7BFBEC5BCA367FC105710E2AB8A00A554D7CB4A30DFE26FBA86D18CBF4B75418399194A72433B274C3097F33032C554B027F2046A1932B842B0FCCC0DDCBEBDB8AD2F835768F59B9ADB24C41D30C6A64AF817F2A456D59FA83F2E3DA60137255A585BCD60EC9B7929AC18DEFD49381AF1ED30BFDB109A4B1CD488294
310
C3CDE6EBC8D185AABD6568061FEE37BB95AAC7E3CA4BCE4ACAA5820FA0D526AE7DAA2869B5EE5999531BE0CC20E6FBA07C41E43FA27CF7A6206F3CDD793B4F6B919C1462CB788EDCD893FA674CDA17AB7B3B7C019F8D561FAEE966FED562DFE98C1D12C6A9FC015C2A35D7FF3D7FC398F591DA4B5FE0BFA2C0189FEA50AE22
310
92817A1ED3020951A03432862970F976B33383259812CC8E5D240BBA801CBCF8CE2BBEE3BF910DB6AAD5F79E05123AE2DB33981FB1ACCB02B69D00CB014FD68AB573A7627EF9BFD4CC2C5C7D58557C4B22FAA88925A4DBB44825CECE3D78FB060D1231F0E885BE7D673C86A3874958F593906B5502D1563157814FDAC3420D
310
F69A070A22EC4B98E23CFF171A1E5311D12C23056555ABA53B8614563B92D17D02AAB009E8F46284624E5F53D5490C560CCCC2591FF1B45421EB0EBD8EA7ED13BE7C5D7E0428CD60FEF60779EB13E6664FF711CB185F6FDED60D139A001FF60CD1FD6D086F1D51474901E26B2CB794A343BC8ED3EDB612E0DD2351FCB65CF4
310
33D511C9E14B5B40ADC6A6263DB0336A8F700DDF56271A024E70B0B3629DE21847591E55DED73D56206AB927E46FAABC5C939C55853C274C93D69FD6FA4E78BF8B11DF898C9ECD60553FAD39283BA6F18984AA23E8884F83F45C5F5F859797B31B2B9C84A1E5B9DE9D35BFF25C6B76152E422F9C5DCC3D847F5801ED09D5AF
310
41441327A25FF15487F9EB725FB666F048A4701E9A827292E6F97569A32DF61DEC01C0BB8DCBBCCC684E0B49147C1FD54BF685A0AB18C868E6973949E819523E3DAC463660E68C7D9F55A9D1EFA3BD7A76A16AE1A810F95CE59B82A4D968A376DC2E8B44BBDD86B27B368CDE0ED548C7137DA860591A83706223A12CA712B4
310
7306DBF39C0A20A6DF95C7FAF670C6EED7A61F946493D1D6926782963813403548A78AE470DEF80D2D9CEAA26E4D1C76F60BFE74219A06527D6B82DF641A51616F703CAAC6A7160E08A00BEB4810A0274592A1B36E3675E36E978A0DE80727A0D6DF2D39A75BD27E0D8837276589537B40ABB56D5A41F48F1C6FCD3188C4EB
310
A6929D2FFB89CE995A4D00AE813BDD032DC48B56BD437DFDDC2DD7AED70C2272D63DE9A72068A45A92F0A4BE17A8A06B9366E16707AD80B1FC649459952097E74BB23805982B55E0401150A165964402AA8BDF9F3E7386BB686EDCA780C0D382E5392BF460A6EFB2C6EA1937D3F809B440D5F5435C4C5CF7A9EEFAF54564BD
310
2182DA24162F98680B4E7930C21A0079709CEAEB99A372305ABE0C0D7D6078105A83F6A0296DAEE1068A47DD1C55A9F4C9B2FC69E3EFD44B81028E963DF81B504B0304140006080000B670623B000000000000000000000000350000006662782F45374635344235342D363743322D343832342D383044432D433445464530
310
3536354442422F76657274696365732E62696E504B0304140006080800B670623BF270F1330600000004000000360000006662782F45374635344235342D363743322D343832342D383044432D4334454645303536354442422F747269616E676C65732E62696E636660600000504B0304140006080000B670623B00000000
310
0000000000000000370000006662782F45374635344235342D363743322D343832342D383044432D4334454645303536354442422F617474726962757465732E62696E504B0304140006080800B670623B08DA0BD19000000041010000360000006662782F45374635344235342D363743322D343832342D383044432D4334
310
454645303536354442422F6469726563746F72792E786D6C858F410AC3201045AF22B36F53E9A60B35CBEEBAE80D244E44489C6234F4F835464A48035D0DF398FF9F8AF63D0E6CC63039F212F8F9020C7D47C6792B21C5FE7403D62A1188E2E60C98D7234A5830286103A55745067B9D86B8A3CF9C7F90C11DE607FB144396
310
D7B6A82D282E9A152AD114D5EF2CB866EEE831B8EEA07A7BB5A8D7D61A2BAAEB7FD5F70921FF497D00504B0304140006080800B670623B6378F24DFF000000A00100003B0000006662782F45374635344235342D363743322D343832342D383044432D4334454645303536354442422F7265736F75726365732F636F72652E
310
786D6C8D504B6E833010BD0A9A6D65B0094E42641C85B639412F6099496225D8C89FAAC7AF09546A77DDCC8CDE47F3F4C4F16B7C149FE88371B603565228D06A37187BED20C50BD9437194C23B177FC9A0B06AC40E6618A4B87A97A615D2CE46B431A3D60DB8822A048C50E8473E3A08FA86A32A558A5911EEE5A4F45D5DB1
310
6465A6B34E8A107D0E502C4FE609D26370C96B0CA25A58295232C3AA3143FE692E063D485EF7F5AEE71BD2D2F39634AFFC44DAF7DD9E9CCE6F9CD25DCBFA762BAAD92C4534E34F46ED51451C40D694B6843142EB0FD61C283F34FC85EE0F948A6A96FF31A569F8A729191B37F51A77B105902C0779125254735F793DCBCC7B
310
EE567E03504B010214000A0000080000B670623B3DEE336E79000000790000001B00000000000000000000000000000000006175746F6465736B2D64657369676E2D7061636B6167652E786D6C504B01021400140006080800B670623BD486FD9CA0000000F40000001300000000000000000000000000B20000005B436F6E
310
74656E745F54797065735D2E786D6C504B01021400140006080800B670623BBC1638F5EC0000007C010000080000000000000000000000000083010000636F72652E786D6C504B01021400140006080800B670623B55019EA25F0000007C000000070000000000000000000000000095020000636E782E786D6C504B010214
310
00140006080800B670623B3586FFB671010000D40300000C00000000000000000000000000190300006662782F636F72652E786D6C504B01021400140006080800B670623B4220A0FF7D0000009D0000000B00000000000000000000000000B40400006662782F636E782E786D6C504B01021400140006080800B670623B2F
310
A3FEDE290100001202000031000000000000000000000000005A0500006662782F45374635344235342D363743322D343832342D383044432D4334454645303536354442422F636F72652E786D6C504B01021400140006080800B670623B1B8617914E010000330300003000000000000000000000000000D2060000666278
310
2F45374635344235342D363743322D343832342D383044432D4334454645303536354442422F636E782E786D6C504B01021400140006080800B670623B29652116630500003C10000034000000000000000000000000006E0800006662782F45374635344235342D363743322D343832342D383044432D4334454645303536
310
354442422F6F626A656374732E786D6C504B01021400140006080000B670623B0000000000000000000000003500000000000000000000000000230E00006662782F45374635344235342D363743322D343832342D383044432D4334454645303536354442422F76657274696365732E62696E504B01021400140006080800
310
B670623BF270F13306000000040000003600000000000000000000000000760E00006662782F45374635344235342D363743322D343832342D383044432D4334454645303536354442422F747269616E676C65732E62696E504B01021400140006080000B670623B0000000000000000000000003700000000000000000000
310
000000D00E00006662782F45374635344235342D363743322D343832342D383044432D4334454645303536354442422F617474726962757465732E62696E504B01021400140006080800B670623B08DA0BD190000000410100003600000000000000000000000000250F00006662782F45374635344235342D363743322D34
310
3832342D383044432D4334454645303536354442422F6469726563746F72792E786D6C504B01021400140006080800B670623B6378F24DFF000000A00100003B00000000000000000000000000091000006662782F45374635344235342D363743322D343832342D383044432D4334454645303536354442422F7265736F75
310
726365732F636F72652E786D6C504B0506000000000E000E0080040000611100000000
  0
XRECORD
  5
112
102
{ACAD_REACTORS
330
110
102
}
330
110
100
AcDbXrecord
280
     1
270
     1
271
     1
  0
XRECORD
  5
111
102
{ACAD_REACTORS
330
110
102
}
330
110
100
AcDbXrecord
280
     1
270
     1
271
     1
  0
XRECORD
  5
18A
102
{ACAD_REACTORS
330
110
102
}
330
110
100
AcDbXrecord
280
     1
 70
     0
 90
1778669749
  1
9BF507EE-FAF7-4A99-A33D-4EE51894BC40
310
504B03040A0000080000B670623B3DEE336E79000000790000001B0000006175746F6465736B2D64657369676E2D7061636B6167652E786D6C3C3F786D6C2076657273696F6E3D22312E302220656E636F64696E673D227574662D3822203F3E3C666F726D6174733E3C666F726D61743E687474703A2F2F736368656D612E
310
6175746F6465736B2E636F6D2F64657369676E2D7061636B6167652F323030393C2F666F726D61743E3C2F666F726D6174733E504B0304140006080800B670623BD486FD9CA0000000F4000000130000005B436F6E74656E745F54797065735D2E786D6C7D8EC10E82300C865F65E91D8A1E8C310C0EEA1BF002731658846E
310
D98AC1B77784ABF1D8FE5FBFBF75BBCE937A534CCEB38643598122B6FEE978D0B0485F9C41B54DDD7D022595594E1A469170414C76A4D9A4D207E29CF43ECE46F218070CC6BECC4078ACAA135ACF422C856C0E68EA1BF5669944DDD7BCDE7B1F8E415D77AECB980613C2E4AC91FC167A2B244592486606FC29C8FD7F045B9A
310
EF7053A7E60B504B0304140006080800B670623BCA089DFFEC0000007C01000008000000636F72652E786D6C8D90416E83301045AF62CDB632D8402020E32882F604BD80653BC44AB011B6AB1EBF262152BBEB6A467FFE9B197D76FA9EEFE84BAFDE38DB03CD08206DA553C64E3DC470C1474027CE56E7C22F1B202B66DDC3
310
260367D3EAE2B24BD2D9A06D48AA754AEFA2F05E0740F29E9A1EBCBCEA59642286E4F0B76C11F226269DD15797E0188D42CF2346A57DE662F40ABCAEC77628C6120F654571D50C04B7F5B9C1E3997CD4F550BE3745C3F20DE62C98F9755FAE5A04AD801784B498524C8A4F5A75E4D055873772EC0861F966FF03C545FD138A
310
C686B2D8DF7D621E384D8F3C069CE55B16A93C824A75CB8DFF00504B0304140006080800B670623B55019EA25F0000007C00000007000000636E782E786D6C4DCB3B0E80201045D1AD90E915ED2CF8AC45050C11660C8261F98AB1B07AC9C97D42D718D865D3E909258CFD00CCE24AC6E326A164D74DC0B4128928FF326038
310
472BA13128B1252AC747C6BAB984FC68F0B87FE8960A5C09FE86CFB69FBA01504B0304140006080800B670623B68FC0B7272010000D40300000C0000006662782F636F72652E786D6CC5535B6E833010BC8AE5DF0A6C1E8124328E22D29EA01770C0A128602363A31CBFCB234A53A555FA553EC09AD9F5CE8C31DB5DDA060D
310
D2F4B556190E7C8A9154852E6B5565D8D993B7C668C799D1DA7E29C3488956667884316795D1AE5BA0422B2B950554E9522EA0E87B69312A1A5864B82F3E642B7CE12C54F467BF13C55954D20F7CA0A18EB3DE1A1080E621E31BF3D3F1C2C88C73E65C5D2E6C5DC2B4FA544B8379921C36797888BC3C8A032F4E73EA6D927D
310
EA1DF6F42D49F2E8350D5346C666CE6CDD5ED515460A2B4BCC434A375E1078347C0FE22D5D6DE3D50B5D6F2965642CBF6B725DF96493AB958DC245EEDCD6631E809089F8E61622B2A81703E8219C913144F84C09DF070D8140C8561C9BAB8F3340832CAC363130A576376A108D933095FA747AD0CF0B46E64E983A6D0EAE1F
310
CE089F9EF1FB8E70D44255604258581E9D1D75B259C3125A278D37D80B52DAB4A279CEC62F0EFF44DDC43F9454E8469BFF5244960322CBEF41C6FBC83F01504B0304140006080800B670623B0F71DDB67E0000009D0000000B0000006662782F636E782E786D6C4DCCD10A83201886E15B91FFDCA54DB73F502386BB8F5816
310
32D3703976F9ABD1C18E3E78F87855FB990379BBFCF2296AE02706C4C5471A7C9C349475A408A4352AA7B4FEDD80C47E761A7606A3A69CCA72D0E0C6BE8475D3E0E3F3409428EA6B27A84079A782899AA2EC1A7AE3ECCC2FD858CB2D544655BFD2B67BD87C01504B0304140006080800B670623BE134B4FB28010000120200
310
00310000006662782F38353834323741342D343835462D343034322D383541392D4331303331363839454531452F636F72652E786D6C8D515B6EC32010BC0AE22B55850D0EA424C24451959EA0172086A42831583CAA1CBF503B52FB971F16CDCECC0EACD8DFC71BF836215AEF7A481A0C817183D7D65D7A98D3197108F652
310
04EFD31F1A044E8DA6871586525C82CFD3020DDE25E352419DD76601558C264130DCCAA58771F832A36A544E8511AFCDA486ABBA988634A55D7852C4144A00300FA927949C71DABD1D28A29C7D208A6987383B6CD13BC16BB2E1DBE3911C453B0BA5C8D9EA456E758963CFD684674DAA588A64C747FC2118958C86B2C3788B
310
0841B8FB247487D98EB257CC77188BB6D2FF89F2A49F1465EBD2BA5BE2CEB2082511EDDC9042FB7CBA3DC298FBE4430275DE2A9AE1054ADC60CC08E3A29D89E5F9C5714317C7987C28DFBBBA9E0A97B0D97643A568EB864AF95D5FA9759BF207504B0304140006080800B670623B1B8617914E010000330300003000000066
310
62782F38353834323741342D343835462D343034322D383541392D4331303331363839454531452F636E782E786D6CD593C16EC32010447F0571AD6CE3D489D20813A9877E410FBD62D82434182CC055F3F75D1292E692438FBD206B7698593D61BEFD1E2DF982108D773D6D6B460938E5B571FB9ECE6957AD29D90A1EBC4F
310
77364A9C1CA1A759A682EF839FA72269D8C9D92654AD71C72206887E0E0A22CAF926B15E498B01E0AA19451807D01A34B919F16B070157417138917400F2F6FA41FCF0092A45DEE414C19BDC21783E4BD39D891265658C3D8DEA00A3ACE59CBC8678ACB54CB26EEB6BD7839D7E9348BE70AD9C8321B9BCA7F9A4A26C542347
310
DEE050F09802D22BA6749A800A394DD62899107273365E3C82CFC6A55557BC06C10774B7ABE7AEC3B0F34CF06446280E154026D0542C187BA9DAB6628BF7B6DBB0E5A65B3EB1F58631DE64BBE083F7B65CC218087E22CABB042E51D1F2268F1FE12B3EA24D40D63E9CFE00120194D60B9D5BC67FE6D39CDF37E20AF817881F
310
504B0304140006080800B670623B5933D422630500003B100000340000006662782F38353834323741342D343835462D343034322D383541392D4331303331363839454531452F6F626A656374732E786D6CAD575B6FA33814FE2B887D0642934E9B156594264D158D3A534DD4D13E548A0C38942D60649B4EBABF7E3F8321
310
40924EF6928780CDF1B97EE762EFF32E4B8D37CA45C2F21BD3B547A641F39045491EDF98A5DC5AD7A6F1D9F73863B243661A39C9E88DA9B64DDF8B392B0BBD15D12D295339D85DDEFE618890E6D434C2940871638AF08566C426A5641115AF764424B1E3EDCE76ED9AB0CF36E6A47819302D08A7B984A6D8CFC1C5A89572FB
310
CB91E9F89EA3BEFB9EFAD754E3D3544E654F5F7E920B49F2F040D880CDD89D2CEE2E2EA7D6E56432B6269F2E5CEB7679BBB0DCABF168FE693E9FCEEEA6102C240727AD09A75BD3BF876F78127A4EFDA9D5582B7E4CA590E5390D2BFB6161A5B3E618D182E611E2985001691DAB47FDA5AB7CD3F93C566B2DB2BB7D9E55DD13
310
1D468DEECDB3AB290BFE8409E21C54704115AA6AFF68436BFC8DF65E0B184BF5B74418199194272435D224E084BF9B3E481589EFF5D828747285706581E9BB7B7E5D5D911ABFC6EE312DB7659A2A689A7E85EC0DF04FA5A8344BFEA2FCB834E8845895492EAFB541F2BDA0A63FF59C6AD3F7D4637CA13FD68E34B629891172
310
98597F1D183A57B9B75A98FE9765B05BAB7C3C2EBCE0ACA05C2AF8005A4DE09AA7F29216EB9E15397500C6F47CBE77CA7778FE2BD277AF0AE2C693DD6437D1522427B9D8329E2136F6A8FA19A3E6C56ADF0E5F50CF06D48734EDCEBF22F69C56D97EC138153F804B85E6FABFC7AFEFB32E523BE1F3BD372418E363EDCA7548
310
52949E8724474014288D94610BB57C1BEC4C7F854A89CA8E5324F55B871CBC78CE1BBEE3BFE68D6A5589EF3C730474506FCFA8FCF0659516D0ED04580EEA6425581B77CAE797FF4BCECC16EB2FEB926F49481F746159D06D922712BD730FDEAE42BD40F42C7AA5EF3F198F60E86110D6DD20645A9480B795CF95E3E3A659A8
310
C55E724F408873315335CFFB8584874484344D494E59D94869DB90C26A5B64F49C802CAC1D3ABE18A098D3B7444D123D8A9E5AE8F5214F0AE5B2B6E9B575DA3E61CBD3EA2B4009FA940524DD1305FB6A1FB294F14DF0BEA90BA109ECE1481FDC3FFAE8D60E75141700BE82725371B4873751B2DD960265F788137FACE6DD40
310
B575E4F0A5C99F46629D92131467A41EE11ABD8D4CCC039CA0AFB37C93A08B232B8F0AEFCA1E0A1015DF13FC83322B362463652ECF71D3A8B1A7D1BE65DE1D62C44F22C317D35F574FEB16153BA2D13E543D10A80E74C4A65E78A6B7CBCBD1D5DD9DB59C2DAFACC96C3AB566E3F1C29ADCDD5DBAD7D3C9ED7C822ED74F80A6
310
41755310DE4443F44A9E68373FADF6596BFA0F440AE7BECE2727AE9F4F2B1B53B1E7E00CF0DD1E5C65454A339A4BA2D0FBA05ED2EF0443458F47BDBFCA484CCFE0F2ED7E3DD0013B679C7B5499467F0ECEEADDB9CA85A34CE44B99053949D2C1416DB85DE4B136BB7165FBAC0B7AB3542BED4F8CA182A549847A1319316519
310
95A83A67147B9E5101C47487F2485F1ECE38FD568F839204296D3479219888530154036E6528FBFBC66F98E0D4107563A2D7D9AFF8D389681A08F58D89F22693900A3B407754734FC51C10C010D6D640809EE4718AC1BA3ED4AEDB53CA37283F68805A7E4B72CEB0A4EDEAD5DD8C14059A76AFAA56BA6901E13F32BC51C720
310
12AF41295B5BF61BAD3195181FB506E6B40F4C10AF5AF40EF9F5B159AE5DD1F43C72D635E94310D45C2D49785C5D0B94D3B54AB3C5A38349C0587D338AB48C11CBF339599C02CCA54A70A008A8D03C0B2201D5F9EFCF8F9CE12A9A19CB0410789EB32C63B95ECCF455D658BFE0621A3DA32C5075FB101723D77DAE867E7D0F
310
D90444509B44E2151B4DC2290B065803200FBAA9BE9D392A0603F2D5C2D00D6302A615680F66D2FA166E2079D4C551A54AB758161FCEFD4E450A14704CECFEDF504B0304140006080000B670623B000000000000000000000000350000006662782F38353834323741342D343835462D343034322D383541392D4331303331
310
363839454531452F76657274696365732E62696E504B0304140006080800B670623BF270F1330600000004000000360000006662782F38353834323741342D343835462D343034322D383541392D4331303331363839454531452F747269616E676C65732E62696E636660600000504B0304140006080000B670623B000000
310
000000000000000000370000006662782F38353834323741342D343835462D343034322D383541392D4331303331363839454531452F617474726962757465732E62696E504B0304140006080800B670623B08DA0BD19000000041010000360000006662782F38353834323741342D343835462D343034322D383541392D43
310
31303331363839454531452F6469726563746F72792E786D6C858F410AC3201045AF22B36F53E9A60B35CBEEBAE80D244E44489C6234F4F835464A48035D0DF398FF9F8AF63D0E6CC63039F212F8F9020C7D47C6792B21C5FE7403D62A1188E2E60C98D7234A5830286103A55745067B9D86B8A3CF9C7F90C11DE607FB1443
310
96D7B6A82D282E9A152AD114D5EF2CB866EEE831B8EEA07A7BB5A8D7D61A2BAAEB7FD5F70921FF497D00504B0304140006080800B670623BD9A3B367FE000000A00100003B0000006662782F38353834323741342D343835462D343034322D383541392D4331303331363839454531452F7265736F75726365732F636F7265
310
2E786D6C8D504B6E833010BD0A9A6D65B01D0201194711694FD00B586642AD043BF2A7EAF16B122AB5BB6E6646EFA3797AE2F8B5DC8A4FF4C1383B002B291468B59B8C9D0748F1420E501CA5F0CEC55F3228AC5A708015062966EFD27D83B4B3116DCCA875136EA00A012314FA968F0182FEC045952AC5AC08D7F2AEF455CD
310
58B232D3592745883E07289E4FD609D26370C96B0CA27AB252A464A64D63A6FCD35C0C7A904D73EE467EE664DCD58CD4ED4849D79C5A723ED1B7A61977AF2D6F45B59AA58866F9C9A83DAA8813484E6947182394BFB3BAA7FBBEDEBFD0434FA9A856F91F53BA4FFF342563E38E6F719FB60092E5200F428A6AED2BAF479979
310
AFDDCA6F504B010214000A0000080000B670623B3DEE336E79000000790000001B00000000000000000000000000000000006175746F6465736B2D64657369676E2D7061636B6167652E786D6C504B01021400140006080800B670623BD486FD9CA0000000F40000001300000000000000000000000000B20000005B436F6E
310
74656E745F54797065735D2E786D6C504B01021400140006080800B670623BCA089DFFEC0000007C010000080000000000000000000000000083010000636F72652E786D6C504B01021400140006080800B670623B55019EA25F0000007C000000070000000000000000000000000095020000636E782E786D6C504B010214
310
00140006080800B670623B68FC0B7272010000D40300000C00000000000000000000000000190300006662782F636F72652E786D6C504B01021400140006080800B670623B0F71DDB67E0000009D0000000B00000000000000000000000000B50400006662782F636E782E786D6C504B01021400140006080800B670623BE1
310
34B4FB280100001202000031000000000000000000000000005C0500006662782F38353834323741342D343835462D343034322D383541392D4331303331363839454531452F636F72652E786D6C504B01021400140006080800B670623B1B8617914E010000330300003000000000000000000000000000D3060000666278
310
2F38353834323741342D343835462D343034322D383541392D4331303331363839454531452F636E782E786D6C504B01021400140006080800B670623B5933D422630500003B10000034000000000000000000000000006F0800006662782F38353834323741342D343835462D343034322D383541392D4331303331363839
310
454531452F6F626A656374732E786D6C504B01021400140006080000B670623B0000000000000000000000003500000000000000000000000000240E00006662782F38353834323741342D343835462D343034322D383541392D4331303331363839454531452F76657274696365732E62696E504B01021400140006080800
310
B670623BF270F13306000000040000003600000000000000000000000000770E00006662782F38353834323741342D343835462D343034322D383541392D4331303331363839454531452F747269616E676C65732E62696E504B01021400140006080000B670623B0000000000000000000000003700000000000000000000
310
000000D10E00006662782F38353834323741342D343835462D343034322D383541392D4331303331363839454531452F617474726962757465732E62696E504B01021400140006080800B670623B08DA0BD190000000410100003600000000000000000000000000260F00006662782F38353834323741342D343835462D34
310
3034322D383541392D4331303331363839454531452F6469726563746F72792E786D6C504B01021400140006080800B670623BD9A3B367FE000000A00100003B000000000000000000000000000A1000006662782F38353834323741342D343835462D343034322D383541392D4331303331363839454531452F7265736F75
310
726365732F636F72652E786D6C504B0506000000000E000E0080040000611100000000
  0
XRECORD
  5
113
102
{ACAD_REACTORS
330
110
102
}
330
110
100
AcDbXrecord
280
     1
270
     1
271
     1
  0
XRECORD
  5
114
102
{ACAD_REACTORS
330
110
102
}
330
110
100
AcDbXrecord
280
     1
270
     1
271
     1
  0
XRECORD
  5
195C
102
{ACAD_REACTORS
330
195B
102
}
330
195B
100
AcDbXrecord
280
     1
102
DISPLAYNAME
  1
Imperial24
102
FLAGS
 90
        0
  0
CELLSTYLEMAP
  5
1951
102
{ACAD_REACTORS
330
104
102
}
330
104
100
AcDbCellStyleMap
 90
        3
300
CELLSTYLE
  1
TABLEFORMAT_BEGIN
 90
        5
170
     1
 91
        0
 92
    32768
 62
   257
 93
        1
300
CONTENTFORMAT
  1
CONTENTFORMAT_BEGIN
 90
        0
 91
        0
 92
      512
 93
        0
300

 40
0.0
140
1.0
 94
        5
 62
     0
340
11
144
0.25
309
CONTENTFORMAT_END
171
     1
301
MARGIN
  1
CELLMARGIN_BEGIN
 40
0.06
 40
0.06
 40
0.06
 40
0.06
 40
0.18
 40
0.18
309
CELLMARGIN_END
 94
        6
 95
        1
302
GRIDFORMAT
  1
GRIDFORMAT_BEGIN
 90
        0
 91
        1
 62
     0
 92
       -2
340
0
 93
        0
 40
0.045
309
GRIDFORMAT_END
 95
        2
302
GRIDFORMAT
  1
GRIDFORMAT_BEGIN
 90
        0
 91
        1
 62
     0
 92
       -2
340
0
 93
        0
 40
0.045
309
GRIDFORMAT_END
 95
        4
302
GRIDFORMAT
  1
GRIDFORMAT_BEGIN
 90
        0
 91
        1
 62
     0
 92
       -2
340
0
 93
        0
 40
0.045
309
GRIDFORMAT_END
 95
        8
302
GRIDFORMAT
  1
GRIDFORMAT_BEGIN
 90
        0
 91
        1
 62
     0
 92
       -2
340
0
 93
        0
 40
0.045
309
GRIDFORMAT_END
 95
       16
302
GRIDFORMAT
  1
GRIDFORMAT_BEGIN
 90
        0
 91
        1
 62
     0
 92
       -2
340
0
 93
        0
 40
0.045
309
GRIDFORMAT_END
 95
       32
302
GRIDFORMAT
  1
GRIDFORMAT_BEGIN
 90
        0
 91
        1
 62
     0
 92
       -2
340
0
 93
        0
 40
0.045
309
GRIDFORMAT_END
309
TABLEFORMAT_END
  1
CELLSTYLE_BEGIN
 90
        1
 91
        1
300
_TITLE
309
CELLSTYLE_END
300
CELLSTYLE
  1
TABLEFORMAT_BEGIN
 90
        5
170
     1
 91
        0
 92
        0
 62
   257
 93
        1
300
CONTENTFORMAT
  1
CONTENTFORMAT_BEGIN
 90
        0
 91
        0
 92
      512
 93
        0
300

 40
0.0
140
1.0
 94
        5
 62
     0
340
11
144
0.18
309
CONTENTFORMAT_END
171
     1
301
MARGIN
  1
CELLMARGIN_BEGIN
 40
0.06
 40
0.06
 40
0.06
 40
0.06
 40
0.18
 40
0.18
309
CELLMARGIN_END
 94
        6
 95
        1
302
GRIDFORMAT
  1
GRIDFORMAT_BEGIN
 90
        0
 91
        1
 62
     0
 92
       -2
340
0
 93
        0
 40
0.045
309
GRIDFORMAT_END
 95
        2
302
GRIDFORMAT
  1
GRIDFORMAT_BEGIN
 90
        0
 91
        1
 62
     0
 92
       -2
340
0
 93
        0
 40
0.045
309
GRIDFORMAT_END
 95
        4
302
GRIDFORMAT
  1
GRIDFORMAT_BEGIN
 90
        0
 91
        1
 62
     0
 92
       -2
340
0
 93
        0
 40
0.045
309
GRIDFORMAT_END
 95
        8
302
GRIDFORMAT
  1
GRIDFORMAT_BEGIN
 90
        0
 91
        1
 62
     0
 92
       -2
340
0
 93
        0
 40
0.045
309
GRIDFORMAT_END
 95
       16
302
GRIDFORMAT
  1
GRIDFORMAT_BEGIN
 90
        0
 91
        1
 62
     0
 92
       -2
340
0
 93
        0
 40
0.045
309
GRIDFORMAT_END
 95
       32
302
GRIDFORMAT
  1
GRIDFORMAT_BEGIN
 90
        0
 91
        1
 62
     0
 92
       -2
340
0
 93
        0
 40
0.045
309
GRIDFORMAT_END
309
TABLEFORMAT_END
  1
CELLSTYLE_BEGIN
 90
        2
 91
        1
300
_HEADER
309
CELLSTYLE_END
300
CELLSTYLE
  1
TABLEFORMAT_BEGIN
 90
        5
170
     1
 91
        0
 92
        0
 62
   257
 93
        1
300
CONTENTFORMAT
  1
CONTENTFORMAT_BEGIN
 90
        0
 91
        0
 92
      512
 93
        0
300

 40
0.0
140
1.0
 94
        2
 62
     0
340
11
144
0.18
309
CONTENTFORMAT_END
171
     1
301
MARGIN
  1
CELLMARGIN_BEGIN
 40
0.06
 40
0.06
 40
0.06
 40
0.06
 40
0.18
 40
0.18
309
CELLMARGIN_END
 94
        6
 95
        1
302
GRIDFORMAT
  1
GRIDFORMAT_BEGIN
 90
        0
 91
        1
 62
     0
 92
       -2
340
0
 93
        0
 40
0.045
309
GRIDFORMAT_END
 95
        2
302
GRIDFORMAT
  1
GRIDFORMAT_BEGIN
 90
        0
 91
        1
 62
     0
 92
       -2
340
0
 93
        0
 40
0.045
309
GRIDFORMAT_END
 95
        4
302
GRIDFORMAT
  1
GRIDFORMAT_BEGIN
 90
        0
 91
        1
 62
     0
 92
       -2
340
0
 93
        0
 40
0.045
309
GRIDFORMAT_END
 95
        8
302
GRIDFORMAT
  1
GRIDFORMAT_BEGIN
 90
        0
 91
        1
 62
     0
 92
       -2
340
0
 93
        0
 40
0.045
309
GRIDFORMAT_END
 95
       16
302
GRIDFORMAT
  1
GRIDFORMAT_BEGIN
 90
        0
 91
        1
 62
     0
 92
       -2
340
0
 93
        0
 40
0.045
309
GRIDFORMAT_END
 95
       32
302
GRIDFORMAT
  1
GRIDFORMAT_BEGIN
 90
        0
 91
        1
 62
     0
 92
       -2
340
0
 93
        0
 40
0.045
309
GRIDFORMAT_END
309
TABLEFORMAT_END
  1
CELLSTYLE_BEGIN
 90
        3
 91
        2
300
_DATA
309
CELLSTYLE_END
  0
ENDSEC
  0
SECTION
  2
ACDSDATA
 70
     2
 71
     8
  0
ACDSSCHEMA
 90
        0
  1
AcDb_Thumbnail_Schema
  2
AcDbDs::ID
280
    10
 91
        8
  2
Thumbnail_Data
280
    15
 91
        0
101
ACDSRECORD
 95
        0
 90
        1
  2
AcDbDs::TreatedAsObjectData
280
     1
291
     1
101
ACDSRECORD
 95
        0
 90
        2
  2
AcDbDs::Legacy
280
     1
291
     1
101
ACDSRECORD
  1
AcDbDs::ID
 90
        3
  2
AcDs:Indexable
280
     1
291
     1
101
ACDSRECORD
  1
AcDbDs::ID
 90
        4
  2
AcDbDs::HandleAttribute
280
     7
282
     1
  0
ACDSSCHEMA
 90
        1
  1
AcDbDs::TreatedAsObjectDataSchema
  2
AcDbDs::TreatedAsObjectData
280
     1
 91
        0
  0
ACDSSCHEMA
 90
        2
  1
AcDbDs::LegacySchema
  2
AcDbDs::Legacy
280
     1
 91
        0
  0
ACDSSCHEMA
 90
        3
  1
AcDbDs::IndexedPropertySchema
  2
AcDs:Indexable
280
     1
 91
        0
  0
ACDSSCHEMA
 90
        4
  1
AcDbDs::HandleAttributeSchema
  2
AcDbDs::HandleAttribute
280
     7
 91
        1
284
     1
  0
ACDSRECORD
 90
        0
  2
AcDbDs::ID
280
    10
320
22
  2
Thumbnail_Data
280
    15
 94
     1548
310
89504E470D0A1A0A0000000D49484452000001000000007108030000000DA58D8400000300504C5445212830FFFFFF2128300000000000000000000000000000000000000000000000000000330000660000990000CC0000FF0033000033330033660033990033CC0033FF0066000066330066660066990066CC0066FF0099
310
000099330099660099990099CC0099FF00CC0000CC3300CC6600CC9900CCCC00CCFF00FF0000FF3300FF6600FF9900FFCC00FFFF3300003300333300663300993300CC3300FF3333003333333333663333993333CC3333FF3366003366333366663366993366CC3366FF3399003399333399663399993399CC3399FF33CC00
310
33CC3333CC6633CC9933CCCC33CCFF33FF0033FF3333FF6633FF9933FFCC33FFFF6600006600336600666600996600CC6600FF6633006633336633666633996633CC6633FF6666006666336666666666996666CC6666FF6699006699336699666699996699CC6699FF66CC0066CC3366CC6666CC9966CCCC66CCFF66FF0066
310
FF3366FF6666FF9966FFCC66FFFF9900009900339900669900999900CC9900FF9933009933339933669933999933CC9933FF9966009966339966669966999966CC9966FF9999009999339999669999999999CC9999FF99CC0099CC3399CC6699CC9999CCCC99CCFF99FF0099FF3399FF6699FF9999FFCC99FFFFCC0000CC00
310
33CC0066CC0099CC00CCCC00FFCC3300CC3333CC3366CC3399CC33CCCC33FFCC6600CC6633CC6666CC6699CC66CCCC66FFCC9900CC9933CC9966CC9999CC99CCCC99FFCCCC00CCCC33CCCC66CCCC99CCCCCCCCCCFFCCFF00CCFF33CCFF66CCFF99CCFFCCCCFFFFFF0000FF0033FF0066FF0099FF00CCFF00FFFF3300FF3333
310
FF3366FF3399FF33CCFF33FFFF6600FF6633FF6666FF6699FF66CCFF66FFFF9900FF9933FF9966FF9999FF99CCFF99FFFFCC00FFCC33FFCC66FFCC99FFCCCCFFCCFFFFFF00FFFF33FFFF66FFFF99FFFFCCFFFFFF0000000D0D0D1A1A1A2828283535354343435050505D5D5D6B6B6B787878868686939393A1A1A1AEAEAEBB
310
BBBBC9C9C9D6D6D6E4E4E4F1F1F1FFFFFF0000000000000000000000000000000000000000000000000000000000002E4550F1000002964944415478DAED9CC976C3200C45F9FFFF7DFBB6496D06DB31483868D2A65D240EBA3C0921384E292C2C2C2C8C67F8B30010000280620F1603807200EA7FFF3D852B6DBD02168EE1
310
F7A7DD86C036F701200004006F001000F67547E32A8019E2975507903ECF183A5497C22FCDF266503980B7C7D9751600852190B396530013BE1F0064755302C02A00FF45D013DB71C8079097D027CA21A8098187EA00C80E213C3DD0313DC15E53B0FB91AF5F875463887134072C75336F8DEF03ABE769C3F8B81A1CCFB868
310
E09FE8963426A274B83118002601E80901F7001E49A11600349E8CD6017A432003A8A6DD1180FC184E25680000520008001E00DC96D39422623D80AD334254000EE76B76015CCC7F755C357CDC2807403912F40C7CAB00AC004820E7806406C05ED9790250362628000E9FD60AE05E0155F55BFC05AF29AA470117FE5B0150
310
44F1D5532FFCB71202B727061DCD50DD0D91C78F4CA42741D700DE3A0E001E00B479ADAEED3D28A02AE2CE93377A078F5D395447C424C1445805F61590211AED000A2D390460AA0E08000120008C02207580EC01807705D03D107C33EC3B00C429205100245F004E760BE0DDB8D50F80B96EAA0530EBC2AD2E00E586B9F81F
310
C92300F7216019006ECF05D2B46BE64A001C7CB3AD80D40140710EF8D014BD54B22500AD6393F72D46019C54827B090C5603451780BA0E28093851405308E54B4270A280BA103A3D58769603F804F402680A8A00E02F07D44D21D80670B83E5687BD4B00935E46620480A6E3F149000EB7CB6D03F85C077008985806B7C301
310
5FBBC11A0059036A37436800245015009D009AA9235702625EA1C10B01FA8EF8FBEF11A287605733D13280472C000480001000BC0210F22E319E03DCCBE2CB1534670AB500C05C80C54D019F00449862003FE472765D5D2AA16D0000000049454E44AE42608278C05000A90EB60B60A78188FA76D81E804525B8B8B8B8B8B8
310
B8F4C8179480BC7F6EE598F40000000049454E44AE426082
  0
ENDSEC
  0
EOF
